osu file format v14

[General]
AudioFilename: M2U - Magnolia.mp3
AudioLeadIn: 0
PreviewTime: 62062
Countdown: 0
SampleSet: Soft
StackLeniency: 0.7
Mode: 3
LetterboxInBreaks: 0
SpecialStyle: 0
WidescreenStoryboard: 1

[Editor]
Bookmarks: 185010
DistanceSpacing: 1.5
BeatDivisor: 8
GridSize: 4
TimelineZoom: 3.099999

[Metadata]
Title:M2U Pack
TitleUnicode:M2U Pack
Artist:M2U
ArtistUnicode:M2U
Creator:Kim_GodSSI
Version:Magnolia 7K
Source:
Tags:arpia97 lami- buschan ezmmr micleak nabi- ruka takjun roasted chicken murumoo other nicode sherie 約束之歌 guriri 구리리 howling redeye red eye lucy egoist 最後の花弁 나래
BeatmapID:3470125
BeatmapSetID:1572720

[Difficulty]
HPDrainRate:7
CircleSize:7
OverallDifficulty:5
ApproachRate:5
SliderMultiplier:1.4
SliderTickRate:1

[Events]
//Background and Video events
0,0,"M2U - Magnolia.jpg",0,0
//Break Periods
//Storyboard Layer 0 (Background)
//Storyboard Layer 1 (Fail)
//Storyboard Layer 2 (Pass)
//Storyboard Layer 3 (Foreground)
//Storyboard Layer 4 (Overlay)
//Storyboard Sound Samples

[TimingPoints]
562,375,4,2,0,0,1,0

[HitObjects]
36,192,562,128,0,1249:0:0:0:0:
182,192,562,128,0,749:0:0:0:0:
402,192,562,128,0,937:0:0:0:0:
329,192,562,1,0,0:0:0:0:
109,192,562,1,0,0:0:0:0:
475,192,562,1,0,0:0:0:0:
256,192,749,128,0,937:0:0:0:0:
109,192,937,128,0,1249:0:0:0:0:
475,192,937,128,0,1249:0:0:0:0:
329,192,937,128,0,1124:0:0:0:0:
402,192,1124,128,0,1249:0:0:0:0:
182,192,1312,128,0,1999:0:0:0:0:
36,192,1312,1,0,0:0:0:0:
329,192,1312,1,0,0:0:0:0:
475,192,1312,1,0,0:0:0:0:
402,192,1312,1,0,0:0:0:0:
475,192,1687,1,0,0:0:0:0:
402,192,1687,128,0,1999:0:0:0:0:
36,192,1687,1,0,0:0:0:0:
256,192,1874,128,0,1999:0:0:0:0:
36,192,1874,1,0,0:0:0:0:
182,192,2062,1,0,0:0:0:0:
36,192,2062,1,0,0:0:0:0:
256,192,2062,1,0,0:0:0:0:
402,192,2062,1,0,0:0:0:0:
475,192,2062,1,0,0:0:0:0:
109,192,2062,128,0,2530:0:0:0:0:
402,192,2437,128,0,2749:0:0:0:0:
256,192,2437,1,0,0:0:0:0:
256,192,2624,128,0,2749:0:0:0:0:
109,192,2624,1,0,0:0:0:0:
256,192,2812,1,0,0:0:0:0:
36,192,2812,128,0,2952:0:0:0:0:
109,192,2812,128,0,2858:0:0:0:0:
475,192,2812,128,0,3140:0:0:0:0:
402,192,2812,128,0,2858:0:0:0:0:
182,192,2905,128,0,2952:0:0:0:0:
329,192,2905,128,0,2952:0:0:0:0:
109,192,2999,128,0,3046:0:0:0:0:
402,192,2999,128,0,3046:0:0:0:0:
36,192,2999,128,0,3327:0:0:0:0:
182,192,3093,128,0,3140:0:0:0:0:
329,192,3093,128,0,3140:0:0:0:0:
109,192,3187,128,0,3233:0:0:0:0:
475,192,3187,128,0,3515:0:0:0:0:
402,192,3187,128,0,3233:0:0:0:0:
182,192,3280,128,0,3327:0:0:0:0:
329,192,3280,128,0,3327:0:0:0:0:
36,192,3374,128,0,3515:0:0:0:0:
402,192,3374,128,0,3421:0:0:0:0:
109,192,3374,128,0,3421:0:0:0:0:
182,192,3468,128,0,3515:0:0:0:0:
329,192,3468,128,0,3515:0:0:0:0:
109,192,3562,1,0,0:0:0:0:
256,192,3562,128,0,3749:0:0:0:0:
36,192,3562,128,0,3937:0:0:0:0:
475,192,3562,128,0,3937:0:0:0:0:
329,192,3749,128,0,3937:0:0:0:0:
109,192,3937,128,0,4249:0:0:0:0:
402,192,3937,128,0,4249:0:0:0:0:
182,192,3937,128,0,4249:0:0:0:0:
329,192,4124,128,0,4249:0:0:0:0:
475,192,4312,1,0,0:0:0:0:
36,192,4312,1,0,0:0:0:0:
109,192,4312,1,0,0:0:0:0:
256,192,4312,128,0,4999:0:0:0:0:
402,192,4312,1,0,0:0:0:0:
109,192,4687,128,0,4999:0:0:0:0:
475,192,4687,1,0,0:0:0:0:
36,192,4687,1,0,0:0:0:0:
402,192,4874,128,0,4999:0:0:0:0:
329,192,4874,1,0,0:0:0:0:
182,192,5062,128,0,5624:0:0:0:0:
402,192,5062,1,0,0:0:0:0:
36,192,5062,1,0,0:0:0:0:
256,192,5062,1,0,0:0:0:0:
475,192,5062,1,0,0:0:0:0:
402,192,5437,128,0,5749:0:0:0:0:
36,192,5437,1,0,0:0:0:0:
329,192,5624,128,0,5749:0:0:0:0:
109,192,5624,1,0,0:0:0:0:
475,192,5812,128,0,5952:0:0:0:0:
109,192,5812,128,0,5858:0:0:0:0:
36,192,5812,128,0,6140:0:0:0:0:
256,192,5812,1,0,0:0:0:0:
182,192,5812,128,0,5858:0:0:0:0:
329,192,5905,128,0,5952:0:0:0:0:
402,192,5905,128,0,5952:0:0:0:0:
475,192,5999,128,0,6327:0:0:0:0:
109,192,5999,128,0,6046:0:0:0:0:
182,192,5999,128,0,6046:0:0:0:0:
402,192,6093,128,0,6140:0:0:0:0:
329,192,6093,128,0,6140:0:0:0:0:
36,192,6187,128,0,6515:0:0:0:0:
182,192,6187,128,0,6233:0:0:0:0:
109,192,6187,128,0,6233:0:0:0:0:
329,192,6280,128,0,6327:0:0:0:0:
402,192,6280,128,0,6327:0:0:0:0:
475,192,6374,128,0,6515:0:0:0:0:
182,192,6374,128,0,6421:0:0:0:0:
109,192,6374,128,0,6421:0:0:0:0:
329,192,6468,128,0,6515:0:0:0:0:
402,192,6468,128,0,6515:0:0:0:0:
109,192,6562,1,0,0:0:0:0:
402,192,6562,1,0,0:0:0:0:
36,192,6562,128,0,6937:0:0:0:0:
256,192,6562,128,0,6749:0:0:0:0:
475,192,6562,128,0,6937:0:0:0:0:
182,192,6749,128,0,6937:0:0:0:0:
109,192,6937,128,0,7249:0:0:0:0:
402,192,6937,128,0,7249:0:0:0:0:
256,192,6937,128,0,7124:0:0:0:0:
329,192,7124,128,0,7249:0:0:0:0:
256,192,7312,1,0,0:0:0:0:
36,192,7312,1,0,0:0:0:0:
402,192,7312,128,0,7999:0:0:0:0:
475,192,7312,1,0,0:0:0:0:
109,192,7312,1,0,0:0:0:0:
109,192,7687,128,0,7999:0:0:0:0:
36,192,7687,1,0,0:0:0:0:
475,192,7687,1,0,0:0:0:0:
256,192,7874,128,0,7999:0:0:0:0:
182,192,7874,1,0,0:0:0:0:
182,192,8062,1,0,0:0:0:0:
475,192,8062,1,0,0:0:0:0:
109,192,8062,1,0,0:0:0:0:
36,192,8062,128,0,8437:0:0:0:0:
329,192,8062,1,0,0:0:0:0:
402,192,8062,1,0,0:0:0:0:
182,192,8437,1,0,0:0:0:0:
329,192,8437,1,0,0:0:0:0:
475,192,8437,128,0,8749:0:0:0:0:
329,192,8624,128,0,8749:0:0:0:0:
182,192,8624,1,0,0:0:0:0:
402,192,8812,128,0,9140:0:0:0:0:
109,192,8812,128,0,8952:0:0:0:0:
329,192,8812,128,0,8858:0:0:0:0:
475,192,8812,1,0,0:0:0:0:
36,192,8812,1,0,0:0:0:0:
256,192,8812,1,0,0:0:0:0:
182,192,8905,128,0,8952:0:0:0:0:
109,192,8999,128,0,9327:0:0:0:0:
256,192,8999,128,0,9046:0:0:0:0:
329,192,9093,128,0,9140:0:0:0:0:
402,192,9187,128,0,9515:0:0:0:0:
182,192,9187,128,0,9233:0:0:0:0:
329,192,9280,128,0,9327:0:0:0:0:
109,192,9374,128,0,9515:0:0:0:0:
256,192,9374,128,0,9421:0:0:0:0:
182,192,9468,128,0,9515:0:0:0:0:
109,192,9562,1,0,0:0:0:0:
256,192,9562,1,0,0:0:0:0:
402,192,9562,1,0,0:0:0:0:
475,192,9562,128,0,9937:0:0:0:0:
36,192,9562,128,0,9843:0:0:0:0:
182,192,9749,128,0,10249:0:0:0:0:
36,192,9937,128,0,10249:0:0:0:0:
329,192,9937,128,0,10249:0:0:0:0:
475,192,10124,128,0,10249:0:0:0:0:
329,192,10312,128,0,10687:0:0:0:0:
109,192,10312,1,0,0:0:0:0:
256,192,10312,1,0,0:0:0:0:
36,192,10312,1,0,0:0:0:0:
475,192,10312,1,0,0:0:0:0:
36,192,10687,128,0,10999:0:0:0:0:
182,192,10687,1,0,0:0:0:0:
475,192,10687,1,0,0:0:0:0:
256,192,10874,128,0,10999:0:0:0:0:
402,192,10874,1,0,0:0:0:0:
256,192,11062,1,0,0:0:0:0:
109,192,11062,1,0,0:0:0:0:
475,192,11062,1,0,0:0:0:0:
329,192,11062,128,0,11437:0:0:0:0:
36,192,11062,1,0,0:0:0:0:
182,192,11437,128,0,11749:0:0:0:0:
36,192,11437,1,0,0:0:0:0:
475,192,11437,1,0,0:0:0:0:
329,192,11624,128,0,11749:0:0:0:0:
402,192,11624,1,0,0:0:0:0:
36,192,11812,128,0,12140:0:0:0:0:
256,192,11812,1,0,0:0:0:0:
182,192,11812,128,0,11858:0:0:0:0:
475,192,11812,128,0,11952:0:0:0:0:
109,192,11812,1,0,0:0:0:0:
402,192,11812,1,0,0:0:0:0:
329,192,11905,128,0,11952:0:0:0:0:
475,192,11999,128,0,12327:0:0:0:0:
109,192,11999,128,0,12046:0:0:0:0:
182,192,11999,128,0,12046:0:0:0:0:
256,192,12093,128,0,12140:0:0:0:0:
402,192,12187,128,0,12233:0:0:0:0:
36,192,12187,128,0,12515:0:0:0:0:
329,192,12187,128,0,12233:0:0:0:0:
109,192,12280,128,0,12327:0:0:0:0:
475,192,12374,128,0,12515:0:0:0:0:
256,192,12374,128,0,12421:0:0:0:0:
402,192,12374,128,0,12421:0:0:0:0:
182,192,12468,128,0,12515:0:0:0:0:
182,192,12562,1,0,0:0:0:0:
36,192,12562,128,0,13249:0:0:0:0:
475,192,12562,1,0,0:0:0:0:
329,192,12562,128,0,12937:0:0:0:0:
109,192,12562,1,0,0:0:0:0:
182,192,12749,128,0,13249:0:0:0:0:
475,192,12937,128,0,13249:0:0:0:0:
329,192,13124,128,0,13249:0:0:0:0:
475,192,13312,128,0,13999:0:0:0:0:
256,192,13312,1,0,0:0:0:0:
182,192,13312,128,0,13999:0:0:0:0:
36,192,13312,1,0,0:0:0:0:
402,192,13312,1,0,0:0:0:0:
329,192,13312,1,0,0:0:0:0:
329,192,13687,128,0,13999:0:0:0:0:
36,192,13874,128,0,13999:0:0:0:0:
36,192,14062,128,0,15515:0:0:0:0:
109,192,14062,1,0,0:0:0:0:
256,192,14062,1,0,0:0:0:0:
402,192,14062,1,0,0:0:0:0:
475,192,14062,1,0,0:0:0:0:
402,192,14437,128,0,14624:0:0:0:0:
109,192,14437,1,0,0:0:0:0:
475,192,14437,1,0,0:0:0:0:
256,192,14624,128,0,14749:0:0:0:0:
182,192,14624,1,0,0:0:0:0:
475,192,14812,128,0,15515:0:0:0:0:
256,192,14812,128,0,14858:0:0:0:0:
109,192,14812,128,0,15046:0:0:0:0:
329,192,14812,128,0,14858:0:0:0:0:
402,192,14812,128,0,14952:0:0:0:0:
182,192,14905,128,0,14952:0:0:0:0:
329,192,14999,128,0,15046:0:0:0:0:
402,192,14999,128,0,15327:0:0:0:0:
182,192,15093,128,0,15140:0:0:0:0:
109,192,15093,128,0,15421:0:0:0:0:
256,192,15187,128,0,15233:0:0:0:0:
329,192,15187,128,0,15233:0:0:0:0:
182,192,15280,128,0,15327:0:0:0:0:
329,192,15374,128,0,15421:0:0:0:0:
402,192,15374,128,0,15515:0:0:0:0:
109,192,15468,128,0,15515:0:0:0:0:
182,192,15468,128,0,15515:0:0:0:0:
475,192,15562,128,0,16249:0:0:0:0:
256,192,15562,128,0,15937:0:0:0:0:
36,192,15562,1,0,0:0:0:0:
109,192,15562,1,0,0:0:0:0:
182,192,15562,1,0,0:0:0:0:
329,192,15562,1,0,0:0:0:0:
402,192,15749,128,0,16249:0:0:0:0:
36,192,15937,128,0,16249:0:0:0:0:
182,192,16124,128,0,16249:0:0:0:0:
36,192,16312,128,0,16999:0:0:0:0:
475,192,16312,1,0,0:0:0:0:
182,192,16312,1,0,0:0:0:0:
329,192,16312,1,0,0:0:0:0:
109,192,16312,1,0,0:0:0:0:
402,192,16687,128,0,16999:0:0:0:0:
109,192,16687,1,0,0:0:0:0:
475,192,16687,1,0,0:0:0:0:
256,192,16874,128,0,16999:0:0:0:0:
182,192,16874,1,0,0:0:0:0:
109,192,17062,1,0,0:0:0:0:
402,192,17062,1,0,0:0:0:0:
475,192,17062,128,0,18515:0:0:0:0:
256,192,17062,1,0,0:0:0:0:
36,192,17062,1,0,0:0:0:0:
36,192,17437,1,0,0:0:0:0:
402,192,17437,1,0,0:0:0:0:
109,192,17437,128,0,17749:0:0:0:0:
256,192,17624,128,0,17749:0:0:0:0:
329,192,17624,1,0,0:0:0:0:
36,192,17812,128,0,18515:0:0:0:0:
329,192,17812,128,0,17858:0:0:0:0:
402,192,17812,128,0,18140:0:0:0:0:
182,192,17812,128,0,17858:0:0:0:0:
256,192,17905,128,0,17952:0:0:0:0:
109,192,17905,128,0,18046:0:0:0:0:
182,192,17999,128,0,18046:0:0:0:0:
329,192,17999,128,0,18046:0:0:0:0:
109,192,18093,128,0,18233:0:0:0:0:
256,192,18093,128,0,18140:0:0:0:0:
329,192,18187,128,0,18233:0:0:0:0:
402,192,18187,128,0,18327:0:0:0:0:
109,192,18280,128,0,18421:0:0:0:0:
182,192,18280,128,0,18327:0:0:0:0:
329,192,18374,128,0,18421:0:0:0:0:
402,192,18374,128,0,18515:0:0:0:0:
256,192,18468,128,0,18515:0:0:0:0:
109,192,18468,128,0,18515:0:0:0:0:
109,192,18562,1,0,0:0:0:0:
402,192,18562,1,0,0:0:0:0:
475,192,18562,1,0,0:0:0:0:
182,192,18562,128,0,18937:0:0:0:0:
329,192,18562,128,0,18843:0:0:0:0:
36,192,18562,128,0,19062:0:0:0:0:
475,192,18749,128,0,19249:0:0:0:0:
256,192,18749,1,0,0:0:0:0:
329,192,18937,128,0,19249:0:0:0:0:
109,192,18937,1,0,0:0:0:0:
256,192,18937,1,0,0:0:0:0:
402,192,18937,1,0,0:0:0:0:
182,192,19124,128,0,19249:0:0:0:0:
36,192,19124,128,0,19249:0:0:0:0:
256,192,19124,1,0,0:0:0:0:
402,192,19312,1,0,0:0:0:0:
109,192,19312,1,0,0:0:0:0:
36,192,19312,1,0,0:0:0:0:
329,192,19312,128,0,19687:0:0:0:0:
182,192,19312,128,0,19593:0:0:0:0:
475,192,19312,128,0,19812:0:0:0:0:
36,192,19499,128,0,19999:0:0:0:0:
256,192,19499,1,0,0:0:0:0:
182,192,19687,128,0,19999:0:0:0:0:
402,192,19687,1,0,0:0:0:0:
256,192,19687,1,0,0:0:0:0:
109,192,19687,1,0,0:0:0:0:
329,192,19874,128,0,19999:0:0:0:0:
475,192,19874,128,0,19999:0:0:0:0:
256,192,19874,1,0,0:0:0:0:
329,192,20062,1,0,0:0:0:0:
475,192,20062,1,0,0:0:0:0:
109,192,20062,128,0,20530:0:0:0:0:
36,192,20062,1,0,0:0:0:0:
256,192,20062,1,0,0:0:0:0:
182,192,20249,1,0,0:0:0:0:
329,192,20249,1,0,0:0:0:0:
402,192,20249,128,0,20749:0:0:0:0:
475,192,20437,128,0,20530:0:0:0:0:
36,192,20437,128,0,20530:0:0:0:0:
256,192,20437,128,0,20749:0:0:0:0:
182,192,20437,1,0,0:0:0:0:
329,192,20437,1,0,0:0:0:0:
109,192,20624,128,0,20749:0:0:0:0:
475,192,20624,128,0,20749:0:0:0:0:
36,192,20624,128,0,20749:0:0:0:0:
182,192,20624,1,0,0:0:0:0:
109,192,20812,128,0,20858:0:0:0:0:
475,192,20812,128,0,21046:0:0:0:0:
329,192,20812,128,0,21046:0:0:0:0:
36,192,20812,128,0,21140:0:0:0:0:
182,192,20812,128,0,20952:0:0:0:0:
256,192,20905,128,0,20952:0:0:0:0:
402,192,20905,128,0,20952:0:0:0:0:
109,192,20999,128,0,21046:0:0:0:0:
182,192,20999,128,0,21327:0:0:0:0:
329,192,21093,128,0,21233:0:0:0:0:
475,192,21093,128,0,21421:0:0:0:0:
402,192,21093,128,0,21140:0:0:0:0:
256,192,21187,128,0,21233:0:0:0:0:
109,192,21187,128,0,21233:0:0:0:0:
36,192,21187,128,0,21515:0:0:0:0:
329,192,21280,128,0,21421:0:0:0:0:
402,192,21280,128,0,21327:0:0:0:0:
182,192,21374,128,0,21515:0:0:0:0:
109,192,21374,128,0,21421:0:0:0:0:
329,192,21468,128,0,21515:0:0:0:0:
475,192,21468,128,0,21515:0:0:0:0:
402,192,21562,128,0,21655:0:0:0:0:
256,192,21562,1,0,0:0:0:0:
475,192,21562,1,0,0:0:0:0:
36,192,21562,128,0,21687:0:0:0:0:
109,192,21624,128,0,21749:0:0:0:0:
329,192,21655,1,0,0:0:0:0:
182,192,21687,128,0,22062:0:0:0:0:
329,192,21749,128,0,21843:0:0:0:0:
475,192,21749,1,0,0:0:0:0:
256,192,21843,1,0,0:0:0:0:
475,192,21937,128,0,22062:0:0:0:0:
402,192,21937,1,0,0:0:0:0:
329,192,21937,128,0,22062:0:0:0:0:
36,192,21937,128,0,22062:0:0:0:0:
109,192,22124,128,0,22218:0:0:0:0:
475,192,22124,128,0,22249:0:0:0:0:
36,192,22124,1,0,0:0:0:0:
256,192,22124,1,0,0:0:0:0:
402,192,22187,128,0,22312:0:0:0:0:
182,192,22218,1,0,0:0:0:0:
329,192,22249,128,0,22624:0:0:0:0:
36,192,22312,1,0,0:0:0:0:
182,192,22312,128,0,22405:0:0:0:0:
256,192,22405,1,0,0:0:0:0:
182,192,22499,128,0,22624:0:0:0:0:
109,192,22499,1,0,0:0:0:0:
475,192,22499,128,0,22624:0:0:0:0:
36,192,22499,128,0,22624:0:0:0:0:
182,192,22687,128,0,22812:0:0:0:0:
402,192,22687,1,0,0:0:0:0:
36,192,22687,128,0,22733:0:0:0:0:
475,192,22687,128,0,22733:0:0:0:0:
329,192,22749,128,0,22874:0:0:0:0:
109,192,22780,1,0,0:0:0:0:
256,192,22812,128,0,22999:0:0:0:0:
36,192,22874,128,0,22921:0:0:0:0:
475,192,22874,128,0,22921:0:0:0:0:
109,192,22968,1,0,0:0:0:0:
402,192,22968,1,0,0:0:0:0:
182,192,23062,128,0,23343:0:0:0:0:
109,192,23062,128,0,23530:0:0:0:0:
36,192,23062,128,0,23530:0:0:0:0:
256,192,23062,1,0,0:0:0:0:
475,192,23062,128,0,23108:0:0:0:0:
329,192,23062,128,0,23108:0:0:0:0:
329,192,23249,128,0,23343:0:0:0:0:
475,192,23249,128,0,23343:0:0:0:0:
256,192,23437,128,0,23530:0:0:0:0:
402,192,23437,128,0,23694:0:0:0:0:
475,192,23437,128,0,23694:0:0:0:0:
256,192,23624,128,0,23741:0:0:0:0:
109,192,23624,128,0,23835:0:0:0:0:
36,192,23624,128,0,23929:0:0:0:0:
329,192,23999,128,0,24468:0:0:0:0:
475,192,23999,128,0,24468:0:0:0:0:
109,192,23999,128,0,24046:0:0:0:0:
36,192,23999,1,0,0:0:0:0:
256,192,23999,1,0,0:0:0:0:
402,192,23999,1,0,0:0:0:0:
182,192,24093,128,0,24140:0:0:0:0:
109,192,24187,128,0,24233:0:0:0:0:
182,192,24280,128,0,24327:0:0:0:0:
109,192,24374,128,0,24421:0:0:0:0:
182,192,24468,128,0,24515:0:0:0:0:
256,192,24562,128,0,24937:0:0:0:0:
109,192,24937,128,0,25030:0:0:0:0:
182,192,25030,128,0,25124:0:0:0:0:
256,192,25124,128,0,25218:0:0:0:0:
329,192,25218,128,0,25312:0:0:0:0:
182,192,25312,128,0,25624:0:0:0:0:
475,192,25312,128,0,25624:0:0:0:0:
36,192,25312,1,0,0:0:0:0:
109,192,25687,128,0,25999:0:0:0:0:
402,192,25687,128,0,25999:0:0:0:0:
256,192,25687,1,0,0:0:0:0:
182,192,26062,128,0,26530:0:0:0:0:
36,192,26062,1,0,0:0:0:0:
109,192,26062,1,0,0:0:0:0:
475,192,26062,1,0,0:0:0:0:
329,192,26062,128,0,26624:0:0:0:0:
182,192,26624,128,0,26812:0:0:0:0:
329,192,26718,128,0,26812:0:0:0:0:
475,192,26812,128,0,27499:0:0:0:0:
256,192,26812,1,0,0:0:0:0:
36,192,26812,128,0,27499:0:0:0:0:
256,192,27562,128,0,27937:0:0:0:0:
36,192,27562,1,0,0:0:0:0:
475,192,27562,1,0,0:0:0:0:
109,192,27937,128,0,28062:0:0:0:0:
329,192,28030,128,0,28155:0:0:0:0:
182,192,28124,128,0,28249:0:0:0:0:
402,192,28218,128,0,28343:0:0:0:0:
256,192,28312,128,0,28624:0:0:0:0:
475,192,28312,128,0,28624:0:0:0:0:
36,192,28312,1,0,0:0:0:0:
182,192,28499,1,0,0:0:0:0:
109,192,28687,128,0,28999:0:0:0:0:
475,192,28687,1,0,0:0:0:0:
329,192,28687,128,0,28999:0:0:0:0:
182,192,29062,128,0,29343:0:0:0:0:
36,192,29062,1,0,0:0:0:0:
329,192,29062,128,0,29718:0:0:0:0:
475,192,29062,1,0,0:0:0:0:
36,192,29249,128,0,29718:0:0:0:0:
182,192,29437,128,0,29718:0:0:0:0:
402,192,29624,128,0,29718:0:0:0:0:
475,192,29718,128,0,29812:0:0:0:0:
402,192,29812,128,0,29905:0:0:0:0:
256,192,29812,128,0,29905:0:0:0:0:
36,192,29812,128,0,30093:0:0:0:0:
182,192,29812,1,0,0:0:0:0:
182,192,29999,128,0,30093:0:0:0:0:
329,192,29999,128,0,30093:0:0:0:0:
109,192,29999,1,0,0:0:0:0:
475,192,29999,128,0,30280:0:0:0:0:
109,192,30187,128,0,30280:0:0:0:0:
256,192,30187,128,0,30280:0:0:0:0:
402,192,30187,128,0,30468:0:0:0:0:
36,192,30187,1,0,0:0:0:0:
182,192,30374,128,0,30468:0:0:0:0:
36,192,30374,128,0,30468:0:0:0:0:
256,192,30374,1,0,0:0:0:0:
329,192,30468,1,0,0:0:0:0:
402,192,30562,128,0,31124:0:0:0:0:
475,192,30562,1,0,0:0:0:0:
182,192,30562,1,0,0:0:0:0:
36,192,30562,128,0,31124:0:0:0:0:
109,192,30562,1,0,0:0:0:0:
256,192,30749,128,0,30796:0:0:0:0:
109,192,30749,1,0,0:0:0:0:
109,192,30937,128,0,31030:0:0:0:0:
329,192,30937,1,0,0:0:0:0:
475,192,30937,1,0,0:0:0:0:
182,192,30937,1,0,0:0:0:0:
256,192,31030,128,0,31124:0:0:0:0:
182,192,31124,128,0,31249:0:0:0:0:
475,192,31124,1,0,0:0:0:0:
109,192,31124,1,0,0:0:0:0:
329,192,31218,128,0,31687:0:0:0:0:
36,192,31312,1,0,0:0:0:0:
475,192,31312,1,0,0:0:0:0:
256,192,31312,1,0,0:0:0:0:
402,192,31312,1,0,0:0:0:0:
182,192,31312,1,0,0:0:0:0:
109,192,31499,128,0,31546:0:0:0:0:
475,192,31499,1,0,0:0:0:0:
256,192,31687,128,0,31999:0:0:0:0:
182,192,31687,1,0,0:0:0:0:
36,192,31687,1,0,0:0:0:0:
402,192,31687,1,0,0:0:0:0:
475,192,31687,1,0,0:0:0:0:
402,192,31874,128,0,31921:0:0:0:0:
36,192,31874,1,0,0:0:0:0:
109,192,32062,128,0,32624:0:0:0:0:
36,192,32062,1,0,0:0:0:0:
256,192,32062,1,0,0:0:0:0:
475,192,32062,128,0,32624:0:0:0:0:
402,192,32062,1,0,0:0:0:0:
256,192,32249,128,0,32296:0:0:0:0:
402,192,32249,1,0,0:0:0:0:
402,192,32437,128,0,32530:0:0:0:0:
182,192,32437,1,0,0:0:0:0:
36,192,32437,1,0,0:0:0:0:
329,192,32437,1,0,0:0:0:0:
256,192,32530,128,0,32624:0:0:0:0:
329,192,32624,128,0,32749:0:0:0:0:
36,192,32624,1,0,0:0:0:0:
402,192,32624,1,0,0:0:0:0:
182,192,32718,128,0,33187:0:0:0:0:
329,192,32812,1,0,0:0:0:0:
109,192,32812,1,0,0:0:0:0:
475,192,32812,1,0,0:0:0:0:
256,192,32812,1,0,0:0:0:0:
36,192,32812,1,0,0:0:0:0:
402,192,32999,128,0,33046:0:0:0:0:
36,192,32999,1,0,0:0:0:0:
256,192,33187,128,0,33499:0:0:0:0:
36,192,33187,1,0,0:0:0:0:
329,192,33187,1,0,0:0:0:0:
109,192,33187,1,0,0:0:0:0:
475,192,33187,1,0,0:0:0:0:
109,192,33374,128,0,33421:0:0:0:0:
475,192,33374,1,0,0:0:0:0:
109,192,33562,128,0,34249:0:0:0:0:
402,192,33562,128,0,34249:0:0:0:0:
256,192,33562,1,0,0:0:0:0:
36,192,33562,1,0,0:0:0:0:
475,192,33562,1,0,0:0:0:0:
256,192,33749,128,0,33796:0:0:0:0:
329,192,33749,1,0,0:0:0:0:
182,192,33937,128,0,34062:0:0:0:0:
36,192,33937,1,0,0:0:0:0:
475,192,33937,1,0,0:0:0:0:
329,192,34030,128,0,34155:0:0:0:0:
256,192,34124,128,0,34249:0:0:0:0:
36,192,34124,1,0,0:0:0:0:
475,192,34124,1,0,0:0:0:0:
182,192,34187,128,0,34687:0:0:0:0:
256,192,34312,1,0,0:0:0:0:
402,192,34312,1,0,0:0:0:0:
109,192,34312,1,0,0:0:0:0:
36,192,34312,1,0,0:0:0:0:
475,192,34312,1,0,0:0:0:0:
329,192,34499,128,0,34546:0:0:0:0:
475,192,34499,128,0,34546:0:0:0:0:
109,192,34687,1,0,0:0:0:0:
256,192,34687,1,0,0:0:0:0:
329,192,34687,128,0,34999:0:0:0:0:
36,192,34687,1,0,0:0:0:0:
475,192,34687,1,0,0:0:0:0:
402,192,34687,1,0,0:0:0:0:
182,192,34874,128,0,34921:0:0:0:0:
36,192,34874,128,0,34921:0:0:0:0:
475,192,35062,128,0,35249:0:0:0:0:
109,192,35062,128,0,35108:0:0:0:0:
256,192,35062,1,0,0:0:0:0:
36,192,35062,1,0,0:0:0:0:
329,192,35155,128,0,35437:0:0:0:0:
182,192,35155,128,0,35202:0:0:0:0:
402,192,35249,128,0,35343:0:0:0:0:
109,192,35249,128,0,35296:0:0:0:0:
475,192,35343,128,0,35718:0:0:0:0:
36,192,35343,128,0,35390:0:0:0:0:
402,192,35437,128,0,35718:0:0:0:0:
182,192,35437,128,0,35483:0:0:0:0:
256,192,35530,128,0,35718:0:0:0:0:
36,192,35530,128,0,35577:0:0:0:0:
109,192,35624,128,0,35718:0:0:0:0:
36,192,35718,1,0,0:0:0:0:
256,192,35812,128,0,36093:0:0:0:0:
475,192,35812,1,0,0:0:0:0:
36,192,35812,128,0,35999:0:0:0:0:
329,192,35812,128,0,35858:0:0:0:0:
182,192,35812,1,0,0:0:0:0:
109,192,35905,128,0,36093:0:0:0:0:
402,192,35905,128,0,35952:0:0:0:0:
182,192,35999,128,0,36187:0:0:0:0:
475,192,35999,128,0,36046:0:0:0:0:
36,192,36093,128,0,36280:0:0:0:0:
402,192,36093,128,0,36140:0:0:0:0:
109,192,36187,128,0,36499:0:0:0:0:
329,192,36187,128,0,36233:0:0:0:0:
475,192,36187,1,0,0:0:0:0:
256,192,36280,128,0,36327:0:0:0:0:
402,192,36280,1,0,0:0:0:0:
36,192,36374,128,0,36499:0:0:0:0:
182,192,36374,128,0,36499:0:0:0:0:
402,192,36374,128,0,36499:0:0:0:0:
475,192,36374,128,0,36499:0:0:0:0:
329,192,36374,128,0,36499:0:0:0:0:
256,192,36562,128,0,37062:0:0:0:0:
36,192,36562,128,0,36624:0:0:0:0:
109,192,36562,1,0,0:0:0:0:
475,192,36562,1,0,0:0:0:0:
402,192,36562,1,0,0:0:0:0:
329,192,36562,128,0,36624:0:0:0:0:
109,192,36749,128,0,36812:0:0:0:0:
402,192,36749,128,0,36812:0:0:0:0:
109,192,36937,128,0,37062:0:0:0:0:
475,192,36937,1,0,0:0:0:0:
36,192,36937,1,0,0:0:0:0:
402,192,36937,128,0,37062:0:0:0:0:
475,192,37124,1,0,0:0:0:0:
109,192,37124,1,0,0:0:0:0:
36,192,37124,1,0,0:0:0:0:
402,192,37124,1,0,0:0:0:0:
256,192,37124,1,0,0:0:0:0:
256,192,37499,1,0,0:0:0:0:
402,192,37499,1,0,0:0:0:0:
36,192,37687,1,0,0:0:0:0:
402,192,37687,128,0,37968:0:0:0:0:
475,192,37687,1,0,0:0:0:0:
182,192,37687,1,0,0:0:0:0:
256,192,37687,1,0,0:0:0:0:
329,192,37780,1,0,0:0:0:0:
36,192,37874,128,0,38062:0:0:0:0:
256,192,37874,1,0,0:0:0:0:
182,192,37968,128,0,38062:0:0:0:0:
329,192,37968,1,0,0:0:0:0:
256,192,38062,128,0,38749:0:0:0:0:
402,192,38062,128,0,38124:0:0:0:0:
475,192,38249,128,0,38312:0:0:0:0:
109,192,38249,1,0,0:0:0:0:
329,192,38249,1,0,0:0:0:0:
36,192,38249,128,0,38312:0:0:0:0:
182,192,38249,1,0,0:0:0:0:
402,192,38437,128,0,38499:0:0:0:0:
109,192,38437,128,0,38499:0:0:0:0:
36,192,38624,1,0,0:0:0:0:
475,192,38624,1,0,0:0:0:0:
402,192,38624,128,0,38749:0:0:0:0:
109,192,38624,128,0,38749:0:0:0:0:
109,192,38812,128,0,39515:0:0:0:0:
329,192,38812,128,0,38937:0:0:0:0:
36,192,38812,1,0,0:0:0:0:
475,192,38812,1,0,0:0:0:0:
256,192,38812,1,0,0:0:0:0:
329,192,38999,128,0,39124:0:0:0:0:
475,192,38999,1,0,0:0:0:0:
329,192,39187,128,0,39312:0:0:0:0:
475,192,39187,1,0,0:0:0:0:
329,192,39374,128,0,39421:0:0:0:0:
475,192,39374,1,0,0:0:0:0:
256,192,39468,128,0,39515:0:0:0:0:
402,192,39468,1,0,0:0:0:0:
182,192,39562,128,0,39687:0:0:0:0:
36,192,39562,1,0,0:0:0:0:
329,192,39562,1,0,0:0:0:0:
475,192,39562,1,0,0:0:0:0:
402,192,39562,128,0,40265:0:0:0:0:
109,192,39562,1,0,0:0:0:0:
182,192,39749,128,0,39874:0:0:0:0:
36,192,39749,1,0,0:0:0:0:
182,192,39937,128,0,40062:0:0:0:0:
36,192,39937,1,0,0:0:0:0:
182,192,40124,128,0,40171:0:0:0:0:
36,192,40124,1,0,0:0:0:0:
256,192,40218,128,0,40265:0:0:0:0:
109,192,40218,1,0,0:0:0:0:
329,192,40312,128,0,40452:0:0:0:0:
475,192,40312,1,0,0:0:0:0:
36,192,40312,1,0,0:0:0:0:
182,192,40312,128,0,40640:0:0:0:0:
402,192,40312,1,0,0:0:0:0:
109,192,40312,128,0,40374:0:0:0:0:
329,192,40499,128,0,40827:0:0:0:0:
475,192,40499,128,0,40562:0:0:0:0:
182,192,40687,128,0,40827:0:0:0:0:
36,192,40687,128,0,40749:0:0:0:0:
109,192,40874,128,0,40921:0:0:0:0:
256,192,40874,128,0,40921:0:0:0:0:
475,192,40874,1,0,0:0:0:0:
182,192,40968,128,0,41015:0:0:0:0:
329,192,40968,128,0,41015:0:0:0:0:
475,192,41062,128,0,41577:0:0:0:0:
109,192,41062,128,0,41187:0:0:0:0:
36,192,41062,1,0,0:0:0:0:
256,192,41062,1,0,0:0:0:0:
182,192,41062,1,0,0:0:0:0:
402,192,41062,1,0,0:0:0:0:
182,192,41249,128,0,41374:0:0:0:0:
402,192,41249,1,0,0:0:0:0:
329,192,41249,1,0,0:0:0:0:
109,192,41437,128,0,41483:0:0:0:0:
256,192,41437,128,0,41483:0:0:0:0:
182,192,41530,128,0,41577:0:0:0:0:
329,192,41530,128,0,41577:0:0:0:0:
109,192,41624,128,0,41749:0:0:0:0:
256,192,41624,1,0,0:0:0:0:
36,192,41624,1,0,0:0:0:0:
402,192,41624,1,0,0:0:0:0:
475,192,41624,128,0,42499:0:0:0:0:
329,192,41624,1,0,0:0:0:0:
182,192,41687,128,0,41937:0:0:0:0:
256,192,41749,128,0,41874:0:0:0:0:
329,192,41812,1,0,0:0:0:0:
36,192,41812,128,0,42499:0:0:0:0:
402,192,41874,128,0,41999:0:0:0:0:
329,192,41937,128,0,42062:0:0:0:0:
256,192,41999,128,0,42124:0:0:0:0:
109,192,41999,1,0,0:0:0:0:
182,192,42093,1,0,0:0:0:0:
256,192,42187,1,0,0:0:0:0:
402,192,42187,1,0,0:0:0:0:
109,192,42187,1,0,0:0:0:0:
182,192,42187,128,0,42374:0:0:0:0:
402,192,42374,128,0,42499:0:0:0:0:
256,192,42374,128,0,42749:0:0:0:0:
402,192,42562,1,0,0:0:0:0:
475,192,42562,1,0,0:0:0:0:
36,192,42562,1,0,0:0:0:0:
182,192,42562,1,0,0:0:0:0:
109,192,42562,128,0,43062:0:0:0:0:
475,192,42749,128,0,43062:0:0:0:0:
329,192,42749,128,0,42796:0:0:0:0:
329,192,42937,128,0,43062:0:0:0:0:
182,192,42937,128,0,42983:0:0:0:0:
182,192,43124,128,0,43312:0:0:0:0:
109,192,43124,1,0,0:0:0:0:
36,192,43124,1,0,0:0:0:0:
329,192,43124,1,0,0:0:0:0:
475,192,43124,1,0,0:0:0:0:
402,192,43124,128,0,43624:0:0:0:0:
182,192,43499,128,0,43968:0:0:0:0:
36,192,43499,1,0,0:0:0:0:
109,192,43687,1,0,0:0:0:0:
329,192,43687,128,0,43968:0:0:0:0:
402,192,43687,1,0,0:0:0:0:
475,192,43687,1,0,0:0:0:0:
36,192,43687,1,0,0:0:0:0:
36,192,43874,128,0,44155:0:0:0:0:
109,192,43968,128,0,44155:0:0:0:0:
402,192,44062,128,0,44296:0:0:0:0:
329,192,44155,128,0,44296:0:0:0:0:
475,192,44249,128,0,44296:0:0:0:0:
256,192,44249,128,0,44812:0:0:0:0:
182,192,44249,128,0,44296:0:0:0:0:
36,192,44249,128,0,44296:0:0:0:0:
109,192,44249,128,0,44296:0:0:0:0:
329,192,44437,128,0,44483:0:0:0:0:
36,192,44437,128,0,44483:0:0:0:0:
109,192,44624,128,0,44671:0:0:0:0:
402,192,44624,128,0,44671:0:0:0:0:
36,192,44765,1,0,0:0:0:0:
109,192,44788,1,0,0:0:0:0:
182,192,44812,1,0,0:0:0:0:
329,192,44812,1,0,0:0:0:0:
475,192,44812,128,0,48562:0:0:0:0:
329,192,45562,128,0,46562:0:0:0:0:
182,192,45812,128,0,46312:0:0:0:0:
36,192,46062,128,0,48562:0:0:0:0:
109,192,46312,128,0,48562:0:0:0:0:
256,192,46562,128,0,46937:0:0:0:0:
402,192,46812,128,0,48562:0:0:0:0:
256,192,47062,128,0,48562:0:0:0:0:
109,192,49687,128,0,50062:0:0:0:0:
329,192,50062,128,0,50155:0:0:0:0:
475,192,50062,128,0,50343:0:0:0:0:
36,192,50062,128,0,50155:0:0:0:0:
182,192,50062,1,0,0:0:0:0:
402,192,50062,128,0,50155:0:0:0:0:
109,192,50249,128,0,50343:0:0:0:0:
256,192,50249,128,0,50530:0:0:0:0:
36,192,50249,1,0,0:0:0:0:
329,192,50249,128,0,50343:0:0:0:0:
36,192,50437,128,0,50530:0:0:0:0:
402,192,50437,128,0,50530:0:0:0:0:
475,192,50437,128,0,50905:0:0:0:0:
182,192,50437,1,0,0:0:0:0:
182,192,50624,128,0,50718:0:0:0:0:
109,192,50624,128,0,50718:0:0:0:0:
256,192,50624,1,0,0:0:0:0:
329,192,50624,128,0,50905:0:0:0:0:
36,192,50812,128,0,51093:0:0:0:0:
182,192,50812,128,0,51093:0:0:0:0:
402,192,50812,128,0,50905:0:0:0:0:
109,192,50812,1,0,0:0:0:0:
256,192,50812,1,0,0:0:0:0:
475,192,50999,128,0,51280:0:0:0:0:
256,192,50999,128,0,51093:0:0:0:0:
329,192,50999,128,0,51280:0:0:0:0:
36,192,51187,128,0,51280:0:0:0:0:
182,192,51187,128,0,51468:0:0:0:0:
109,192,51187,1,0,0:0:0:0:
256,192,51187,1,0,0:0:0:0:
402,192,51187,1,0,0:0:0:0:
329,192,51374,1,0,0:0:0:0:
402,192,51374,128,0,51562:0:0:0:0:
36,192,51374,1,0,0:0:0:0:
475,192,51374,1,0,0:0:0:0:
36,192,51499,1,0,0:0:0:0:
109,192,51562,1,0,0:0:0:0:
182,192,51562,128,0,51843:0:0:0:0:
475,192,51562,128,0,51843:0:0:0:0:
329,192,51562,128,0,51655:0:0:0:0:
36,192,51749,128,0,52030:0:0:0:0:
402,192,51749,128,0,52030:0:0:0:0:
256,192,51749,128,0,51843:0:0:0:0:
329,192,51937,128,0,52218:0:0:0:0:
109,192,51937,128,0,52030:0:0:0:0:
182,192,51937,1,0,0:0:0:0:
475,192,51937,1,0,0:0:0:0:
182,192,52124,128,0,52405:0:0:0:0:
475,192,52124,128,0,52312:0:0:0:0:
36,192,52124,128,0,52218:0:0:0:0:
256,192,52124,1,0,0:0:0:0:
256,192,52312,128,0,52593:0:0:0:0:
402,192,52312,128,0,52405:0:0:0:0:
36,192,52312,128,0,52593:0:0:0:0:
329,192,52499,128,0,52593:0:0:0:0:
109,192,52499,1,0,0:0:0:0:
475,192,52499,128,0,52968:0:0:0:0:
182,192,52687,128,0,52780:0:0:0:0:
256,192,52687,128,0,52780:0:0:0:0:
109,192,52687,128,0,52780:0:0:0:0:
182,192,52874,128,0,52968:0:0:0:0:
256,192,52874,128,0,52968:0:0:0:0:
329,192,52874,128,0,52968:0:0:0:0:
36,192,53062,128,0,53530:0:0:0:0:
329,192,53062,128,0,53343:0:0:0:0:
256,192,53062,128,0,53155:0:0:0:0:
475,192,53062,128,0,53343:0:0:0:0:
402,192,53062,1,0,0:0:0:0:
109,192,53062,1,0,0:0:0:0:
109,192,53249,1,0,0:0:0:0:
182,192,53249,128,0,53530:0:0:0:0:
402,192,53249,128,0,53343:0:0:0:0:
329,192,53437,128,0,53530:0:0:0:0:
256,192,53437,128,0,53718:0:0:0:0:
475,192,53437,128,0,53718:0:0:0:0:
402,192,53437,1,0,0:0:0:0:
36,192,53624,128,0,53718:0:0:0:0:
109,192,53624,128,0,53718:0:0:0:0:
182,192,53624,1,0,0:0:0:0:
182,192,53812,128,0,53905:0:0:0:0:
109,192,53812,128,0,54093:0:0:0:0:
329,192,53812,128,0,53905:0:0:0:0:
475,192,53812,128,0,53905:0:0:0:0:
36,192,53812,128,0,53905:0:0:0:0:
256,192,53812,1,0,0:0:0:0:
256,192,53999,128,0,54280:0:0:0:0:
402,192,53999,1,0,0:0:0:0:
475,192,53999,1,0,0:0:0:0:
109,192,54187,128,0,54280:0:0:0:0:
329,192,54187,128,0,54468:0:0:0:0:
475,192,54187,128,0,54280:0:0:0:0:
36,192,54187,128,0,54280:0:0:0:0:
182,192,54374,128,0,54468:0:0:0:0:
402,192,54374,128,0,54749:0:0:0:0:
36,192,54374,128,0,54468:0:0:0:0:
475,192,54374,1,0,0:0:0:0:
109,192,54562,128,0,54874:0:0:0:0:
36,192,54562,128,0,54608:0:0:0:0:
256,192,54562,128,0,54749:0:0:0:0:
475,192,54562,128,0,54608:0:0:0:0:
182,192,54562,1,0,0:0:0:0:
329,192,54749,128,0,54796:0:0:0:0:
182,192,54937,128,0,55030:0:0:0:0:
329,192,54937,128,0,55030:0:0:0:0:
36,192,54937,128,0,54983:0:0:0:0:
402,192,55124,128,0,55218:0:0:0:0:
256,192,55124,128,0,55218:0:0:0:0:
109,192,55124,128,0,55171:0:0:0:0:
475,192,55312,128,0,55546:0:0:0:0:
402,192,55312,128,0,55733:0:0:0:0:
256,192,55312,128,0,55499:0:0:0:0:
36,192,55312,128,0,55546:0:0:0:0:
109,192,55312,128,0,55358:0:0:0:0:
329,192,55312,1,0,0:0:0:0:
109,192,55499,128,0,55733:0:0:0:0:
182,192,55499,128,0,55546:0:0:0:0:
182,192,55687,128,0,55733:0:0:0:0:
329,192,55687,128,0,55733:0:0:0:0:
36,192,55687,128,0,55733:0:0:0:0:
475,192,55687,128,0,55733:0:0:0:0:
256,192,55874,1,0,0:0:0:0:
402,192,55874,1,0,0:0:0:0:
36,192,55999,1,0,0:0:0:0:
109,192,56030,1,0,0:0:0:0:
182,192,56062,128,0,56530:0:0:0:0:
329,192,56062,128,0,56343:0:0:0:0:
256,192,56062,1,0,0:0:0:0:
475,192,56062,128,0,56155:0:0:0:0:
402,192,56062,1,0,0:0:0:0:
475,192,56249,128,0,56530:0:0:0:0:
36,192,56249,128,0,56530:0:0:0:0:
109,192,56249,1,0,0:0:0:0:
402,192,56249,1,0,0:0:0:0:
109,192,56437,128,0,56671:0:0:0:0:
256,192,56437,128,0,56671:0:0:0:0:
402,192,56437,128,0,56530:0:0:0:0:
329,192,56437,1,0,0:0:0:0:
475,192,56624,128,0,56905:0:0:0:0:
36,192,56624,128,0,56671:0:0:0:0:
182,192,56624,128,0,56671:0:0:0:0:
329,192,56624,128,0,56905:0:0:0:0:
402,192,56812,128,0,57280:0:0:0:0:
256,192,56812,128,0,57046:0:0:0:0:
109,192,56812,128,0,57046:0:0:0:0:
36,192,56812,128,0,57046:0:0:0:0:
329,192,56999,128,0,57046:0:0:0:0:
475,192,56999,128,0,57046:0:0:0:0:
182,192,56999,128,0,57280:0:0:0:0:
475,192,57187,128,0,57421:0:0:0:0:
329,192,57187,128,0,57421:0:0:0:0:
109,192,57187,128,0,57374:0:0:0:0:
256,192,57187,128,0,57655:0:0:0:0:
36,192,57374,128,0,57421:0:0:0:0:
182,192,57374,128,0,57421:0:0:0:0:
36,192,57562,128,0,57843:0:0:0:0:
475,192,57562,128,0,57843:0:0:0:0:
182,192,57562,128,0,57655:0:0:0:0:
402,192,57562,128,0,57655:0:0:0:0:
256,192,57749,128,0,57843:0:0:0:0:
329,192,57749,128,0,58062:0:0:0:0:
109,192,57749,128,0,57843:0:0:0:0:
36,192,57937,1,0,0:0:0:0:
109,192,57937,128,0,58218:0:0:0:0:
182,192,57937,1,0,0:0:0:0:
402,192,57937,1,0,0:0:0:0:
475,192,57937,128,0,58062:0:0:0:0:
256,192,58124,128,0,58405:0:0:0:0:
329,192,58124,1,0,0:0:0:0:
475,192,58124,1,0,0:0:0:0:
36,192,58124,1,0,0:0:0:0:
402,192,58312,128,0,58687:0:0:0:0:
475,192,58312,128,0,58405:0:0:0:0:
36,192,58312,128,0,58593:0:0:0:0:
109,192,58312,128,0,58405:0:0:0:0:
329,192,58499,128,0,58687:0:0:0:0:
182,192,58499,128,0,58593:0:0:0:0:
109,192,58687,128,0,58780:0:0:0:0:
256,192,58687,1,0,0:0:0:0:
36,192,58687,1,0,0:0:0:0:
475,192,58687,1,0,0:0:0:0:
182,192,58749,128,0,58843:0:0:0:0:
256,192,58812,128,0,58905:0:0:0:0:
329,192,58874,128,0,58968:0:0:0:0:
402,192,58937,128,0,59062:0:0:0:0:
109,192,59062,128,0,59718:0:0:0:0:
329,192,59062,128,0,59718:0:0:0:0:
475,192,59062,128,0,59718:0:0:0:0:
36,192,59062,1,0,0:0:0:0:
182,192,59062,128,0,59155:0:0:0:0:
256,192,59155,128,0,59249:0:0:0:0:
182,192,59249,128,0,59343:0:0:0:0:
256,192,59343,128,0,59437:0:0:0:0:
402,192,59437,128,0,59530:0:0:0:0:
256,192,59530,128,0,59624:0:0:0:0:
182,192,59624,128,0,59718:0:0:0:0:
256,192,59718,128,0,59812:0:0:0:0:
36,192,59812,128,0,60093:0:0:0:0:
329,192,59812,128,0,59858:0:0:0:0:
475,192,59812,128,0,59858:0:0:0:0:
182,192,59812,128,0,59858:0:0:0:0:
329,192,59999,128,0,60093:0:0:0:0:
475,192,59999,128,0,60093:0:0:0:0:
109,192,59999,128,0,60374:0:0:0:0:
256,192,59999,1,0,0:0:0:0:
182,192,60187,128,0,60374:0:0:0:0:
402,192,60187,128,0,60233:0:0:0:0:
329,192,60187,128,0,60233:0:0:0:0:
36,192,60187,128,0,60374:0:0:0:0:
475,192,60187,128,0,60233:0:0:0:0:
329,192,60374,128,0,60468:0:0:0:0:
475,192,60374,128,0,60468:0:0:0:0:
109,192,60468,1,0,0:0:0:0:
182,192,60515,1,0,0:0:0:0:
402,192,60562,128,0,60655:0:0:0:0:
475,192,60562,1,0,0:0:0:0:
256,192,60562,128,0,61218:0:0:0:0:
329,192,60562,1,0,0:0:0:0:
36,192,60562,128,0,61030:0:0:0:0:
109,192,60749,128,0,60843:0:0:0:0:
182,192,60749,1,0,0:0:0:0:
402,192,60937,128,0,61030:0:0:0:0:
475,192,60937,128,0,61218:0:0:0:0:
329,192,60937,1,0,0:0:0:0:
36,192,61124,128,0,61218:0:0:0:0:
329,192,61124,128,0,61218:0:0:0:0:
109,192,61124,128,0,61218:0:0:0:0:
402,192,61312,1,0,0:0:0:0:
109,192,61312,128,0,61499:0:0:0:0:
256,192,61312,128,0,61499:0:0:0:0:
182,192,61499,128,0,61687:0:0:0:0:
329,192,61499,128,0,61687:0:0:0:0:
475,192,61499,1,0,0:0:0:0:
402,192,61687,128,0,61874:0:0:0:0:
475,192,61687,128,0,61968:0:0:0:0:
36,192,61687,128,0,61749:0:0:0:0:
256,192,61687,128,0,61780:0:0:0:0:
109,192,61749,128,0,61812:0:0:0:0:
182,192,61812,128,0,61874:0:0:0:0:
256,192,61874,128,0,61937:0:0:0:0:
329,192,61937,128,0,61999:0:0:0:0:
402,192,61999,128,0,62062:0:0:0:0:
36,192,62062,128,0,62874:0:0:0:0:
256,192,62062,128,0,62124:0:0:0:0:
109,192,62062,128,0,62499:0:0:0:0:
475,192,62062,128,0,62124:0:0:0:0:
182,192,62062,1,0,0:0:0:0:
182,192,62249,128,0,62312:0:0:0:0:
329,192,62249,128,0,62312:0:0:0:0:
475,192,62249,1,0,0:0:0:0:
256,192,62437,128,0,62499:0:0:0:0:
402,192,62437,128,0,62499:0:0:0:0:
475,192,62437,128,0,62874:0:0:0:0:
182,192,62437,1,0,0:0:0:0:
182,192,62624,128,0,62687:0:0:0:0:
329,192,62624,128,0,62687:0:0:0:0:
109,192,62624,1,0,0:0:0:0:
182,192,62812,1,0,0:0:0:0:
329,192,62812,1,0,0:0:0:0:
402,192,62812,128,0,63249:0:0:0:0:
109,192,62812,128,0,63062:0:0:0:0:
256,192,62812,128,0,62874:0:0:0:0:
182,192,62999,128,0,63437:0:0:0:0:
329,192,62999,128,0,63062:0:0:0:0:
475,192,62999,1,0,0:0:0:0:
36,192,62999,1,0,0:0:0:0:
256,192,63187,128,0,63249:0:0:0:0:
109,192,63187,128,0,63624:0:0:0:0:
36,192,63187,128,0,63249:0:0:0:0:
475,192,63187,128,0,63249:0:0:0:0:
329,192,63374,128,0,63999:0:0:0:0:
475,192,63374,128,0,63437:0:0:0:0:
256,192,63374,1,0,0:0:0:0:
36,192,63562,128,0,63999:0:0:0:0:
256,192,63562,128,0,63624:0:0:0:0:
475,192,63562,128,0,63624:0:0:0:0:
182,192,63562,1,0,0:0:0:0:
182,192,63749,128,0,63812:0:0:0:0:
402,192,63749,128,0,63812:0:0:0:0:
109,192,63749,1,0,0:0:0:0:
475,192,63937,128,0,64187:0:0:0:0:
256,192,63937,128,0,64374:0:0:0:0:
402,192,63937,128,0,63999:0:0:0:0:
182,192,63937,1,0,0:0:0:0:
109,192,63937,128,0,63999:0:0:0:0:
36,192,64124,128,0,64374:0:0:0:0:
329,192,64124,128,0,64187:0:0:0:0:
182,192,64124,128,0,64187:0:0:0:0:
109,192,64312,128,0,64937:0:0:0:0:
402,192,64312,128,0,64562:0:0:0:0:
182,192,64312,128,0,64374:0:0:0:0:
475,192,64312,128,0,64374:0:0:0:0:
329,192,64312,1,0,0:0:0:0:
256,192,64499,128,0,64749:0:0:0:0:
36,192,64499,128,0,64562:0:0:0:0:
329,192,64499,128,0,64562:0:0:0:0:
475,192,64687,128,0,64937:0:0:0:0:
402,192,64687,128,0,64749:0:0:0:0:
36,192,64687,128,0,64749:0:0:0:0:
182,192,64687,1,0,0:0:0:0:
402,192,64874,128,0,64937:0:0:0:0:
329,192,64874,128,0,65124:0:0:0:0:
36,192,64874,128,0,64937:0:0:0:0:
182,192,64874,128,0,64937:0:0:0:0:
182,192,65062,128,0,65124:0:0:0:0:
36,192,65062,128,0,65374:0:0:0:0:
402,192,65062,128,0,65124:0:0:0:0:
475,192,65062,128,0,65437:0:0:0:0:
256,192,65124,128,0,65187:0:0:0:0:
329,192,65187,128,0,65249:0:0:0:0:
109,192,65249,128,0,65374:0:0:0:0:
402,192,65249,128,0,65312:0:0:0:0:
182,192,65312,128,0,65874:0:0:0:0:
256,192,65374,128,0,65562:0:0:0:0:
329,192,65437,128,0,65499:0:0:0:0:
36,192,65437,128,0,65499:0:0:0:0:
475,192,65499,128,0,65624:0:0:0:0:
402,192,65562,128,0,65687:0:0:0:0:
36,192,65624,1,0,0:0:0:0:
109,192,65624,1,0,0:0:0:0:
329,192,65624,128,0,65812:0:0:0:0:
36,192,65812,128,0,65874:0:0:0:0:
256,192,65812,1,0,0:0:0:0:
109,192,65812,128,0,66062:0:0:0:0:
475,192,65812,128,0,65874:0:0:0:0:
402,192,65812,128,0,66062:0:0:0:0:
256,192,65999,128,0,66312:0:0:0:0:
475,192,65999,128,0,66062:0:0:0:0:
36,192,65999,128,0,66062:0:0:0:0:
36,192,66187,128,0,66249:0:0:0:0:
402,192,66187,128,0,66687:0:0:0:0:
109,192,66187,128,0,66499:0:0:0:0:
182,192,66187,1,0,0:0:0:0:
329,192,66187,1,0,0:0:0:0:
475,192,66187,1,0,0:0:0:0:
182,192,66374,128,0,66499:0:0:0:0:
329,192,66374,128,0,66437:0:0:0:0:
182,192,66562,128,0,66624:0:0:0:0:
329,192,66562,1,0,0:0:0:0:
36,192,66562,128,0,66874:0:0:0:0:
475,192,66562,128,0,66874:0:0:0:0:
256,192,66624,128,0,66687:0:0:0:0:
182,192,66687,128,0,66749:0:0:0:0:
109,192,66749,128,0,66812:0:0:0:0:
402,192,66749,1,0,0:0:0:0:
182,192,66812,128,0,66874:0:0:0:0:
256,192,66874,128,0,66999:0:0:0:0:
109,192,66937,128,0,67249:0:0:0:0:
402,192,66937,128,0,67374:0:0:0:0:
475,192,66937,128,0,66999:0:0:0:0:
36,192,66937,128,0,66999:0:0:0:0:
329,192,66937,1,0,0:0:0:0:
182,192,66937,1,0,0:0:0:0:
36,192,67124,128,0,67249:0:0:0:0:
329,192,67124,128,0,67249:0:0:0:0:
475,192,67124,128,0,67249:0:0:0:0:
182,192,67124,128,0,67249:0:0:0:0:
256,192,67124,1,0,0:0:0:0:
182,192,67312,128,0,67562:0:0:0:0:
109,192,67312,128,0,67374:0:0:0:0:
329,192,67312,128,0,67374:0:0:0:0:
475,192,67312,128,0,67374:0:0:0:0:
36,192,67312,128,0,67374:0:0:0:0:
256,192,67374,128,0,67437:0:0:0:0:
329,192,67437,128,0,67499:0:0:0:0:
402,192,67499,128,0,67562:0:0:0:0:
109,192,67499,128,0,67687:0:0:0:0:
329,192,67562,128,0,67812:0:0:0:0:
256,192,67624,128,0,67749:0:0:0:0:
36,192,67687,128,0,67999:0:0:0:0:
182,192,67687,1,0,0:0:0:0:
402,192,67687,128,0,67874:0:0:0:0:
475,192,67687,128,0,67999:0:0:0:0:
329,192,67874,128,0,67999:0:0:0:0:
182,192,67874,128,0,67999:0:0:0:0:
475,192,68062,128,0,68124:0:0:0:0:
256,192,68062,1,0,0:0:0:0:
109,192,68062,128,0,68312:0:0:0:0:
182,192,68062,128,0,68124:0:0:0:0:
329,192,68062,128,0,68124:0:0:0:0:
36,192,68062,128,0,68374:0:0:0:0:
329,192,68249,128,0,68312:0:0:0:0:
256,192,68249,128,0,68874:0:0:0:0:
402,192,68249,1,0,0:0:0:0:
475,192,68249,128,0,68312:0:0:0:0:
402,192,68437,128,0,68687:0:0:0:0:
475,192,68437,128,0,68749:0:0:0:0:
36,192,68437,128,0,68499:0:0:0:0:
182,192,68437,128,0,68499:0:0:0:0:
329,192,68437,128,0,68499:0:0:0:0:
36,192,68624,128,0,68687:0:0:0:0:
182,192,68624,128,0,68687:0:0:0:0:
109,192,68624,1,0,0:0:0:0:
109,192,68812,128,0,69062:0:0:0:0:
36,192,68812,128,0,68874:0:0:0:0:
475,192,68812,128,0,68874:0:0:0:0:
402,192,68812,128,0,68874:0:0:0:0:
182,192,68812,1,0,0:0:0:0:
329,192,68812,128,0,69062:0:0:0:0:
182,192,68999,128,0,69249:0:0:0:0:
402,192,68999,128,0,69249:0:0:0:0:
36,192,68999,1,0,0:0:0:0:
475,192,68999,1,0,0:0:0:0:
256,192,69187,128,0,69437:0:0:0:0:
36,192,69187,128,0,69249:0:0:0:0:
109,192,69187,128,0,69437:0:0:0:0:
475,192,69187,128,0,69249:0:0:0:0:
182,192,69374,128,0,69624:0:0:0:0:
475,192,69374,128,0,69437:0:0:0:0:
36,192,69374,128,0,69437:0:0:0:0:
402,192,69374,128,0,69437:0:0:0:0:
329,192,69374,1,0,0:0:0:0:
329,192,69562,128,0,69874:0:0:0:0:
475,192,69562,128,0,69624:0:0:0:0:
36,192,69562,128,0,69624:0:0:0:0:
402,192,69562,128,0,69812:0:0:0:0:
109,192,69562,1,0,0:0:0:0:
109,192,69749,128,0,69874:0:0:0:0:
256,192,69749,1,0,0:0:0:0:
36,192,69749,1,0,0:0:0:0:
182,192,69937,128,0,70249:0:0:0:0:
36,192,69937,128,0,69999:0:0:0:0:
109,192,69937,128,0,70187:0:0:0:0:
402,192,69937,128,0,69999:0:0:0:0:
475,192,69937,1,0,0:0:0:0:
256,192,69937,128,0,69999:0:0:0:0:
329,192,70124,128,0,70187:0:0:0:0:
475,192,70124,128,0,70187:0:0:0:0:
402,192,70124,128,0,70374:0:0:0:0:
36,192,70124,1,0,0:0:0:0:
109,192,70312,128,0,70374:0:0:0:0:
329,192,70312,1,0,0:0:0:0:
475,192,70312,128,0,70562:0:0:0:0:
256,192,70312,1,0,0:0:0:0:
36,192,70312,1,0,0:0:0:0:
182,192,70374,128,0,70437:0:0:0:0:
256,192,70437,128,0,70499:0:0:0:0:
36,192,70499,1,0,0:0:0:0:
329,192,70499,128,0,70562:0:0:0:0:
109,192,70562,1,0,0:0:0:0:
402,192,70562,128,0,70624:0:0:0:0:
182,192,70624,1,0,0:0:0:0:
475,192,70687,128,0,70749:0:0:0:0:
329,192,70687,128,0,70749:0:0:0:0:
256,192,70687,1,0,0:0:0:0:
36,192,70687,128,0,70749:0:0:0:0:
36,192,70874,128,0,70937:0:0:0:0:
256,192,70874,128,0,70937:0:0:0:0:
402,192,70874,128,0,70937:0:0:0:0:
182,192,70874,1,0,0:0:0:0:
109,192,71062,128,0,71124:0:0:0:0:
475,192,71062,128,0,71749:0:0:0:0:
36,192,71062,128,0,71749:0:0:0:0:
329,192,71062,1,0,0:0:0:0:
402,192,71062,1,0,0:0:0:0:
182,192,71124,128,0,71187:0:0:0:0:
256,192,71187,128,0,71249:0:0:0:0:
182,192,71249,128,0,71312:0:0:0:0:
109,192,71312,128,0,71437:0:0:0:0:
182,192,71374,128,0,71499:0:0:0:0:
256,192,71437,128,0,71624:0:0:0:0:
329,192,71499,128,0,71562:0:0:0:0:
402,192,71562,128,0,71687:0:0:0:0:
329,192,71624,128,0,71749:0:0:0:0:
182,192,71687,128,0,71874:0:0:0:0:
256,192,71749,128,0,72062:0:0:0:0:
475,192,71812,128,0,71874:0:0:0:0:
329,192,71812,128,0,71874:0:0:0:0:
36,192,71812,128,0,71874:0:0:0:0:
402,192,71812,128,0,71999:0:0:0:0:
109,192,71812,1,0,0:0:0:0:
36,192,71999,128,0,72062:0:0:0:0:
182,192,71999,128,0,72249:0:0:0:0:
475,192,71999,128,0,72062:0:0:0:0:
329,192,71999,128,0,72249:0:0:0:0:
36,192,72187,128,0,72249:0:0:0:0:
256,192,72187,128,0,72437:0:0:0:0:
109,192,72187,128,0,72249:0:0:0:0:
475,192,72187,128,0,72249:0:0:0:0:
402,192,72187,128,0,72249:0:0:0:0:
475,192,72374,128,0,72437:0:0:0:0:
36,192,72374,128,0,72437:0:0:0:0:
109,192,72374,128,0,72437:0:0:0:0:
402,192,72374,128,0,72437:0:0:0:0:
256,192,72562,128,0,72687:0:0:0:0:
475,192,72562,128,0,72874:0:0:0:0:
36,192,72562,128,0,72999:0:0:0:0:
182,192,72562,1,0,0:0:0:0:
109,192,72562,128,0,72812:0:0:0:0:
329,192,72624,128,0,72749:0:0:0:0:
402,192,72687,128,0,72812:0:0:0:0:
182,192,72749,128,0,72874:0:0:0:0:
256,192,72812,128,0,73062:0:0:0:0:
329,192,72874,128,0,72999:0:0:0:0:
475,192,72937,128,0,73249:0:0:0:0:
402,192,72937,1,0,0:0:0:0:
109,192,72937,1,0,0:0:0:0:
182,192,72999,128,0,73124:0:0:0:0:
109,192,73062,128,0,73187:0:0:0:0:
402,192,73062,128,0,73374:0:0:0:0:
329,192,73124,128,0,73249:0:0:0:0:
36,192,73124,128,0,73249:0:0:0:0:
256,192,73187,128,0,73312:0:0:0:0:
182,192,73249,128,0,73374:0:0:0:0:
36,192,73312,128,0,73374:0:0:0:0:
475,192,73312,128,0,73374:0:0:0:0:
109,192,73312,128,0,73687:0:0:0:0:
329,192,73374,128,0,73562:0:0:0:0:
256,192,73437,128,0,73499:0:0:0:0:
182,192,73499,128,0,73624:0:0:0:0:
256,192,73562,128,0,73687:0:0:0:0:
329,192,73624,128,0,73749:0:0:0:0:
402,192,73687,128,0,73812:0:0:0:0:
36,192,73687,128,0,73812:0:0:0:0:
475,192,73687,128,0,73812:0:0:0:0:
182,192,73687,128,0,73812:0:0:0:0:
329,192,73874,128,0,73999:0:0:0:0:
475,192,73874,128,0,73999:0:0:0:0:
182,192,73874,128,0,73999:0:0:0:0:
256,192,73874,1,0,0:0:0:0:
36,192,73874,128,0,73999:0:0:0:0:
109,192,74062,128,0,74343:0:0:0:0:
256,192,74062,128,0,74155:0:0:0:0:
402,192,74062,128,0,74343:0:0:0:0:
36,192,74062,128,0,74155:0:0:0:0:
475,192,74062,128,0,74155:0:0:0:0:
182,192,74062,128,0,74155:0:0:0:0:
329,192,74062,128,0,74155:0:0:0:0:
182,192,74249,128,0,74343:0:0:0:0:
329,192,74249,128,0,74530:0:0:0:0:
36,192,74249,128,0,74718:0:0:0:0:
256,192,74249,1,0,0:0:0:0:
475,192,74249,1,0,0:0:0:0:
256,192,74437,128,0,74718:0:0:0:0:
109,192,74437,128,0,74530:0:0:0:0:
475,192,74437,128,0,74905:0:0:0:0:
182,192,74437,1,0,0:0:0:0:
402,192,74437,1,0,0:0:0:0:
109,192,74624,128,0,74905:0:0:0:0:
182,192,74624,128,0,74718:0:0:0:0:
329,192,74624,128,0,74718:0:0:0:0:
402,192,74624,128,0,74718:0:0:0:0:
329,192,74812,128,0,75093:0:0:0:0:
36,192,74812,128,0,75093:0:0:0:0:
182,192,74812,128,0,75093:0:0:0:0:
256,192,74812,1,0,0:0:0:0:
402,192,74812,1,0,0:0:0:0:
475,192,74999,128,0,75280:0:0:0:0:
256,192,74999,128,0,75280:0:0:0:0:
402,192,74999,1,0,0:0:0:0:
109,192,74999,1,0,0:0:0:0:
36,192,75187,128,0,75280:0:0:0:0:
329,192,75187,128,0,75468:0:0:0:0:
182,192,75187,128,0,75280:0:0:0:0:
109,192,75187,128,0,75468:0:0:0:0:
402,192,75187,128,0,75280:0:0:0:0:
182,192,75374,128,0,75655:0:0:0:0:
36,192,75374,1,0,0:0:0:0:
256,192,75374,1,0,0:0:0:0:
402,192,75374,1,0,0:0:0:0:
475,192,75374,128,0,75655:0:0:0:0:
256,192,75562,128,0,75843:0:0:0:0:
36,192,75562,128,0,75655:0:0:0:0:
109,192,75562,128,0,75655:0:0:0:0:
329,192,75562,128,0,75655:0:0:0:0:
402,192,75562,128,0,76030:0:0:0:0:
182,192,75749,1,0,0:0:0:0:
329,192,75749,128,0,76218:0:0:0:0:
36,192,75749,1,0,0:0:0:0:
475,192,75749,1,0,0:0:0:0:
109,192,75749,128,0,76030:0:0:0:0:
182,192,75937,128,0,76030:0:0:0:0:
36,192,75937,128,0,76405:0:0:0:0:
256,192,75937,1,0,0:0:0:0:
475,192,75937,1,0,0:0:0:0:
256,192,76124,128,0,76218:0:0:0:0:
182,192,76124,128,0,76405:0:0:0:0:
109,192,76124,128,0,76218:0:0:0:0:
402,192,76124,128,0,76218:0:0:0:0:
475,192,76124,128,0,76593:0:0:0:0:
256,192,76312,128,0,76780:0:0:0:0:
109,192,76312,1,0,0:0:0:0:
402,192,76312,1,0,0:0:0:0:
329,192,76312,1,0,0:0:0:0:
329,192,76499,128,0,76593:0:0:0:0:
36,192,76499,1,0,0:0:0:0:
109,192,76499,128,0,76593:0:0:0:0:
402,192,76499,1,0,0:0:0:0:
182,192,76499,1,0,0:0:0:0:
182,192,76687,128,0,76968:0:0:0:0:
36,192,76687,128,0,76780:0:0:0:0:
402,192,76687,128,0,77155:0:0:0:0:
109,192,76687,128,0,76780:0:0:0:0:
329,192,76687,128,0,76780:0:0:0:0:
475,192,76687,128,0,76780:0:0:0:0:
475,192,76874,1,0,0:0:0:0:
36,192,76874,128,0,77343:0:0:0:0:
256,192,76874,128,0,77155:0:0:0:0:
329,192,76874,1,0,0:0:0:0:
109,192,76874,1,0,0:0:0:0:
475,192,77062,128,0,77718:0:0:0:0:
329,192,77062,128,0,77343:0:0:0:0:
109,192,77062,128,0,77155:0:0:0:0:
182,192,77062,128,0,77155:0:0:0:0:
182,192,77249,1,0,0:0:0:0:
402,192,77249,1,0,0:0:0:0:
109,192,77249,128,0,77530:0:0:0:0:
256,192,77249,1,0,0:0:0:0:
182,192,77437,128,0,77718:0:0:0:0:
36,192,77437,1,0,0:0:0:0:
256,192,77437,1,0,0:0:0:0:
402,192,77437,1,0,0:0:0:0:
329,192,77437,1,0,0:0:0:0:
256,192,77624,128,0,77905:0:0:0:0:
402,192,77624,128,0,77718:0:0:0:0:
36,192,77624,128,0,77905:0:0:0:0:
329,192,77624,128,0,77718:0:0:0:0:
109,192,77624,128,0,77718:0:0:0:0:
402,192,77812,128,0,78093:0:0:0:0:
182,192,77812,128,0,78093:0:0:0:0:
329,192,77812,1,0,0:0:0:0:
109,192,77812,1,0,0:0:0:0:
475,192,77812,1,0,0:0:0:0:
109,192,77999,1,0,0:0:0:0:
475,192,77999,128,0,78655:0:0:0:0:
36,192,77999,1,0,0:0:0:0:
256,192,77999,1,0,0:0:0:0:
329,192,77999,128,0,78280:0:0:0:0:
182,192,78187,128,0,78468:0:0:0:0:
36,192,78187,128,0,78468:0:0:0:0:
109,192,78187,128,0,78280:0:0:0:0:
256,192,78187,128,0,78280:0:0:0:0:
402,192,78187,128,0,78280:0:0:0:0:
256,192,78374,128,0,78655:0:0:0:0:
402,192,78374,1,0,0:0:0:0:
329,192,78374,1,0,0:0:0:0:
109,192,78374,1,0,0:0:0:0:
329,192,78562,128,0,78843:0:0:0:0:
109,192,78562,128,0,79218:0:0:0:0:
36,192,78562,128,0,78655:0:0:0:0:
182,192,78562,128,0,78655:0:0:0:0:
402,192,78562,128,0,78655:0:0:0:0:
256,192,78749,128,0,79030:0:0:0:0:
475,192,78749,128,0,79030:0:0:0:0:
36,192,78749,1,0,0:0:0:0:
182,192,78749,1,0,0:0:0:0:
402,192,78749,1,0,0:0:0:0:
402,192,78937,128,0,79218:0:0:0:0:
329,192,78937,1,0,0:0:0:0:
182,192,78937,1,0,0:0:0:0:
36,192,78937,1,0,0:0:0:0:
36,192,79124,128,0,79780:0:0:0:0:
475,192,79124,128,0,79218:0:0:0:0:
329,192,79124,128,0,79405:0:0:0:0:
256,192,79124,128,0,79218:0:0:0:0:
182,192,79124,128,0,79218:0:0:0:0:
256,192,79312,128,0,79593:0:0:0:0:
475,192,79312,128,0,79593:0:0:0:0:
109,192,79312,1,0,0:0:0:0:
182,192,79312,1,0,0:0:0:0:
402,192,79312,1,0,0:0:0:0:
182,192,79499,128,0,79780:0:0:0:0:
402,192,79499,128,0,79780:0:0:0:0:
109,192,79499,1,0,0:0:0:0:
329,192,79499,1,0,0:0:0:0:
475,192,79687,128,0,79780:0:0:0:0:
256,192,79687,128,0,79780:0:0:0:0:
109,192,79687,128,0,79780:0:0:0:0:
329,192,79687,128,0,79780:0:0:0:0:
36,192,79874,1,0,0:0:0:0:
329,192,79874,1,0,0:0:0:0:
402,192,79874,1,0,0:0:0:0:
109,192,79874,1,0,0:0:0:0:
256,192,79874,1,0,0:0:0:0:
182,192,79874,1,0,0:0:0:0:
475,192,79874,1,0,0:0:0:0:
36,192,80062,128,0,80530:0:0:0:0:
182,192,80062,128,0,80155:0:0:0:0:
402,192,80062,128,0,80155:0:0:0:0:
256,192,80062,128,0,80343:0:0:0:0:
109,192,80062,128,0,80155:0:0:0:0:
475,192,80062,128,0,80155:0:0:0:0:
329,192,80062,128,0,80155:0:0:0:0:
182,192,80249,128,0,80343:0:0:0:0:
329,192,80249,128,0,80530:0:0:0:0:
475,192,80249,128,0,80343:0:0:0:0:
109,192,80249,128,0,80905:0:0:0:0:
182,192,80437,128,0,80530:0:0:0:0:
256,192,80437,128,0,80530:0:0:0:0:
402,192,80437,128,0,80718:0:0:0:0:
475,192,80437,128,0,80530:0:0:0:0:
329,192,80624,128,0,80718:0:0:0:0:
256,192,80624,128,0,80905:0:0:0:0:
475,192,80624,128,0,81093:0:0:0:0:
36,192,80624,128,0,80718:0:0:0:0:
182,192,80624,128,0,80718:0:0:0:0:
402,192,80812,128,0,81093:0:0:0:0:
329,192,80812,128,0,80905:0:0:0:0:
182,192,80812,128,0,81093:0:0:0:0:
36,192,80812,128,0,80905:0:0:0:0:
329,192,80999,128,0,81093:0:0:0:0:
256,192,80999,128,0,81093:0:0:0:0:
36,192,80999,128,0,81093:0:0:0:0:
109,192,80999,128,0,81093:0:0:0:0:
182,192,81187,128,0,81280:0:0:0:0:
256,192,81187,128,0,81280:0:0:0:0:
402,192,81187,128,0,81468:0:0:0:0:
475,192,81187,128,0,81280:0:0:0:0:
36,192,81187,128,0,81280:0:0:0:0:
329,192,81187,128,0,81280:0:0:0:0:
109,192,81187,128,0,81468:0:0:0:0:
256,192,81374,128,0,81468:0:0:0:0:
182,192,81374,128,0,81468:0:0:0:0:
36,192,81374,128,0,81468:0:0:0:0:
329,192,81374,128,0,81468:0:0:0:0:
475,192,81374,128,0,81468:0:0:0:0:
36,192,81562,128,0,82030:0:0:0:0:
109,192,81562,128,0,81655:0:0:0:0:
256,192,81562,128,0,81843:0:0:0:0:
182,192,81562,128,0,81655:0:0:0:0:
475,192,81562,128,0,81655:0:0:0:0:
402,192,81562,128,0,81655:0:0:0:0:
182,192,81749,128,0,81843:0:0:0:0:
109,192,81749,128,0,82405:0:0:0:0:
329,192,81749,128,0,82030:0:0:0:0:
475,192,81749,128,0,81843:0:0:0:0:
256,192,81937,128,0,82030:0:0:0:0:
182,192,81937,128,0,82030:0:0:0:0:
402,192,81937,128,0,82218:0:0:0:0:
475,192,81937,128,0,82030:0:0:0:0:
256,192,82124,128,0,82405:0:0:0:0:
475,192,82124,128,0,82593:0:0:0:0:
36,192,82124,128,0,82218:0:0:0:0:
329,192,82124,128,0,82218:0:0:0:0:
182,192,82124,128,0,82218:0:0:0:0:
329,192,82312,128,0,82593:0:0:0:0:
182,192,82312,128,0,82593:0:0:0:0:
36,192,82312,128,0,82405:0:0:0:0:
402,192,82312,128,0,82405:0:0:0:0:
36,192,82499,128,0,82593:0:0:0:0:
109,192,82499,128,0,82593:0:0:0:0:
256,192,82499,128,0,82593:0:0:0:0:
402,192,82499,128,0,82593:0:0:0:0:
475,192,82687,128,0,82968:0:0:0:0:
402,192,82687,128,0,82780:0:0:0:0:
329,192,82687,128,0,82780:0:0:0:0:
182,192,82687,128,0,82780:0:0:0:0:
109,192,82687,128,0,82780:0:0:0:0:
36,192,82687,128,0,82968:0:0:0:0:
256,192,82687,128,0,82968:0:0:0:0:
109,192,82874,128,0,82968:0:0:0:0:
182,192,82874,128,0,82968:0:0:0:0:
402,192,82874,128,0,82968:0:0:0:0:
329,192,82874,128,0,82968:0:0:0:0:
256,192,83062,128,0,83530:0:0:0:0:
475,192,83062,128,0,83530:0:0:0:0:
36,192,83062,128,0,83155:0:0:0:0:
182,192,83062,128,0,83155:0:0:0:0:
329,192,83062,128,0,83155:0:0:0:0:
402,192,83062,128,0,83155:0:0:0:0:
109,192,83062,128,0,83155:0:0:0:0:
109,192,83249,128,0,83343:0:0:0:0:
36,192,83249,128,0,83530:0:0:0:0:
329,192,83249,128,0,83343:0:0:0:0:
402,192,83249,128,0,83343:0:0:0:0:
182,192,83437,128,0,83718:0:0:0:0:
402,192,83437,128,0,83718:0:0:0:0:
109,192,83437,128,0,83530:0:0:0:0:
329,192,83437,128,0,83530:0:0:0:0:
109,192,83624,128,0,84280:0:0:0:0:
36,192,83624,128,0,83718:0:0:0:0:
329,192,83624,128,0,84280:0:0:0:0:
256,192,83624,128,0,83718:0:0:0:0:
475,192,83624,128,0,83718:0:0:0:0:
256,192,83812,128,0,83905:0:0:0:0:
36,192,83812,128,0,83905:0:0:0:0:
475,192,83812,128,0,83905:0:0:0:0:
182,192,83812,128,0,83905:0:0:0:0:
36,192,83999,128,0,84093:0:0:0:0:
402,192,83999,128,0,84280:0:0:0:0:
475,192,83999,128,0,84093:0:0:0:0:
182,192,83999,128,0,84093:0:0:0:0:
256,192,84187,128,0,84468:0:0:0:0:
36,192,84187,128,0,84468:0:0:0:0:
475,192,84187,128,0,84280:0:0:0:0:
182,192,84187,128,0,84280:0:0:0:0:
182,192,84374,128,0,84468:0:0:0:0:
402,192,84374,128,0,84468:0:0:0:0:
475,192,84374,128,0,84468:0:0:0:0:
109,192,84468,128,0,84562:0:0:0:0:
329,192,84468,128,0,84562:0:0:0:0:
256,192,84562,128,0,84843:0:0:0:0:
402,192,84562,1,0,0:0:0:0:
182,192,84562,128,0,84608:0:0:0:0:
36,192,84562,128,0,84608:0:0:0:0:
475,192,84562,128,0,84608:0:0:0:0:
402,192,84749,128,0,85030:0:0:0:0:
36,192,84749,1,0,0:0:0:0:
475,192,84749,1,0,0:0:0:0:
109,192,84749,128,0,85030:0:0:0:0:
329,192,84749,128,0,84796:0:0:0:0:
36,192,84937,1,0,0:0:0:0:
475,192,84937,1,0,0:0:0:0:
256,192,84937,128,0,85124:0:0:0:0:
182,192,84937,128,0,84983:0:0:0:0:
329,192,85124,1,0,0:0:0:0:
109,192,85124,128,0,85968:0:0:0:0:
402,192,85124,128,0,85968:0:0:0:0:
36,192,85124,128,0,85968:0:0:0:0:
475,192,85124,128,0,85968:0:0:0:0:
182,192,85124,1,0,0:0:0:0:
182,192,86062,128,0,86671:0:0:0:0:
256,192,86062,128,0,86108:0:0:0:0:
402,192,86062,128,0,86671:0:0:0:0:
36,192,86062,128,0,86108:0:0:0:0:
475,192,86062,128,0,86108:0:0:0:0:
109,192,86062,1,0,0:0:0:0:
329,192,86249,128,0,86296:0:0:0:0:
109,192,86249,128,0,86483:0:0:0:0:
475,192,86249,1,0,0:0:0:0:
256,192,86437,128,0,86483:0:0:0:0:
36,192,86437,128,0,86483:0:0:0:0:
329,192,86437,1,0,0:0:0:0:
256,192,86624,128,0,87280:0:0:0:0:
36,192,86624,128,0,87046:0:0:0:0:
475,192,86624,128,0,86671:0:0:0:0:
109,192,86624,128,0,86671:0:0:0:0:
329,192,86624,1,0,0:0:0:0:
182,192,86812,128,0,86858:0:0:0:0:
402,192,86812,128,0,87046:0:0:0:0:
329,192,86812,1,0,0:0:0:0:
475,192,86812,1,0,0:0:0:0:
109,192,86999,128,0,87046:0:0:0:0:
329,192,86999,128,0,87046:0:0:0:0:
475,192,86999,1,0,0:0:0:0:
182,192,86999,1,0,0:0:0:0:
402,192,87187,1,0,0:0:0:0:
36,192,87187,128,0,87937:0:0:0:0:
182,192,87187,128,0,87249:0:0:0:0:
475,192,87187,128,0,87937:0:0:0:0:
329,192,87187,128,0,87312:0:0:0:0:
109,192,87249,128,0,87374:0:0:0:0:
182,192,87312,128,0,87499:0:0:0:0:
256,192,87374,128,0,87437:0:0:0:0:
109,192,87437,128,0,87562:0:0:0:0:
402,192,87437,1,0,0:0:0:0:
329,192,87499,1,0,0:0:0:0:
256,192,87562,1,0,0:0:0:0:
402,192,87562,128,0,87687:0:0:0:0:
329,192,87624,128,0,87749:0:0:0:0:
182,192,87624,1,0,0:0:0:0:
109,192,87687,1,0,0:0:0:0:
256,192,87687,128,0,87812:0:0:0:0:
182,192,87749,128,0,87937:0:0:0:0:
109,192,87812,128,0,87874:0:0:0:0:
329,192,87812,1,0,0:0:0:0:
402,192,87874,1,0,0:0:0:0:
256,192,87874,128,0,87999:0:0:0:0:
329,192,87937,128,0,88062:0:0:0:0:
402,192,87999,128,0,88124:0:0:0:0:
109,192,87999,1,0,0:0:0:0:
36,192,88062,128,0,88187:0:0:0:0:
475,192,88062,128,0,88187:0:0:0:0:
182,192,88062,1,0,0:0:0:0:
256,192,88124,1,0,0:0:0:0:
109,192,88124,128,0,88249:0:0:0:0:
329,192,88187,1,0,0:0:0:0:
182,192,88187,128,0,88312:0:0:0:0:
402,192,88249,1,0,0:0:0:0:
256,192,88249,128,0,88374:0:0:0:0:
36,192,88312,128,0,88624:0:0:0:0:
329,192,88312,128,0,88437:0:0:0:0:
109,192,88312,128,0,88374:0:0:0:0:
475,192,88312,128,0,88499:0:0:0:0:
256,192,88499,128,0,88780:0:0:0:0:
182,192,88499,128,0,88562:0:0:0:0:
109,192,88499,128,0,88593:0:0:0:0:
402,192,88499,128,0,88562:0:0:0:0:
36,192,88687,1,0,0:0:0:0:
329,192,88687,128,0,88812:0:0:0:0:
109,192,88687,128,0,88937:0:0:0:0:
182,192,88687,128,0,88749:0:0:0:0:
475,192,88687,128,0,88749:0:0:0:0:
36,192,88874,128,0,89108:0:0:0:0:
182,192,88874,128,0,89108:0:0:0:0:
475,192,88874,128,0,88937:0:0:0:0:
329,192,88874,1,0,0:0:0:0:
256,192,88874,128,0,88968:0:0:0:0:
109,192,89062,128,0,89671:0:0:0:0:
256,192,89062,128,0,89108:0:0:0:0:
402,192,89062,1,0,0:0:0:0:
475,192,89062,128,0,89108:0:0:0:0:
329,192,89062,128,0,89671:0:0:0:0:
182,192,89249,128,0,89296:0:0:0:0:
402,192,89249,128,0,89483:0:0:0:0:
36,192,89249,1,0,0:0:0:0:
36,192,89437,128,0,89483:0:0:0:0:
256,192,89437,128,0,89483:0:0:0:0:
182,192,89437,1,0,0:0:0:0:
475,192,89437,128,0,89483:0:0:0:0:
256,192,89624,128,0,90046:0:0:0:0:
475,192,89624,128,0,90046:0:0:0:0:
36,192,89624,128,0,89671:0:0:0:0:
402,192,89624,128,0,89671:0:0:0:0:
109,192,89812,128,0,90046:0:0:0:0:
329,192,89812,128,0,89858:0:0:0:0:
182,192,89812,1,0,0:0:0:0:
182,192,89999,128,0,90046:0:0:0:0:
402,192,89999,128,0,90046:0:0:0:0:
36,192,89999,128,0,90046:0:0:0:0:
329,192,89999,1,0,0:0:0:0:
475,192,90187,128,0,92015:0:0:0:0:
36,192,90187,128,0,92015:0:0:0:0:
182,192,90187,128,0,91624:0:0:0:0:
329,192,90187,128,0,91249:0:0:0:0:
256,192,90187,128,0,91999:0:0:0:0:
329,192,91312,128,0,91718:0:0:0:0:
182,192,91687,128,0,91812:0:0:0:0:
329,192,91780,128,0,92062:0:0:0:0:
182,192,91874,128,0,92155:0:0:0:0:
256,192,92062,128,0,92343:0:0:0:0:
36,192,92062,1,0,0:0:0:0:
475,192,92062,1,0,0:0:0:0:
402,192,92062,1,0,0:0:0:0:
109,192,92062,1,0,0:0:0:0:
329,192,92249,128,0,92624:0:0:0:0:
109,192,92249,1,0,0:0:0:0:
402,192,92249,1,0,0:0:0:0:
36,192,92437,1,0,0:0:0:0:
475,192,92437,1,0,0:0:0:0:
182,192,92437,128,0,92718:0:0:0:0:
256,192,92624,128,0,92812:0:0:0:0:
109,192,92624,1,0,0:0:0:0:
402,192,92624,1,0,0:0:0:0:
182,192,92812,128,0,93187:0:0:0:0:
36,192,92812,128,0,93187:0:0:0:0:
329,192,92812,128,0,93187:0:0:0:0:
475,192,92812,128,0,93468:0:0:0:0:
256,192,93187,128,0,93468:0:0:0:0:
109,192,93187,1,0,0:0:0:0:
36,192,93515,1,0,0:0:0:0:
109,192,93538,1,0,0:0:0:0:
329,192,93562,128,0,93937:0:0:0:0:
256,192,93562,1,0,0:0:0:0:
182,192,93562,1,0,0:0:0:0:
402,192,93562,1,0,0:0:0:0:
475,192,93562,128,0,93937:0:0:0:0:
256,192,93749,128,0,93937:0:0:0:0:
36,192,93749,128,0,94124:0:0:0:0:
182,192,93937,128,0,94124:0:0:0:0:
402,192,93937,128,0,94312:0:0:0:0:
256,192,94124,128,0,94312:0:0:0:0:
109,192,94124,128,0,94312:0:0:0:0:
329,192,94312,1,0,0:0:0:0:
182,192,94312,1,0,0:0:0:0:
475,192,94312,128,0,95038:0:0:0:0:
36,192,94312,1,0,0:0:0:0:
402,192,94405,1,0,0:0:0:0:
109,192,94405,1,0,0:0:0:0:
36,192,94499,128,0,94827:0:0:0:0:
182,192,94499,1,0,0:0:0:0:
329,192,94499,1,0,0:0:0:0:
402,192,94593,1,0,0:0:0:0:
109,192,94593,1,0,0:0:0:0:
256,192,94687,128,0,95038:0:0:0:0:
329,192,94687,128,0,94733:0:0:0:0:
182,192,94687,128,0,94733:0:0:0:0:
402,192,94780,128,0,94827:0:0:0:0:
109,192,94780,128,0,94827:0:0:0:0:
329,192,94874,128,0,94944:0:0:0:0:
182,192,94874,128,0,94944:0:0:0:0:
36,192,94874,128,0,95038:0:0:0:0:
402,192,94968,128,0,95038:0:0:0:0:
109,192,94968,128,0,95038:0:0:0:0:
182,192,95062,128,0,95249:0:0:0:0:
329,192,95062,128,0,95249:0:0:0:0:
36,192,95249,1,0,0:0:0:0:
256,192,95249,128,0,95437:0:0:0:0:
402,192,95249,128,0,95437:0:0:0:0:
109,192,95343,1,0,0:0:0:0:
475,192,95437,128,0,95905:0:0:0:0:
36,192,95437,128,0,95718:0:0:0:0:
182,192,95437,128,0,95718:0:0:0:0:
329,192,95437,1,0,0:0:0:0:
256,192,95624,128,0,95999:0:0:0:0:
402,192,95624,1,0,0:0:0:0:
329,192,95718,1,0,0:0:0:0:
402,192,95812,128,0,95905:0:0:0:0:
109,192,95812,128,0,96187:0:0:0:0:
182,192,95812,1,0,0:0:0:0:
36,192,95812,1,0,0:0:0:0:
475,192,95999,128,0,96280:0:0:0:0:
182,192,95999,1,0,0:0:0:0:
329,192,95999,128,0,96280:0:0:0:0:
256,192,96093,1,0,0:0:0:0:
182,192,96187,128,0,96468:0:0:0:0:
36,192,96187,128,0,96468:0:0:0:0:
402,192,96187,1,0,0:0:0:0:
109,192,96374,1,0,0:0:0:0:
329,192,96374,128,0,96468:0:0:0:0:
475,192,96374,128,0,96468:0:0:0:0:
256,192,96468,1,0,0:0:0:0:
329,192,96562,1,0,0:0:0:0:
109,192,96562,128,0,96843:0:0:0:0:
182,192,96562,1,0,0:0:0:0:
475,192,96562,1,0,0:0:0:0:
402,192,96562,128,0,96843:0:0:0:0:
36,192,96562,1,0,0:0:0:0:
256,192,96749,128,0,96937:0:0:0:0:
182,192,96749,1,0,0:0:0:0:
329,192,96843,1,0,0:0:0:0:
36,192,96937,128,0,97124:0:0:0:0:
475,192,96937,128,0,97124:0:0:0:0:
109,192,96937,1,0,0:0:0:0:
182,192,96937,1,0,0:0:0:0:
402,192,96937,1,0,0:0:0:0:
109,192,97124,128,0,97312:0:0:0:0:
402,192,97124,128,0,97312:0:0:0:0:
182,192,97124,1,0,0:0:0:0:
256,192,97218,1,0,0:0:0:0:
329,192,97312,1,0,0:0:0:0:
36,192,97312,128,0,98038:0:0:0:0:
182,192,97312,1,0,0:0:0:0:
475,192,97312,1,0,0:0:0:0:
402,192,97405,1,0,0:0:0:0:
109,192,97405,1,0,0:0:0:0:
475,192,97499,128,0,97827:0:0:0:0:
329,192,97499,1,0,0:0:0:0:
182,192,97499,1,0,0:0:0:0:
109,192,97593,1,0,0:0:0:0:
402,192,97593,1,0,0:0:0:0:
182,192,97687,128,0,97733:0:0:0:0:
256,192,97687,128,0,98038:0:0:0:0:
329,192,97687,128,0,97733:0:0:0:0:
402,192,97780,128,0,97827:0:0:0:0:
109,192,97780,128,0,97827:0:0:0:0:
182,192,97874,128,0,97944:0:0:0:0:
475,192,97874,128,0,98038:0:0:0:0:
329,192,97874,128,0,97944:0:0:0:0:
402,192,97968,128,0,98038:0:0:0:0:
109,192,97968,128,0,98038:0:0:0:0:
182,192,98062,128,0,98343:0:0:0:0:
329,192,98062,128,0,98155:0:0:0:0:
329,192,98249,128,0,98530:0:0:0:0:
36,192,98249,1,0,0:0:0:0:
475,192,98249,128,0,98530:0:0:0:0:
109,192,98343,1,0,0:0:0:0:
182,192,98437,1,0,0:0:0:0:
256,192,98437,128,0,98718:0:0:0:0:
36,192,98437,128,0,98624:0:0:0:0:
402,192,98437,1,0,0:0:0:0:
402,192,98624,1,0,0:0:0:0:
109,192,98624,128,0,98905:0:0:0:0:
475,192,98624,128,0,98905:0:0:0:0:
329,192,98718,1,0,0:0:0:0:
256,192,98812,1,0,0:0:0:0:
402,192,98812,128,0,99093:0:0:0:0:
36,192,98812,128,0,99093:0:0:0:0:
182,192,98812,1,0,0:0:0:0:
256,192,98999,1,0,0:0:0:0:
182,192,98999,128,0,99280:0:0:0:0:
329,192,99093,1,0,0:0:0:0:
402,192,99187,1,0,0:0:0:0:
475,192,99187,128,0,99468:0:0:0:0:
109,192,99187,128,0,99468:0:0:0:0:
36,192,99187,128,0,99280:0:0:0:0:
256,192,99187,1,0,0:0:0:0:
256,192,99374,1,0,0:0:0:0:
402,192,99374,128,0,99655:0:0:0:0:
182,192,99468,1,0,0:0:0:0:
256,192,99562,128,0,99843:0:0:0:0:
109,192,99562,128,0,99655:0:0:0:0:
475,192,99562,128,0,99655:0:0:0:0:
329,192,99562,1,0,0:0:0:0:
36,192,99562,1,0,0:0:0:0:
402,192,99749,128,0,100030:0:0:0:0:
109,192,99749,1,0,0:0:0:0:
36,192,99749,1,0,0:0:0:0:
182,192,99843,1,0,0:0:0:0:
256,192,99937,1,0,0:0:0:0:
475,192,99937,128,0,100030:0:0:0:0:
109,192,99937,128,0,100218:0:0:0:0:
36,192,99937,128,0,100030:0:0:0:0:
329,192,99937,1,0,0:0:0:0:
329,192,100124,1,0,0:0:0:0:
475,192,100124,1,0,0:0:0:0:
256,192,100124,128,0,100405:0:0:0:0:
36,192,100124,1,0,0:0:0:0:
402,192,100218,1,0,0:0:0:0:
475,192,100312,128,0,100593:0:0:0:0:
36,192,100312,128,0,100593:0:0:0:0:
329,192,100312,1,0,0:0:0:0:
182,192,100312,1,0,0:0:0:0:
402,192,100405,1,0,0:0:0:0:
109,192,100405,1,0,0:0:0:0:
256,192,100499,128,0,100827:0:0:0:0:
329,192,100499,1,0,0:0:0:0:
182,192,100499,1,0,0:0:0:0:
402,192,100593,1,0,0:0:0:0:
109,192,100593,1,0,0:0:0:0:
182,192,100687,128,0,100733:0:0:0:0:
329,192,100687,128,0,100733:0:0:0:0:
475,192,100687,128,0,101038:0:0:0:0:
36,192,100687,128,0,101038:0:0:0:0:
109,192,100780,128,0,100827:0:0:0:0:
402,192,100780,128,0,100827:0:0:0:0:
182,192,100874,128,0,100944:0:0:0:0:
329,192,100874,128,0,100944:0:0:0:0:
256,192,100874,128,0,101038:0:0:0:0:
109,192,100968,128,0,101038:0:0:0:0:
402,192,100968,128,0,101038:0:0:0:0:
182,192,101062,128,0,101343:0:0:0:0:
329,192,101062,128,0,101343:0:0:0:0:
109,192,101249,1,0,0:0:0:0:
475,192,101249,128,0,101530:0:0:0:0:
402,192,101249,128,0,101530:0:0:0:0:
256,192,101249,128,0,101530:0:0:0:0:
36,192,101249,1,0,0:0:0:0:
182,192,101437,128,0,101718:0:0:0:0:
36,192,101437,128,0,101718:0:0:0:0:
109,192,101437,128,0,101718:0:0:0:0:
329,192,101624,128,0,101905:0:0:0:0:
475,192,101624,128,0,101905:0:0:0:0:
402,192,101624,128,0,101905:0:0:0:0:
256,192,101624,1,0,0:0:0:0:
36,192,101812,128,0,102140:0:0:0:0:
182,192,101812,128,0,102140:0:0:0:0:
109,192,101812,1,0,0:0:0:0:
256,192,101812,1,0,0:0:0:0:
109,192,101999,128,0,102140:0:0:0:0:
256,192,101999,128,0,102140:0:0:0:0:
402,192,101999,128,0,102140:0:0:0:0:
329,192,101999,1,0,0:0:0:0:
475,192,101999,1,0,0:0:0:0:
475,192,102187,1,0,0:0:0:0:
109,192,102187,1,0,0:0:0:0:
36,192,102187,1,0,0:0:0:0:
402,192,102187,1,0,0:0:0:0:
329,192,102187,1,0,0:0:0:0:
256,192,102187,128,0,102468:0:0:0:0:
402,192,102280,1,0,0:0:0:0:
475,192,102280,1,0,0:0:0:0:
329,192,102280,1,0,0:0:0:0:
109,192,102374,1,0,0:0:0:0:
36,192,102374,1,0,0:0:0:0:
182,192,102374,1,0,0:0:0:0:
109,192,102468,1,0,0:0:0:0:
36,192,102468,1,0,0:0:0:0:
182,192,102468,1,0,0:0:0:0:
182,192,102562,128,0,102749:0:0:0:0:
329,192,102562,128,0,102749:0:0:0:0:
475,192,102562,128,0,102749:0:0:0:0:
256,192,102562,1,0,0:0:0:0:
402,192,102562,1,0,0:0:0:0:
109,192,102749,128,0,102890:0:0:0:0:
256,192,102749,128,0,102890:0:0:0:0:
36,192,102749,128,0,102890:0:0:0:0:
402,192,102749,128,0,102890:0:0:0:0:
402,192,102937,128,0,103312:0:0:0:0:
256,192,102937,128,0,103312:0:0:0:0:
36,192,102937,128,0,103077:0:0:0:0:
109,192,102937,128,0,103077:0:0:0:0:
182,192,103124,128,0,103312:0:0:0:0:
36,192,103124,128,0,103312:0:0:0:0:
109,192,103124,128,0,103312:0:0:0:0:
329,192,103124,128,0,103312:0:0:0:0:
475,192,103124,128,0,103312:0:0:0:0:
109,192,103499,128,0,103874:0:0:0:0:
256,192,103499,128,0,103874:0:0:0:0:
36,192,103499,128,0,103874:0:0:0:0:
402,192,103499,128,0,103874:0:0:0:0:
475,192,103499,128,0,103874:0:0:0:0:
329,192,104062,1,0,0:0:0:0:
256,192,104062,128,0,104124:0:0:0:0:
36,192,104062,128,0,104187:0:0:0:0:
109,192,104062,128,0,104374:0:0:0:0:
475,192,104062,128,0,104374:0:0:0:0:
182,192,104062,1,0,0:0:0:0:
402,192,104124,128,0,104312:0:0:0:0:
329,192,104187,128,0,104249:0:0:0:0:
182,192,104249,128,0,104562:0:0:0:0:
36,192,104249,128,0,104562:0:0:0:0:
256,192,104312,128,0,104437:0:0:0:0:
402,192,104374,128,0,104437:0:0:0:0:
329,192,104437,128,0,104562:0:0:0:0:
475,192,104437,128,0,104749:0:0:0:0:
109,192,104437,128,0,104749:0:0:0:0:
256,192,104624,128,0,104749:0:0:0:0:
402,192,104624,128,0,104749:0:0:0:0:
36,192,104624,128,0,104749:0:0:0:0:
182,192,104624,128,0,104749:0:0:0:0:
402,192,104812,128,0,105187:0:0:0:0:
329,192,104812,128,0,105030:0:0:0:0:
475,192,104812,128,0,105499:0:0:0:0:
36,192,104812,128,0,105030:0:0:0:0:
182,192,104812,1,0,0:0:0:0:
256,192,104812,128,0,105187:0:0:0:0:
109,192,104874,128,0,105030:0:0:0:0:
182,192,104937,128,0,105030:0:0:0:0:
36,192,105093,128,0,105187:0:0:0:0:
109,192,105093,128,0,105187:0:0:0:0:
329,192,105093,128,0,105499:0:0:0:0:
182,192,105093,128,0,105187:0:0:0:0:
36,192,105280,128,0,105327:0:0:0:0:
109,192,105280,128,0,105327:0:0:0:0:
182,192,105280,128,0,105327:0:0:0:0:
402,192,105280,1,0,0:0:0:0:
109,192,105374,128,0,105499:0:0:0:0:
36,192,105374,128,0,105499:0:0:0:0:
182,192,105374,128,0,105499:0:0:0:0:
402,192,105374,128,0,105499:0:0:0:0:
109,192,105562,128,0,106124:0:0:0:0:
182,192,105562,128,0,105687:0:0:0:0:
475,192,105562,128,0,105780:0:0:0:0:
256,192,105562,128,0,105624:0:0:0:0:
36,192,105562,128,0,105780:0:0:0:0:
402,192,105624,128,0,105780:0:0:0:0:
329,192,105687,128,0,105780:0:0:0:0:
36,192,105843,128,0,106062:0:0:0:0:
329,192,105843,128,0,105968:0:0:0:0:
256,192,105843,128,0,105968:0:0:0:0:
475,192,105843,128,0,105968:0:0:0:0:
402,192,105843,128,0,106249:0:0:0:0:
182,192,105843,128,0,106187:0:0:0:0:
36,192,106124,128,0,106249:0:0:0:0:
256,192,106124,128,0,106249:0:0:0:0:
475,192,106124,128,0,106249:0:0:0:0:
329,192,106124,128,0,106249:0:0:0:0:
109,192,106187,128,0,106312:0:0:0:0:
182,192,106249,128,0,106374:0:0:0:0:
256,192,106312,128,0,106437:0:0:0:0:
402,192,106312,128,0,106812:0:0:0:0:
475,192,106312,128,0,106437:0:0:0:0:
329,192,106312,1,0,0:0:0:0:
36,192,106312,128,0,106437:0:0:0:0:
109,192,106374,128,0,106562:0:0:0:0:
182,192,106437,128,0,106499:0:0:0:0:
329,192,106499,128,0,106624:0:0:0:0:
36,192,106499,128,0,106624:0:0:0:0:
475,192,106499,128,0,106812:0:0:0:0:
256,192,106562,128,0,106749:0:0:0:0:
182,192,106624,128,0,106687:0:0:0:0:
329,192,106687,128,0,107062:0:0:0:0:
109,192,106687,128,0,106812:0:0:0:0:
36,192,106687,128,0,106749:0:0:0:0:
182,192,106749,128,0,106874:0:0:0:0:
256,192,106812,128,0,106937:0:0:0:0:
36,192,106874,128,0,106968:0:0:0:0:
402,192,106874,128,0,106968:0:0:0:0:
475,192,106874,128,0,106968:0:0:0:0:
182,192,106937,128,0,107062:0:0:0:0:
109,192,106999,1,0,0:0:0:0:
475,192,107062,128,0,107187:0:0:0:0:
36,192,107062,128,0,107374:0:0:0:0:
402,192,107062,128,0,107374:0:0:0:0:
256,192,107062,128,0,107187:0:0:0:0:
109,192,107124,128,0,107312:0:0:0:0:
182,192,107187,128,0,107249:0:0:0:0:
329,192,107249,128,0,107562:0:0:0:0:
475,192,107249,128,0,107562:0:0:0:0:
256,192,107312,128,0,107437:0:0:0:0:
109,192,107374,128,0,107437:0:0:0:0:
182,192,107437,128,0,107749:0:0:0:0:
36,192,107437,128,0,107749:0:0:0:0:
402,192,107437,128,0,107749:0:0:0:0:
256,192,107624,128,0,107749:0:0:0:0:
109,192,107624,128,0,107749:0:0:0:0:
329,192,107624,1,0,0:0:0:0:
475,192,107624,128,0,107749:0:0:0:0:
256,192,107812,128,0,108187:0:0:0:0:
182,192,107812,128,0,107874:0:0:0:0:
109,192,107812,128,0,108187:0:0:0:0:
329,192,107812,128,0,108030:0:0:0:0:
36,192,107812,128,0,108499:0:0:0:0:
402,192,107874,128,0,108030:0:0:0:0:
475,192,107937,128,0,108030:0:0:0:0:
475,192,108093,128,0,108187:0:0:0:0:
402,192,108093,128,0,108187:0:0:0:0:
182,192,108093,128,0,108499:0:0:0:0:
329,192,108093,128,0,108187:0:0:0:0:
402,192,108280,128,0,108327:0:0:0:0:
475,192,108280,128,0,108327:0:0:0:0:
109,192,108280,1,0,0:0:0:0:
329,192,108280,128,0,108327:0:0:0:0:
402,192,108374,128,0,108499:0:0:0:0:
475,192,108374,128,0,108499:0:0:0:0:
329,192,108374,128,0,108499:0:0:0:0:
109,192,108374,128,0,108499:0:0:0:0:
36,192,108562,128,0,108812:0:0:0:0:
402,192,108562,128,0,108608:0:0:0:0:
256,192,108562,128,0,108749:0:0:0:0:
109,192,108562,128,0,108608:0:0:0:0:
475,192,108562,128,0,108812:0:0:0:0:
182,192,108655,128,0,108702:0:0:0:0:
329,192,108655,128,0,108702:0:0:0:0:
109,192,108749,128,0,109187:0:0:0:0:
402,192,108749,128,0,108999:0:0:0:0:
256,192,108843,128,0,108890:0:0:0:0:
36,192,108937,128,0,109249:0:0:0:0:
475,192,108937,128,0,109249:0:0:0:0:
182,192,108937,128,0,109124:0:0:0:0:
329,192,108937,128,0,108999:0:0:0:0:
329,192,109124,128,0,109249:0:0:0:0:
402,192,109124,1,0,0:0:0:0:
256,192,109187,128,0,109312:0:0:0:0:
182,192,109249,128,0,109374:0:0:0:0:
475,192,109312,1,0,0:0:0:0:
329,192,109312,128,0,109374:0:0:0:0:
109,192,109312,128,0,109452:0:0:0:0:
402,192,109312,128,0,109452:0:0:0:0:
36,192,109312,1,0,0:0:0:0:
182,192,109499,1,0,0:0:0:0:
256,192,109499,1,0,0:0:0:0:
36,192,109499,1,0,0:0:0:0:
256,192,109593,1,0,0:0:0:0:
329,192,109593,1,0,0:0:0:0:
109,192,109593,1,0,0:0:0:0:
36,192,109687,1,0,0:0:0:0:
109,192,109687,128,0,109812:0:0:0:0:
475,192,109687,128,0,109999:0:0:0:0:
329,192,109687,128,0,109780:0:0:0:0:
402,192,109687,128,0,109937:0:0:0:0:
182,192,109749,128,0,109874:0:0:0:0:
256,192,109812,128,0,109937:0:0:0:0:
36,192,109874,128,0,109999:0:0:0:0:
329,192,109874,128,0,109999:0:0:0:0:
109,192,109937,128,0,110062:0:0:0:0:
182,192,109999,128,0,110124:0:0:0:0:
475,192,110062,128,0,110374:0:0:0:0:
256,192,110062,128,0,110187:0:0:0:0:
402,192,110062,128,0,110187:0:0:0:0:
329,192,110062,128,0,110312:0:0:0:0:
36,192,110124,128,0,110312:0:0:0:0:
109,192,110187,128,0,110249:0:0:0:0:
256,192,110249,128,0,110374:0:0:0:0:
402,192,110249,128,0,110562:0:0:0:0:
182,192,110312,128,0,110562:0:0:0:0:
109,192,110374,128,0,110437:0:0:0:0:
36,192,110437,128,0,110562:0:0:0:0:
329,192,110437,128,0,110749:0:0:0:0:
256,192,110437,128,0,110562:0:0:0:0:
475,192,110437,128,0,110749:0:0:0:0:
36,192,110624,128,0,110749:0:0:0:0:
109,192,110624,128,0,110749:0:0:0:0:
256,192,110624,128,0,110749:0:0:0:0:
402,192,110624,128,0,110749:0:0:0:0:
256,192,110812,128,0,110999:0:0:0:0:
109,192,110812,128,0,110999:0:0:0:0:
36,192,110812,128,0,111187:0:0:0:0:
475,192,110812,128,0,111187:0:0:0:0:
182,192,110812,128,0,111187:0:0:0:0:
329,192,110874,128,0,110999:0:0:0:0:
402,192,110937,128,0,110999:0:0:0:0:
329,192,111093,128,0,111187:0:0:0:0:
402,192,111093,128,0,111187:0:0:0:0:
109,192,111093,128,0,111499:0:0:0:0:
256,192,111093,128,0,111499:0:0:0:0:
329,192,111280,128,0,111327:0:0:0:0:
402,192,111280,128,0,111327:0:0:0:0:
475,192,111280,128,0,111327:0:0:0:0:
182,192,111280,1,0,0:0:0:0:
36,192,111280,128,0,111499:0:0:0:0:
475,192,111374,128,0,111499:0:0:0:0:
329,192,111374,128,0,111499:0:0:0:0:
402,192,111374,128,0,111499:0:0:0:0:
182,192,111374,128,0,111499:0:0:0:0:
256,192,111562,128,0,111749:0:0:0:0:
402,192,111562,128,0,111749:0:0:0:0:
36,192,111562,128,0,111937:0:0:0:0:
475,192,111562,128,0,111937:0:0:0:0:
329,192,111562,128,0,111937:0:0:0:0:
182,192,111624,128,0,111749:0:0:0:0:
109,192,111687,128,0,111749:0:0:0:0:
256,192,111843,128,0,112249:0:0:0:0:
109,192,111843,128,0,111999:0:0:0:0:
402,192,111843,128,0,112249:0:0:0:0:
182,192,111843,128,0,112062:0:0:0:0:
36,192,112124,128,0,112249:0:0:0:0:
329,192,112124,128,0,112249:0:0:0:0:
475,192,112124,128,0,112249:0:0:0:0:
182,192,112124,1,0,0:0:0:0:
109,192,112187,128,0,112312:0:0:0:0:
182,192,112249,128,0,112374:0:0:0:0:
256,192,112312,128,0,112437:0:0:0:0:
36,192,112312,128,0,112437:0:0:0:0:
475,192,112312,128,0,112437:0:0:0:0:
402,192,112312,1,0,0:0:0:0:
329,192,112374,128,0,112499:0:0:0:0:
402,192,112437,128,0,112562:0:0:0:0:
109,192,112437,128,0,112499:0:0:0:0:
36,192,112499,128,0,112624:0:0:0:0:
475,192,112499,128,0,112624:0:0:0:0:
182,192,112499,128,0,112562:0:0:0:0:
256,192,112562,128,0,112624:0:0:0:0:
329,192,112624,128,0,112687:0:0:0:0:
182,192,112687,128,0,112812:0:0:0:0:
109,192,112687,128,0,112749:0:0:0:0:
36,192,112687,1,0,0:0:0:0:
402,192,112687,128,0,112749:0:0:0:0:
475,192,112687,128,0,112999:0:0:0:0:
256,192,112749,128,0,112874:0:0:0:0:
329,192,112812,128,0,112937:0:0:0:0:
36,192,112812,128,0,112999:0:0:0:0:
109,192,112874,128,0,112937:0:0:0:0:
402,192,112874,128,0,113062:0:0:0:0:
182,192,112937,128,0,112999:0:0:0:0:
256,192,112999,128,0,113062:0:0:0:0:
475,192,113062,128,0,113124:0:0:0:0:
109,192,113062,128,0,113187:0:0:0:0:
182,192,113062,128,0,113374:0:0:0:0:
36,192,113062,128,0,113374:0:0:0:0:
329,192,113062,128,0,113249:0:0:0:0:
402,192,113124,128,0,113187:0:0:0:0:
256,192,113187,128,0,113312:0:0:0:0:
475,192,113249,128,0,113374:0:0:0:0:
109,192,113249,128,0,113749:0:0:0:0:
402,192,113312,128,0,113499:0:0:0:0:
329,192,113374,128,0,113437:0:0:0:0:
475,192,113437,128,0,113749:0:0:0:0:
36,192,113437,128,0,113749:0:0:0:0:
256,192,113437,128,0,113749:0:0:0:0:
182,192,113437,128,0,113562:0:0:0:0:
182,192,113624,128,0,113749:0:0:0:0:
329,192,113624,128,0,113749:0:0:0:0:
402,192,113624,128,0,113749:0:0:0:0:
36,192,113812,1,0,0:0:0:0:
182,192,113812,1,0,0:0:0:0:
109,192,113812,1,0,0:0:0:0:
475,192,113812,1,0,0:0:0:0:
402,192,113812,1,0,0:0:0:0:
329,192,113812,1,0,0:0:0:0:
109,192,113999,1,0,0:0:0:0:
182,192,113999,1,0,0:0:0:0:
329,192,113999,1,0,0:0:0:0:
402,192,113999,1,0,0:0:0:0:
256,192,114093,128,0,114499:0:0:0:0:
36,192,114093,128,0,114312:0:0:0:0:
475,192,114093,128,0,114187:0:0:0:0:
329,192,114093,128,0,114312:0:0:0:0:
109,192,114187,128,0,114312:0:0:0:0:
182,192,114249,128,0,114499:0:0:0:0:
475,192,114249,128,0,114499:0:0:0:0:
402,192,114312,128,0,114499:0:0:0:0:
109,192,114374,128,0,114499:0:0:0:0:
329,192,114374,128,0,114499:0:0:0:0:
36,192,114374,128,0,114499:0:0:0:0:
36,192,114562,128,0,114983:0:0:0:0:
182,192,114562,128,0,114608:0:0:0:0:
109,192,114562,128,0,114702:0:0:0:0:
329,192,114562,128,0,114702:0:0:0:0:
402,192,114562,1,0,0:0:0:0:
475,192,114562,128,0,114983:0:0:0:0:
256,192,114655,128,0,114702:0:0:0:0:
182,192,114749,128,0,114983:0:0:0:0:
402,192,114749,128,0,114796:0:0:0:0:
109,192,114749,128,0,114796:0:0:0:0:
329,192,114749,128,0,114983:0:0:0:0:
256,192,114843,128,0,114890:0:0:0:0:
109,192,114937,128,0,115124:0:0:0:0:
402,192,114937,128,0,115124:0:0:0:0:
256,192,115030,128,0,115077:0:0:0:0:
475,192,115124,128,0,115452:0:0:0:0:
36,192,115124,128,0,115452:0:0:0:0:
329,192,115124,128,0,115452:0:0:0:0:
182,192,115124,128,0,115452:0:0:0:0:
256,192,115499,128,0,115687:0:0:0:0:
36,192,115499,1,0,0:0:0:0:
109,192,115499,128,0,115749:0:0:0:0:
475,192,115499,1,0,0:0:0:0:
329,192,115499,1,0,0:0:0:0:
402,192,115499,128,0,115624:0:0:0:0:
402,192,115687,128,0,115874:0:0:0:0:
256,192,115749,128,0,115999:0:0:0:0:
182,192,115812,128,0,115937:0:0:0:0:
109,192,115874,1,0,0:0:0:0:
329,192,115937,128,0,116124:0:0:0:0:
402,192,115999,128,0,116062:0:0:0:0:
475,192,116062,128,0,116374:0:0:0:0:
36,192,116062,128,0,116530:0:0:0:0:
256,192,116062,1,0,0:0:0:0:
109,192,116062,1,0,0:0:0:0:
182,192,116062,128,0,116437:0:0:0:0:
402,192,116124,128,0,116312:0:0:0:0:
256,192,116187,128,0,116249:0:0:0:0:
329,192,116249,128,0,116374:0:0:0:0:
109,192,116312,128,0,116374:0:0:0:0:
256,192,116374,128,0,116530:0:0:0:0:
329,192,116437,128,0,116671:0:0:0:0:
475,192,116437,128,0,116671:0:0:0:0:
402,192,116437,128,0,116483:0:0:0:0:
109,192,116437,128,0,116530:0:0:0:0:
182,192,116530,128,0,116671:0:0:0:0:
36,192,116624,128,0,116937:0:0:0:0:
256,192,116624,128,0,116812:0:0:0:0:
402,192,116624,128,0,116812:0:0:0:0:
109,192,116624,128,0,116812:0:0:0:0:
475,192,116812,128,0,117124:0:0:0:0:
329,192,116812,128,0,116874:0:0:0:0:
182,192,116812,128,0,117062:0:0:0:0:
256,192,116874,128,0,116937:0:0:0:0:
402,192,116937,128,0,117062:0:0:0:0:
109,192,116937,128,0,117187:0:0:0:0:
329,192,116999,128,0,117187:0:0:0:0:
36,192,116999,128,0,117062:0:0:0:0:
256,192,117062,128,0,117124:0:0:0:0:
402,192,117124,128,0,117249:0:0:0:0:
182,192,117187,128,0,117249:0:0:0:0:
36,192,117187,128,0,117437:0:0:0:0:
475,192,117187,128,0,117312:0:0:0:0:
256,192,117249,128,0,117312:0:0:0:0:
329,192,117312,128,0,117374:0:0:0:0:
109,192,117312,128,0,117562:0:0:0:0:
182,192,117374,128,0,117437:0:0:0:0:
402,192,117374,128,0,117437:0:0:0:0:
256,192,117437,128,0,117562:0:0:0:0:
475,192,117437,128,0,117499:0:0:0:0:
329,192,117499,128,0,117687:0:0:0:0:
182,192,117562,128,0,117749:0:0:0:0:
475,192,117562,128,0,117874:0:0:0:0:
402,192,117562,1,0,0:0:0:0:
36,192,117562,128,0,117874:0:0:0:0:
109,192,117624,128,0,117687:0:0:0:0:
256,192,117687,128,0,117999:0:0:0:0:
402,192,117749,128,0,117937:0:0:0:0:
329,192,117749,1,0,0:0:0:0:
109,192,117812,128,0,118062:0:0:0:0:
329,192,117874,128,0,117968:0:0:0:0:
475,192,117937,128,0,118249:0:0:0:0:
36,192,117937,128,0,118249:0:0:0:0:
182,192,117937,128,0,118030:0:0:0:0:
402,192,117999,128,0,118187:0:0:0:0:
329,192,118062,128,0,118124:0:0:0:0:
182,192,118124,128,0,118249:0:0:0:0:
109,192,118124,128,0,118187:0:0:0:0:
256,192,118187,128,0,118312:0:0:0:0:
329,192,118249,128,0,118374:0:0:0:0:
402,192,118312,128,0,118374:0:0:0:0:
475,192,118312,128,0,118624:0:0:0:0:
182,192,118312,128,0,118437:0:0:0:0:
109,192,118312,128,0,118562:0:0:0:0:
36,192,118312,128,0,118374:0:0:0:0:
256,192,118374,128,0,118437:0:0:0:0:
329,192,118437,128,0,118499:0:0:0:0:
182,192,118499,128,0,118562:0:0:0:0:
36,192,118499,128,0,118749:0:0:0:0:
402,192,118499,128,0,118749:0:0:0:0:
256,192,118562,128,0,118624:0:0:0:0:
329,192,118624,128,0,118874:0:0:0:0:
109,192,118624,128,0,118687:0:0:0:0:
475,192,118687,128,0,118968:0:0:0:0:
182,192,118687,128,0,118749:0:0:0:0:
256,192,118749,128,0,118968:0:0:0:0:
36,192,118812,128,0,118968:0:0:0:0:
402,192,118874,128,0,118968:0:0:0:0:
109,192,118874,128,0,118968:0:0:0:0:
182,192,118937,128,0,119062:0:0:0:0:
329,192,118968,128,0,119062:0:0:0:0:
109,192,119062,128,0,119124:0:0:0:0:
256,192,119062,128,0,119187:0:0:0:0:
402,192,119062,128,0,119124:0:0:0:0:
475,192,119062,128,0,119187:0:0:0:0:
36,192,119062,128,0,119374:0:0:0:0:
182,192,119124,128,0,119499:0:0:0:0:
329,192,119187,128,0,119312:0:0:0:0:
475,192,119249,128,0,119374:0:0:0:0:
402,192,119249,1,0,0:0:0:0:
256,192,119249,128,0,119374:0:0:0:0:
109,192,119312,128,0,119374:0:0:0:0:
329,192,119374,128,0,119437:0:0:0:0:
109,192,119437,128,0,119687:0:0:0:0:
256,192,119437,128,0,119687:0:0:0:0:
36,192,119437,128,0,119499:0:0:0:0:
475,192,119437,128,0,119749:0:0:0:0:
402,192,119437,128,0,119499:0:0:0:0:
182,192,119624,128,0,119812:0:0:0:0:
329,192,119624,128,0,119874:0:0:0:0:
402,192,119624,128,0,119687:0:0:0:0:
36,192,119624,128,0,119687:0:0:0:0:
36,192,119812,128,0,119874:0:0:0:0:
475,192,119812,128,0,119874:0:0:0:0:
109,192,119812,128,0,119999:0:0:0:0:
256,192,119812,128,0,119937:0:0:0:0:
402,192,119874,128,0,120124:0:0:0:0:
329,192,119937,128,0,120187:0:0:0:0:
256,192,119999,128,0,120124:0:0:0:0:
36,192,119999,128,0,120124:0:0:0:0:
475,192,119999,128,0,120312:0:0:0:0:
109,192,120062,128,0,120249:0:0:0:0:
182,192,120124,128,0,120187:0:0:0:0:
402,192,120187,128,0,120437:0:0:0:0:
256,192,120187,128,0,120249:0:0:0:0:
36,192,120187,128,0,120499:0:0:0:0:
329,192,120249,128,0,120312:0:0:0:0:
109,192,120312,128,0,120624:0:0:0:0:
182,192,120312,128,0,120374:0:0:0:0:
256,192,120374,128,0,120437:0:0:0:0:
475,192,120374,128,0,120624:0:0:0:0:
329,192,120437,128,0,120624:0:0:0:0:
182,192,120499,128,0,120624:0:0:0:0:
402,192,120562,128,0,120843:0:0:0:0:
36,192,120562,128,0,120843:0:0:0:0:
256,192,120562,128,0,120843:0:0:0:0:
329,192,120749,128,0,121187:0:0:0:0:
475,192,120749,128,0,121062:0:0:0:0:
109,192,120749,128,0,121062:0:0:0:0:
182,192,120749,128,0,120843:0:0:0:0:
36,192,120937,128,0,121249:0:0:0:0:
256,192,120937,128,0,121062:0:0:0:0:
402,192,120937,128,0,121062:0:0:0:0:
182,192,120937,128,0,121062:0:0:0:0:
182,192,121124,128,0,121312:0:0:0:0:
475,192,121124,128,0,121249:0:0:0:0:
109,192,121124,128,0,121249:0:0:0:0:
402,192,121124,128,0,121249:0:0:0:0:
256,192,121187,128,0,121374:0:0:0:0:
329,192,121249,128,0,121312:0:0:0:0:
109,192,121312,128,0,121374:0:0:0:0:
36,192,121312,128,0,121374:0:0:0:0:
475,192,121312,128,0,121374:0:0:0:0:
402,192,121312,128,0,121374:0:0:0:0:
109,192,121499,128,0,121546:0:0:0:0:
329,192,121499,128,0,121546:0:0:0:0:
182,192,121499,128,0,121546:0:0:0:0:
256,192,121593,128,0,121640:0:0:0:0:
182,192,121593,128,0,121640:0:0:0:0:
402,192,121593,128,0,121640:0:0:0:0:
109,192,121687,128,0,121812:0:0:0:0:
329,192,121687,128,0,121812:0:0:0:0:
36,192,121687,1,0,0:0:0:0:
475,192,121687,1,0,0:0:0:0:
182,192,121749,128,0,121874:0:0:0:0:
256,192,121812,128,0,121999:0:0:0:0:
402,192,121812,128,0,121999:0:0:0:0:
329,192,121874,128,0,121937:0:0:0:0:
182,192,121937,128,0,122124:0:0:0:0:
36,192,121937,1,0,0:0:0:0:
475,192,121937,1,0,0:0:0:0:
329,192,121999,128,0,122124:0:0:0:0:
256,192,122062,128,0,122374:0:0:0:0:
36,192,122062,128,0,122374:0:0:0:0:
475,192,122062,128,0,122374:0:0:0:0:
402,192,122062,1,0,0:0:0:0:
109,192,122124,128,0,122187:0:0:0:0:
182,192,122187,128,0,122437:0:0:0:0:
329,192,122249,128,0,122312:0:0:0:0:
402,192,122312,128,0,122374:0:0:0:0:
329,192,122374,128,0,122499:0:0:0:0:
475,192,122437,128,0,122562:0:0:0:0:
256,192,122437,128,0,122562:0:0:0:0:
109,192,122437,1,0,0:0:0:0:
36,192,122437,128,0,122562:0:0:0:0:
182,192,122499,128,0,122687:0:0:0:0:
402,192,122499,128,0,122624:0:0:0:0:
109,192,122562,128,0,122624:0:0:0:0:
256,192,122624,128,0,122749:0:0:0:0:
475,192,122624,128,0,122749:0:0:0:0:
329,192,122687,128,0,122874:0:0:0:0:
36,192,122687,128,0,122812:0:0:0:0:
109,192,122749,128,0,122812:0:0:0:0:
182,192,122812,128,0,122874:0:0:0:0:
475,192,122812,128,0,122999:0:0:0:0:
256,192,122812,128,0,123187:0:0:0:0:
402,192,122812,128,0,123093:0:0:0:0:
109,192,122874,128,0,122937:0:0:0:0:
36,192,122937,128,0,122999:0:0:0:0:
182,192,122999,128,0,123468:0:0:0:0:
109,192,123093,128,0,123280:0:0:0:0:
475,192,123093,128,0,123280:0:0:0:0:
329,192,123093,128,0,123280:0:0:0:0:
36,192,123187,128,0,123280:0:0:0:0:
402,192,123187,128,0,123374:0:0:0:0:
256,192,123280,128,0,123374:0:0:0:0:
109,192,123374,128,0,123468:0:0:0:0:
36,192,123374,128,0,123624:0:0:0:0:
329,192,123374,128,0,123468:0:0:0:0:
475,192,123374,128,0,123437:0:0:0:0:
402,192,123468,128,0,123562:0:0:0:0:
256,192,123468,128,0,123562:0:0:0:0:
109,192,123562,128,0,123812:0:0:0:0:
475,192,123562,128,0,123874:0:0:0:0:
329,192,123562,128,0,123749:0:0:0:0:
182,192,123562,128,0,123624:0:0:0:0:
402,192,123624,128,0,123687:0:0:0:0:
256,192,123687,128,0,123874:0:0:0:0:
182,192,123749,128,0,123937:0:0:0:0:
36,192,123749,128,0,123812:0:0:0:0:
329,192,123812,128,0,123937:0:0:0:0:
402,192,123812,128,0,123874:0:0:0:0:
109,192,123874,128,0,123999:0:0:0:0:
36,192,123937,128,0,124062:0:0:0:0:
256,192,123937,128,0,123999:0:0:0:0:
475,192,123937,128,0,124062:0:0:0:0:
182,192,123999,128,0,124062:0:0:0:0:
402,192,123999,128,0,124062:0:0:0:0:
329,192,124062,128,0,124124:0:0:0:0:
475,192,124124,128,0,124249:0:0:0:0:
402,192,124124,128,0,124249:0:0:0:0:
109,192,124124,128,0,124249:0:0:0:0:
256,192,124124,128,0,124249:0:0:0:0:
36,192,124124,128,0,124249:0:0:0:0:
36,192,124312,128,0,124546:0:0:0:0:
475,192,124312,128,0,124546:0:0:0:0:
329,192,124312,128,0,124546:0:0:0:0:
109,192,124312,128,0,124546:0:0:0:0:
182,192,124312,128,0,124546:0:0:0:0:
256,192,124499,128,0,124827:0:0:0:0:
36,192,124593,128,0,125015:0:0:0:0:
475,192,124593,128,0,125015:0:0:0:0:
109,192,124593,128,0,124827:0:0:0:0:
402,192,124593,128,0,124827:0:0:0:0:
182,192,124593,128,0,125015:0:0:0:0:
329,192,124593,128,0,125015:0:0:0:0:
109,192,124874,128,0,125015:0:0:0:0:
256,192,124874,128,0,125015:0:0:0:0:
402,192,124874,128,0,125015:0:0:0:0:
182,192,125062,128,0,125374:0:0:0:0:
256,192,125062,128,0,125124:0:0:0:0:
36,192,125062,128,0,125562:0:0:0:0:
109,192,125062,1,0,0:0:0:0:
475,192,125062,128,0,125562:0:0:0:0:
402,192,125124,128,0,125312:0:0:0:0:
329,192,125187,128,0,125249:0:0:0:0:
109,192,125249,128,0,125312:0:0:0:0:
256,192,125312,128,0,125437:0:0:0:0:
329,192,125374,128,0,125562:0:0:0:0:
182,192,125437,128,0,125562:0:0:0:0:
402,192,125437,128,0,125562:0:0:0:0:
109,192,125437,128,0,125562:0:0:0:0:
36,192,125624,128,0,126093:0:0:0:0:
475,192,125624,128,0,126093:0:0:0:0:
256,192,125624,128,0,125749:0:0:0:0:
402,192,125624,1,0,0:0:0:0:
329,192,125624,128,0,125937:0:0:0:0:
182,192,125687,128,0,125812:0:0:0:0:
109,192,125749,128,0,125874:0:0:0:0:
402,192,125812,128,0,125874:0:0:0:0:
256,192,125874,128,0,125999:0:0:0:0:
182,192,125937,128,0,126093:0:0:0:0:
402,192,125999,128,0,126093:0:0:0:0:
109,192,125999,128,0,126093:0:0:0:0:
329,192,125999,128,0,126093:0:0:0:0:
182,192,126187,128,0,126687:0:0:0:0:
329,192,126187,128,0,126687:0:0:0:0:
36,192,126187,128,0,126249:0:0:0:0:
475,192,126187,128,0,126249:0:0:0:0:
109,192,126187,1,0,0:0:0:0:
402,192,126249,128,0,126312:0:0:0:0:
256,192,126312,128,0,126374:0:0:0:0:
36,192,126374,128,0,126437:0:0:0:0:
475,192,126437,128,0,126687:0:0:0:0:
109,192,126437,128,0,126499:0:0:0:0:
402,192,126499,128,0,126687:0:0:0:0:
256,192,126562,128,0,126687:0:0:0:0:
36,192,126562,128,0,126687:0:0:0:0:
329,192,126749,128,0,126812:0:0:0:0:
182,192,126749,128,0,126937:0:0:0:0:
475,192,126749,1,0,0:0:0:0:
36,192,126749,1,0,0:0:0:0:
402,192,126749,1,0,0:0:0:0:
256,192,126749,128,0,126874:0:0:0:0:
109,192,126749,1,0,0:0:0:0:
329,192,126874,128,0,127062:0:0:0:0:
256,192,126937,128,0,127062:0:0:0:0:
182,192,126999,128,0,127062:0:0:0:0:
36,192,127312,128,0,128015:0:0:0:0:
329,192,127312,128,0,127358:0:0:0:0:
182,192,127312,128,0,128015:0:0:0:0:
109,192,127312,1,0,0:0:0:0:
475,192,127312,128,0,127780:0:0:0:0:
256,192,127312,1,0,0:0:0:0:
402,192,127405,128,0,127452:0:0:0:0:
329,192,127499,128,0,127546:0:0:0:0:
402,192,127593,128,0,127640:0:0:0:0:
329,192,127687,128,0,128015:0:0:0:0:
402,192,127780,128,0,128015:0:0:0:0:
475,192,127874,128,0,128015:0:0:0:0:
36,192,128062,128,0,128108:0:0:0:0:
182,192,128062,128,0,128202:0:0:0:0:
256,192,128062,128,0,128483:0:0:0:0:
475,192,128062,128,0,128108:0:0:0:0:
109,192,128062,1,0,0:0:0:0:
402,192,128062,128,0,128155:0:0:0:0:
329,192,128249,128,0,128296:0:0:0:0:
109,192,128249,128,0,128483:0:0:0:0:
475,192,128249,128,0,128296:0:0:0:0:
36,192,128249,128,0,128296:0:0:0:0:
402,192,128249,128,0,128343:0:0:0:0:
475,192,128437,128,0,128483:0:0:0:0:
329,192,128437,128,0,128530:0:0:0:0:
36,192,128437,128,0,128483:0:0:0:0:
402,192,128437,128,0,128952:0:0:0:0:
182,192,128437,128,0,128765:0:0:0:0:
256,192,128624,128,0,128671:0:0:0:0:
475,192,128624,128,0,128671:0:0:0:0:
329,192,128624,128,0,128765:0:0:0:0:
36,192,128624,128,0,128765:0:0:0:0:
475,192,128812,128,0,128858:0:0:0:0:
329,192,128812,128,0,128905:0:0:0:0:
109,192,128812,128,0,129046:0:0:0:0:
182,192,128812,1,0,0:0:0:0:
256,192,128812,128,0,128858:0:0:0:0:
36,192,128812,128,0,128905:0:0:0:0:
475,192,128999,128,0,129233:0:0:0:0:
182,192,128999,128,0,129233:0:0:0:0:
36,192,128999,128,0,129046:0:0:0:0:
256,192,128999,128,0,129093:0:0:0:0:
329,192,128999,128,0,129046:0:0:0:0:
109,192,129187,128,0,129280:0:0:0:0:
329,192,129187,128,0,129608:0:0:0:0:
256,192,129187,128,0,129327:0:0:0:0:
36,192,129187,128,0,129233:0:0:0:0:
402,192,129187,128,0,129233:0:0:0:0:
36,192,129374,128,0,129608:0:0:0:0:
475,192,129374,128,0,129421:0:0:0:0:
402,192,129374,128,0,129421:0:0:0:0:
109,192,129374,128,0,129515:0:0:0:0:
182,192,129374,128,0,129421:0:0:0:0:
182,192,129562,128,0,129655:0:0:0:0:
402,192,129562,128,0,129983:0:0:0:0:
256,192,129562,128,0,129702:0:0:0:0:
475,192,129562,128,0,129608:0:0:0:0:
109,192,129749,128,0,130030:0:0:0:0:
36,192,129749,128,0,129796:0:0:0:0:
475,192,129749,128,0,129796:0:0:0:0:
329,192,129749,128,0,129796:0:0:0:0:
182,192,129749,128,0,129843:0:0:0:0:
256,192,129937,128,0,130358:0:0:0:0:
329,192,129937,128,0,130077:0:0:0:0:
475,192,129937,128,0,130265:0:0:0:0:
182,192,129937,128,0,129983:0:0:0:0:
36,192,129937,128,0,130265:0:0:0:0:
402,192,130124,128,0,130358:0:0:0:0:
182,192,130124,128,0,130265:0:0:0:0:
109,192,130312,128,0,130733:0:0:0:0:
182,192,130312,128,0,130452:0:0:0:0:
329,192,130312,128,0,130358:0:0:0:0:
475,192,130312,128,0,130358:0:0:0:0:
36,192,130312,128,0,130405:0:0:0:0:
402,192,130499,128,0,130921:0:0:0:0:
475,192,130499,128,0,130546:0:0:0:0:
256,192,130499,128,0,130593:0:0:0:0:
36,192,130499,128,0,130546:0:0:0:0:
36,192,130687,128,0,130733:0:0:0:0:
182,192,130687,128,0,130780:0:0:0:0:
329,192,130687,128,0,130827:0:0:0:0:
475,192,130687,128,0,130733:0:0:0:0:
109,192,130874,128,0,131108:0:0:0:0:
475,192,130874,128,0,130921:0:0:0:0:
182,192,130874,128,0,130921:0:0:0:0:
36,192,130874,128,0,130921:0:0:0:0:
256,192,130968,1,0,0:0:0:0:
402,192,131062,128,0,131530:0:0:0:0:
329,192,131062,128,0,131155:0:0:0:0:
182,192,131062,128,0,131202:0:0:0:0:
475,192,131062,128,0,131108:0:0:0:0:
36,192,131062,128,0,131108:0:0:0:0:
256,192,131062,128,0,131108:0:0:0:0:
109,192,131249,128,0,131530:0:0:0:0:
256,192,131249,128,0,131343:0:0:0:0:
475,192,131249,128,0,131296:0:0:0:0:
36,192,131249,128,0,131296:0:0:0:0:
475,192,131437,128,0,131765:0:0:0:0:
256,192,131437,128,0,131577:0:0:0:0:
329,192,131437,128,0,131483:0:0:0:0:
182,192,131437,128,0,131483:0:0:0:0:
36,192,131437,128,0,131765:0:0:0:0:
182,192,131624,128,0,131858:0:0:0:0:
109,192,131624,128,0,131671:0:0:0:0:
402,192,131624,128,0,131765:0:0:0:0:
329,192,131624,128,0,131718:0:0:0:0:
329,192,131812,128,0,131858:0:0:0:0:
256,192,131812,128,0,131905:0:0:0:0:
36,192,131812,128,0,131858:0:0:0:0:
109,192,131812,128,0,132233:0:0:0:0:
475,192,131812,128,0,131858:0:0:0:0:
402,192,131812,128,0,131952:0:0:0:0:
329,192,131999,128,0,132046:0:0:0:0:
475,192,131999,128,0,132327:0:0:0:0:
182,192,131999,128,0,132046:0:0:0:0:
36,192,131999,128,0,132046:0:0:0:0:
402,192,132093,128,0,132515:0:0:0:0:
182,192,132187,128,0,132608:0:0:0:0:
36,192,132187,128,0,132233:0:0:0:0:
329,192,132187,128,0,132280:0:0:0:0:
256,192,132187,128,0,132233:0:0:0:0:
256,192,132374,128,0,132421:0:0:0:0:
36,192,132374,128,0,132421:0:0:0:0:
109,192,132374,128,0,132468:0:0:0:0:
329,192,132562,128,0,133171:0:0:0:0:
36,192,132562,128,0,132608:0:0:0:0:
109,192,132562,128,0,132843:0:0:0:0:
256,192,132562,128,0,132702:0:0:0:0:
402,192,132562,128,0,132655:0:0:0:0:
475,192,132562,128,0,132608:0:0:0:0:
182,192,132749,128,0,132796:0:0:0:0:
475,192,132749,128,0,133265:0:0:0:0:
36,192,132749,128,0,132796:0:0:0:0:
402,192,132843,128,0,133030:0:0:0:0:
182,192,132937,128,0,132983:0:0:0:0:
109,192,132937,128,0,133452:0:0:0:0:
36,192,132937,128,0,132983:0:0:0:0:
256,192,132937,128,0,133030:0:0:0:0:
36,192,133124,128,0,133265:0:0:0:0:
256,192,133124,1,0,0:0:0:0:
182,192,133218,128,0,133452:0:0:0:0:
329,192,133218,1,0,0:0:0:0:
402,192,133312,128,0,133827:0:0:0:0:
329,192,133312,128,0,133358:0:0:0:0:
256,192,133312,128,0,133827:0:0:0:0:
36,192,133312,128,0,133452:0:0:0:0:
475,192,133312,128,0,133358:0:0:0:0:
182,192,133499,128,0,133546:0:0:0:0:
36,192,133499,128,0,133640:0:0:0:0:
109,192,133499,128,0,133593:0:0:0:0:
475,192,133499,128,0,133546:0:0:0:0:
109,192,133687,128,0,133733:0:0:0:0:
36,192,133687,128,0,133733:0:0:0:0:
182,192,133687,128,0,134155:0:0:0:0:
329,192,133687,128,0,133827:0:0:0:0:
475,192,133687,128,0,133827:0:0:0:0:
329,192,133874,128,0,134015:0:0:0:0:
402,192,133874,128,0,133968:0:0:0:0:
475,192,133874,128,0,133921:0:0:0:0:
36,192,133874,128,0,133921:0:0:0:0:
109,192,133874,128,0,133921:0:0:0:0:
36,192,134062,128,0,134108:0:0:0:0:
329,192,134062,128,0,134483:0:0:0:0:
475,192,134062,128,0,134343:0:0:0:0:
256,192,134062,128,0,134108:0:0:0:0:
109,192,134062,128,0,134202:0:0:0:0:
402,192,134062,1,0,0:0:0:0:
36,192,134249,128,0,134343:0:0:0:0:
402,192,134249,128,0,134343:0:0:0:0:
182,192,134249,128,0,134343:0:0:0:0:
256,192,134437,128,0,134858:0:0:0:0:
475,192,134437,128,0,134530:0:0:0:0:
36,192,134437,128,0,134765:0:0:0:0:
109,192,134437,128,0,134530:0:0:0:0:
402,192,134437,128,0,134577:0:0:0:0:
475,192,134624,128,0,134765:0:0:0:0:
329,192,134624,128,0,134671:0:0:0:0:
182,192,134624,128,0,134765:0:0:0:0:
182,192,134812,128,0,135093:0:0:0:0:
36,192,134812,128,0,134858:0:0:0:0:
109,192,134812,128,0,134905:0:0:0:0:
329,192,134812,128,0,134952:0:0:0:0:
475,192,134812,128,0,135046:0:0:0:0:
402,192,134812,128,0,134858:0:0:0:0:
256,192,134999,128,0,135046:0:0:0:0:
402,192,134999,128,0,135093:0:0:0:0:
36,192,134999,128,0,135280:0:0:0:0:
402,192,135187,128,0,135233:0:0:0:0:
256,192,135187,128,0,135327:0:0:0:0:
109,192,135187,128,0,135233:0:0:0:0:
182,192,135187,128,0,135655:0:0:0:0:
329,192,135187,128,0,135280:0:0:0:0:
475,192,135187,128,0,135468:0:0:0:0:
36,192,135374,128,0,135421:0:0:0:0:
329,192,135374,128,0,135608:0:0:0:0:
109,192,135374,128,0,135468:0:0:0:0:
256,192,135562,128,0,135983:0:0:0:0:
36,192,135562,128,0,135702:0:0:0:0:
402,192,135562,128,0,135890:0:0:0:0:
109,192,135562,128,0,135608:0:0:0:0:
475,192,135562,128,0,135796:0:0:0:0:
109,192,135749,128,0,135890:0:0:0:0:
329,192,135749,128,0,135796:0:0:0:0:
402,192,135937,128,0,136171:0:0:0:0:
329,192,135937,128,0,136358:0:0:0:0:
36,192,135937,128,0,135983:0:0:0:0:
182,192,135937,128,0,136077:0:0:0:0:
109,192,135937,128,0,136030:0:0:0:0:
475,192,135937,128,0,135983:0:0:0:0:
256,192,136124,128,0,136265:0:0:0:0:
36,192,136124,128,0,136265:0:0:0:0:
475,192,136124,128,0,136265:0:0:0:0:
109,192,136124,128,0,136171:0:0:0:0:
109,192,136312,128,0,136358:0:0:0:0:
182,192,136312,128,0,136593:0:0:0:0:
402,192,136312,128,0,136452:0:0:0:0:
475,192,136312,128,0,136405:0:0:0:0:
256,192,136312,128,0,136452:0:0:0:0:
36,192,136312,128,0,136358:0:0:0:0:
36,192,136499,128,0,136546:0:0:0:0:
475,192,136499,128,0,136780:0:0:0:0:
109,192,136499,128,0,136733:0:0:0:0:
329,192,136499,128,0,136546:0:0:0:0:
402,192,136593,128,0,136733:0:0:0:0:
36,192,136687,128,0,137015:0:0:0:0:
256,192,136687,128,0,136733:0:0:0:0:
329,192,136687,128,0,136921:0:0:0:0:
182,192,136687,128,0,137015:0:0:0:0:
256,192,136874,128,0,137226:0:0:0:0:
475,192,136874,128,0,137155:0:0:0:0:
402,192,136874,128,0,136968:0:0:0:0:
109,192,136874,128,0,136921:0:0:0:0:
402,192,137062,128,0,137108:0:0:0:0:
182,192,137062,128,0,137296:0:0:0:0:
109,192,137062,128,0,137577:0:0:0:0:
36,192,137062,128,0,137108:0:0:0:0:
329,192,137062,128,0,137155:0:0:0:0:
402,192,137249,128,0,137577:0:0:0:0:
36,192,137249,128,0,137390:0:0:0:0:
475,192,137249,128,0,137390:0:0:0:0:
256,192,137343,128,0,137390:0:0:0:0:
182,192,137437,128,0,137483:0:0:0:0:
36,192,137437,128,0,137765:0:0:0:0:
475,192,137437,128,0,137483:0:0:0:0:
329,192,137437,128,0,137483:0:0:0:0:
475,192,137530,128,0,137765:0:0:0:0:
329,192,137530,128,0,137765:0:0:0:0:
182,192,137530,128,0,137765:0:0:0:0:
402,192,137624,128,0,137671:0:0:0:0:
256,192,137624,128,0,137671:0:0:0:0:
109,192,137624,128,0,137858:0:0:0:0:
402,192,137718,128,0,137858:0:0:0:0:
182,192,137812,128,0,137858:0:0:0:0:
256,192,137812,128,0,138140:0:0:0:0:
329,192,137812,128,0,137858:0:0:0:0:
475,192,137812,128,0,137858:0:0:0:0:
36,192,137812,128,0,137858:0:0:0:0:
109,192,138187,128,0,138515:0:0:0:0:
402,192,138187,128,0,138515:0:0:0:0:
36,192,138187,128,0,138280:0:0:0:0:
256,192,138187,128,0,138280:0:0:0:0:
475,192,138187,128,0,138280:0:0:0:0:
36,192,138374,128,0,138515:0:0:0:0:
182,192,138374,128,0,138421:0:0:0:0:
329,192,138374,128,0,138421:0:0:0:0:
475,192,138374,128,0,138515:0:0:0:0:
182,192,138468,128,0,138515:0:0:0:0:
329,192,138468,128,0,138515:0:0:0:0:
109,192,138562,128,0,138796:0:0:0:0:
256,192,138562,128,0,138608:0:0:0:0:
36,192,138562,128,0,138608:0:0:0:0:
475,192,138562,128,0,138608:0:0:0:0:
402,192,138562,128,0,138608:0:0:0:0:
256,192,138749,128,0,138796:0:0:0:0:
402,192,138749,128,0,138796:0:0:0:0:
475,192,138749,128,0,138796:0:0:0:0:
329,192,138749,128,0,139171:0:0:0:0:
109,192,138937,128,0,138983:0:0:0:0:
36,192,138937,128,0,138983:0:0:0:0:
182,192,138937,128,0,139171:0:0:0:0:
109,192,139124,128,0,139640:0:0:0:0:
256,192,139124,128,0,139358:0:0:0:0:
36,192,139124,128,0,139171:0:0:0:0:
475,192,139124,128,0,139171:0:0:0:0:
402,192,139312,128,0,139640:0:0:0:0:
329,192,139312,1,0,0:0:0:0:
182,192,139312,1,0,0:0:0:0:
36,192,139312,128,0,139405:0:0:0:0:
475,192,139312,128,0,139405:0:0:0:0:
256,192,139405,128,0,139452:0:0:0:0:
36,192,139499,128,0,139640:0:0:0:0:
475,192,139499,128,0,139640:0:0:0:0:
182,192,139499,128,0,139546:0:0:0:0:
329,192,139499,128,0,139546:0:0:0:0:
256,192,139593,128,0,139640:0:0:0:0:
182,192,139687,128,0,139812:0:0:0:0:
109,192,139687,128,0,139749:0:0:0:0:
329,192,139687,1,0,0:0:0:0:
402,192,139687,1,0,0:0:0:0:
475,192,139687,1,0,0:0:0:0:
36,192,139687,1,0,0:0:0:0:
256,192,139749,128,0,139874:0:0:0:0:
329,192,139812,128,0,139937:0:0:0:0:
36,192,139874,1,0,0:0:0:0:
402,192,139874,128,0,139999:0:0:0:0:
109,192,139937,1,0,0:0:0:0:
475,192,139937,128,0,140062:0:0:0:0:
182,192,139999,1,0,0:0:0:0:
256,192,140062,128,0,140187:0:0:0:0:
36,192,140062,128,0,140187:0:0:0:0:
402,192,140062,128,0,140249:0:0:0:0:
109,192,140124,128,0,140249:0:0:0:0:
182,192,140187,128,0,140374:0:0:0:0:
329,192,140187,1,0,0:0:0:0:
475,192,140187,128,0,140374:0:0:0:0:
256,192,140249,128,0,140312:0:0:0:0:
36,192,140249,128,0,140312:0:0:0:0:
402,192,140312,1,0,0:0:0:0:
109,192,140312,128,0,140562:0:0:0:0:
329,192,140374,128,0,140437:0:0:0:0:
36,192,140437,128,0,140562:0:0:0:0:
256,192,140437,128,0,140671:0:0:0:0:
475,192,140437,128,0,140562:0:0:0:0:
182,192,140437,128,0,140499:0:0:0:0:
402,192,140499,128,0,140562:0:0:0:0:
182,192,140624,128,0,140858:0:0:0:0:
36,192,140624,128,0,140671:0:0:0:0:
109,192,140624,128,0,140671:0:0:0:0:
329,192,140624,128,0,140858:0:0:0:0:
402,192,140624,128,0,140718:0:0:0:0:
475,192,140624,128,0,140671:0:0:0:0:
256,192,140812,128,0,141046:0:0:0:0:
109,192,140812,128,0,141046:0:0:0:0:
402,192,140812,128,0,140905:0:0:0:0:
36,192,140812,128,0,140858:0:0:0:0:
475,192,140812,128,0,140858:0:0:0:0:
182,192,140999,128,0,141327:0:0:0:0:
475,192,140999,1,0,0:0:0:0:
36,192,140999,128,0,141499:0:0:0:0:
402,192,140999,128,0,141046:0:0:0:0:
329,192,140999,128,0,141093:0:0:0:0:
109,192,141187,128,0,141280:0:0:0:0:
329,192,141187,128,0,141374:0:0:0:0:
475,192,141187,128,0,141499:0:0:0:0:
256,192,141187,128,0,141233:0:0:0:0:
109,192,141374,128,0,141499:0:0:0:0:
402,192,141374,128,0,141499:0:0:0:0:
256,192,141374,1,0,0:0:0:0:
182,192,141437,128,0,141499:0:0:0:0:
329,192,141437,1,0,0:0:0:0:
182,192,141562,128,0,141687:0:0:0:0:
36,192,141562,128,0,141937:0:0:0:0:
475,192,141562,128,0,141624:0:0:0:0:
256,192,141562,1,0,0:0:0:0:
402,192,141562,1,0,0:0:0:0:
109,192,141562,128,0,141624:0:0:0:0:
329,192,141624,128,0,141687:0:0:0:0:
402,192,141687,128,0,141812:0:0:0:0:
256,192,141749,128,0,141812:0:0:0:0:
182,192,141749,1,0,0:0:0:0:
475,192,141749,128,0,142062:0:0:0:0:
109,192,141812,128,0,141937:0:0:0:0:
182,192,141874,128,0,142062:0:0:0:0:
402,192,141874,128,0,141937:0:0:0:0:
256,192,141937,128,0,142062:0:0:0:0:
329,192,141999,128,0,142062:0:0:0:0:
36,192,141999,128,0,142062:0:0:0:0:
109,192,141999,128,0,142062:0:0:0:0:
109,192,142124,128,0,142171:0:0:0:0:
475,192,142124,128,0,142358:0:0:0:0:
182,192,142124,128,0,142218:0:0:0:0:
402,192,142124,128,0,142171:0:0:0:0:
36,192,142124,128,0,142171:0:0:0:0:
256,192,142124,128,0,142171:0:0:0:0:
329,192,142124,128,0,142358:0:0:0:0:
36,192,142312,128,0,142546:0:0:0:0:
182,192,142312,128,0,142546:0:0:0:0:
256,192,142312,128,0,142405:0:0:0:0:
402,192,142312,128,0,142358:0:0:0:0:
109,192,142312,128,0,142358:0:0:0:0:
256,192,142499,128,0,142733:0:0:0:0:
402,192,142499,128,0,142733:0:0:0:0:
329,192,142499,128,0,142593:0:0:0:0:
109,192,142499,128,0,142546:0:0:0:0:
475,192,142499,128,0,142546:0:0:0:0:
109,192,142687,128,0,142921:0:0:0:0:
329,192,142687,128,0,143015:0:0:0:0:
475,192,142687,128,0,143015:0:0:0:0:
182,192,142687,128,0,142780:0:0:0:0:
36,192,142687,128,0,142733:0:0:0:0:
182,192,142874,128,0,142921:0:0:0:0:
36,192,142874,128,0,143015:0:0:0:0:
402,192,142874,128,0,142921:0:0:0:0:
256,192,142968,128,0,143015:0:0:0:0:
109,192,142968,128,0,143015:0:0:0:0:
402,192,143062,128,0,143187:0:0:0:0:
256,192,143062,128,0,143249:0:0:0:0:
36,192,143062,128,0,143249:0:0:0:0:
109,192,143062,128,0,143187:0:0:0:0:
329,192,143062,128,0,143124:0:0:0:0:
475,192,143062,128,0,143437:0:0:0:0:
182,192,143124,128,0,143312:0:0:0:0:
329,192,143249,128,0,143312:0:0:0:0:
402,192,143249,1,0,0:0:0:0:
109,192,143249,128,0,143374:0:0:0:0:
256,192,143312,128,0,143374:0:0:0:0:
36,192,143312,128,0,143562:0:0:0:0:
402,192,143374,128,0,143562:0:0:0:0:
182,192,143374,128,0,143437:0:0:0:0:
329,192,143437,128,0,143562:0:0:0:0:
109,192,143437,128,0,143499:0:0:0:0:
256,192,143499,128,0,143562:0:0:0:0:
475,192,143499,128,0,143562:0:0:0:0:
402,192,143624,128,0,143999:0:0:0:0:
109,192,143624,128,0,143671:0:0:0:0:
329,192,143624,128,0,143718:0:0:0:0:
36,192,143624,128,0,143671:0:0:0:0:
475,192,143624,128,0,143718:0:0:0:0:
182,192,143624,128,0,143905:0:0:0:0:
256,192,143624,128,0,143671:0:0:0:0:
109,192,143812,128,0,144233:0:0:0:0:
36,192,143812,128,0,143905:0:0:0:0:
256,192,143812,128,0,143858:0:0:0:0:
329,192,143812,128,0,143858:0:0:0:0:
475,192,143812,128,0,143858:0:0:0:0:
329,192,143999,128,0,144046:0:0:0:0:
36,192,143999,128,0,144093:0:0:0:0:
256,192,143999,128,0,144280:0:0:0:0:
475,192,143999,128,0,144468:0:0:0:0:
182,192,143999,128,0,144046:0:0:0:0:
402,192,144187,128,0,144233:0:0:0:0:
329,192,144187,128,0,144233:0:0:0:0:
182,192,144187,128,0,144468:0:0:0:0:
36,192,144187,128,0,144280:0:0:0:0:
402,192,144374,128,0,144468:0:0:0:0:
36,192,144374,128,0,144468:0:0:0:0:
256,192,144374,128,0,144468:0:0:0:0:
109,192,144374,128,0,144624:0:0:0:0:
329,192,144468,128,0,144562:0:0:0:0:
475,192,144562,128,0,144874:0:0:0:0:
402,192,144562,128,0,144624:0:0:0:0:
36,192,144562,128,0,144812:0:0:0:0:
182,192,144562,128,0,144687:0:0:0:0:
256,192,144624,128,0,144749:0:0:0:0:
329,192,144687,128,0,144812:0:0:0:0:
109,192,144749,128,0,144812:0:0:0:0:
402,192,144749,128,0,145062:0:0:0:0:
182,192,144812,128,0,144874:0:0:0:0:
256,192,144874,128,0,144937:0:0:0:0:
36,192,144874,128,0,145062:0:0:0:0:
329,192,144937,128,0,144999:0:0:0:0:
109,192,144937,128,0,145062:0:0:0:0:
475,192,144937,128,0,145062:0:0:0:0:
182,192,144999,128,0,145062:0:0:0:0:
109,192,145124,128,0,145546:0:0:0:0:
329,192,145124,128,0,145358:0:0:0:0:
475,192,145124,128,0,145405:0:0:0:0:
36,192,145124,128,0,145171:0:0:0:0:
182,192,145124,128,0,145218:0:0:0:0:
256,192,145124,128,0,145171:0:0:0:0:
402,192,145124,128,0,145171:0:0:0:0:
256,192,145312,128,0,145593:0:0:0:0:
36,192,145312,128,0,145358:0:0:0:0:
182,192,145312,128,0,145405:0:0:0:0:
402,192,145312,128,0,145405:0:0:0:0:
402,192,145499,128,0,145968:0:0:0:0:
329,192,145499,128,0,145546:0:0:0:0:
36,192,145499,128,0,145593:0:0:0:0:
475,192,145499,128,0,145593:0:0:0:0:
182,192,145499,128,0,145733:0:0:0:0:
329,192,145687,128,0,145874:0:0:0:0:
475,192,145687,128,0,145733:0:0:0:0:
256,192,145687,128,0,145780:0:0:0:0:
109,192,145687,128,0,145733:0:0:0:0:
36,192,145687,128,0,145968:0:0:0:0:
256,192,145874,128,0,145968:0:0:0:0:
109,192,145874,128,0,145968:0:0:0:0:
182,192,145968,128,0,146062:0:0:0:0:
329,192,145968,128,0,146062:0:0:0:0:
475,192,145968,128,0,146062:0:0:0:0:
256,192,146062,128,0,146187:0:0:0:0:
36,192,146062,128,0,146187:0:0:0:0:
109,192,146062,128,0,146124:0:0:0:0:
402,192,146062,128,0,146124:0:0:0:0:
329,192,146124,128,0,146249:0:0:0:0:
475,192,146124,128,0,146187:0:0:0:0:
182,192,146187,128,0,146312:0:0:0:0:
109,192,146249,1,0,0:0:0:0:
256,192,146249,128,0,146562:0:0:0:0:
475,192,146249,128,0,146374:0:0:0:0:
402,192,146312,128,0,146374:0:0:0:0:
36,192,146312,128,0,146374:0:0:0:0:
329,192,146312,1,0,0:0:0:0:
109,192,146374,128,0,146437:0:0:0:0:
475,192,146437,128,0,146562:0:0:0:0:
329,192,146437,128,0,146562:0:0:0:0:
182,192,146437,128,0,146499:0:0:0:0:
36,192,146499,128,0,146562:0:0:0:0:
182,192,146624,128,0,147046:0:0:0:0:
256,192,146624,128,0,146718:0:0:0:0:
329,192,146624,128,0,146671:0:0:0:0:
109,192,146624,128,0,146765:0:0:0:0:
36,192,146624,128,0,146671:0:0:0:0:
402,192,146624,128,0,146905:0:0:0:0:
475,192,146624,128,0,146671:0:0:0:0:
329,192,146812,128,0,147327:0:0:0:0:
36,192,146812,128,0,147046:0:0:0:0:
109,192,146812,128,0,146858:0:0:0:0:
256,192,146812,128,0,146952:0:0:0:0:
475,192,146812,128,0,146858:0:0:0:0:
109,192,146999,128,0,147233:0:0:0:0:
402,192,146999,128,0,147140:0:0:0:0:
256,192,146999,128,0,147093:0:0:0:0:
475,192,146999,128,0,147046:0:0:0:0:
36,192,147187,128,0,147374:0:0:0:0:
475,192,147187,128,0,147374:0:0:0:0:
182,192,147187,128,0,147327:0:0:0:0:
256,192,147187,128,0,147280:0:0:0:0:
402,192,147187,128,0,147233:0:0:0:0:
402,192,147374,1,0,0:0:0:0:
109,192,147374,128,0,147421:0:0:0:0:
256,192,147374,128,0,147421:0:0:0:0:
182,192,147468,128,0,147515:0:0:0:0:
329,192,147468,128,0,147515:0:0:0:0:
402,192,147562,128,0,147624:0:0:0:0:
475,192,147562,128,0,147687:0:0:0:0:
36,192,147562,128,0,147687:0:0:0:0:
109,192,147562,128,0,147624:0:0:0:0:
256,192,147562,128,0,147687:0:0:0:0:
182,192,147624,128,0,147749:0:0:0:0:
329,192,147687,128,0,147812:0:0:0:0:
256,192,147749,128,0,148062:0:0:0:0:
36,192,147749,128,0,147874:0:0:0:0:
402,192,147749,1,0,0:0:0:0:
475,192,147812,128,0,147874:0:0:0:0:
109,192,147812,128,0,147874:0:0:0:0:
182,192,147812,1,0,0:0:0:0:
402,192,147874,128,0,147937:0:0:0:0:
182,192,147937,128,0,148062:0:0:0:0:
329,192,147937,128,0,147999:0:0:0:0:
36,192,147937,128,0,148062:0:0:0:0:
475,192,147999,128,0,148062:0:0:0:0:
402,192,148124,128,0,148358:0:0:0:0:
256,192,148124,128,0,148358:0:0:0:0:
182,192,148124,128,0,148171:0:0:0:0:
109,192,148124,128,0,148218:0:0:0:0:
36,192,148124,128,0,148171:0:0:0:0:
475,192,148124,128,0,148171:0:0:0:0:
329,192,148124,128,0,148265:0:0:0:0:
36,192,148312,128,0,148780:0:0:0:0:
329,192,148312,128,0,148546:0:0:0:0:
182,192,148312,128,0,148452:0:0:0:0:
109,192,148312,128,0,148358:0:0:0:0:
475,192,148312,128,0,148405:0:0:0:0:
256,192,148499,128,0,148733:0:0:0:0:
475,192,148499,128,0,148733:0:0:0:0:
109,192,148499,128,0,148640:0:0:0:0:
182,192,148499,128,0,148546:0:0:0:0:
402,192,148499,128,0,148593:0:0:0:0:
182,192,148687,128,0,148874:0:0:0:0:
329,192,148687,128,0,148874:0:0:0:0:
109,192,148687,128,0,148733:0:0:0:0:
402,192,148687,128,0,148780:0:0:0:0:
36,192,148874,128,0,148921:0:0:0:0:
256,192,148874,128,0,148921:0:0:0:0:
475,192,148874,128,0,148921:0:0:0:0:
109,192,148968,128,0,149015:0:0:0:0:
329,192,148968,128,0,149015:0:0:0:0:
36,192,149062,128,0,149124:0:0:0:0:
182,192,149062,128,0,149249:0:0:0:0:
256,192,149062,128,0,149124:0:0:0:0:
329,192,149062,1,0,0:0:0:0:
109,192,149062,1,0,0:0:0:0:
475,192,149062,128,0,149249:0:0:0:0:
402,192,149124,128,0,149249:0:0:0:0:
329,192,149187,128,0,149312:0:0:0:0:
109,192,149187,128,0,149374:0:0:0:0:
36,192,149249,128,0,149374:0:0:0:0:
256,192,149249,128,0,149374:0:0:0:0:
402,192,149312,128,0,149374:0:0:0:0:
475,192,149312,128,0,149530:0:0:0:0:
182,192,149374,128,0,149530:0:0:0:0:
402,192,149437,128,0,149483:0:0:0:0:
329,192,149437,128,0,149718:0:0:0:0:
36,192,149437,128,0,149718:0:0:0:0:
256,192,149437,128,0,149483:0:0:0:0:
109,192,149437,128,0,149483:0:0:0:0:
182,192,149624,128,0,150140:0:0:0:0:
475,192,149624,128,0,149858:0:0:0:0:
109,192,149624,128,0,149858:0:0:0:0:
402,192,149624,128,0,150093:0:0:0:0:
256,192,149624,128,0,149765:0:0:0:0:
36,192,149812,128,0,149905:0:0:0:0:
256,192,149812,128,0,149905:0:0:0:0:
329,192,149812,128,0,149952:0:0:0:0:
256,192,149999,128,0,150327:0:0:0:0:
109,192,149999,128,0,150046:0:0:0:0:
36,192,149999,128,0,150280:0:0:0:0:
329,192,149999,128,0,150046:0:0:0:0:
475,192,149999,128,0,150280:0:0:0:0:
109,192,150187,128,0,150374:0:0:0:0:
402,192,150187,128,0,150374:0:0:0:0:
182,192,150187,128,0,150233:0:0:0:0:
329,192,150187,128,0,150233:0:0:0:0:
36,192,150374,128,0,150421:0:0:0:0:
329,192,150374,128,0,150421:0:0:0:0:
182,192,150374,128,0,150421:0:0:0:0:
402,192,150468,128,0,150515:0:0:0:0:
109,192,150468,128,0,150515:0:0:0:0:
256,192,150468,128,0,150515:0:0:0:0:
109,192,150562,128,0,150702:0:0:0:0:
182,192,150562,128,0,150608:0:0:0:0:
329,192,150562,128,0,150843:0:0:0:0:
36,192,150562,128,0,150608:0:0:0:0:
475,192,150562,128,0,150608:0:0:0:0:
402,192,150562,128,0,150608:0:0:0:0:
36,192,150749,128,0,150890:0:0:0:0:
182,192,150749,128,0,150983:0:0:0:0:
256,192,150749,128,0,150796:0:0:0:0:
475,192,150749,128,0,150796:0:0:0:0:
402,192,150749,128,0,150890:0:0:0:0:
256,192,150937,128,0,151077:0:0:0:0:
109,192,150937,128,0,151030:0:0:0:0:
36,192,150937,128,0,150983:0:0:0:0:
329,192,150937,128,0,150983:0:0:0:0:
475,192,150937,128,0,150983:0:0:0:0:
182,192,151124,1,0,0:0:0:0:
109,192,151124,128,0,151968:0:0:0:0:
256,192,151124,1,0,0:0:0:0:
475,192,151124,1,0,0:0:0:0:
36,192,151124,1,0,0:0:0:0:
402,192,151124,128,0,151968:0:0:0:0:
329,192,151124,1,0,0:0:0:0:
36,192,152062,128,0,152671:0:0:0:0:
256,192,152062,128,0,152296:0:0:0:0:
402,192,152062,128,0,152108:0:0:0:0:
329,192,152062,128,0,152671:0:0:0:0:
109,192,152062,128,0,152108:0:0:0:0:
182,192,152062,128,0,152108:0:0:0:0:
475,192,152062,128,0,152296:0:0:0:0:
182,192,152249,128,0,153046:0:0:0:0:
402,192,152249,128,0,152483:0:0:0:0:
109,192,152249,128,0,152296:0:0:0:0:
256,192,152437,128,0,152483:0:0:0:0:
475,192,152437,128,0,152483:0:0:0:0:
109,192,152437,128,0,152483:0:0:0:0:
256,192,152624,128,0,153249:0:0:0:0:
475,192,152624,128,0,153046:0:0:0:0:
109,192,152624,128,0,152671:0:0:0:0:
402,192,152624,128,0,152858:0:0:0:0:
109,192,152812,128,0,153046:0:0:0:0:
329,192,152812,128,0,152858:0:0:0:0:
36,192,152812,128,0,152858:0:0:0:0:
402,192,152999,128,0,153046:0:0:0:0:
36,192,152999,128,0,153046:0:0:0:0:
329,192,152999,128,0,153046:0:0:0:0:
182,192,153187,128,0,153374:0:0:0:0:
329,192,153187,128,0,153249:0:0:0:0:
475,192,153187,128,0,154124:0:0:0:0:
109,192,153187,128,0,153312:0:0:0:0:
36,192,153187,128,0,153499:0:0:0:0:
402,192,153249,128,0,153374:0:0:0:0:
329,192,153312,128,0,153499:0:0:0:0:
256,192,153374,128,0,153437:0:0:0:0:
402,192,153437,128,0,153562:0:0:0:0:
109,192,153437,128,0,153562:0:0:0:0:
182,192,153499,128,0,153624:0:0:0:0:
256,192,153562,128,0,153687:0:0:0:0:
329,192,153624,128,0,153812:0:0:0:0:
36,192,153624,128,0,153687:0:0:0:0:
402,192,153687,128,0,153749:0:0:0:0:
109,192,153687,128,0,153749:0:0:0:0:
256,192,153749,128,0,153874:0:0:0:0:
36,192,153749,128,0,153812:0:0:0:0:
182,192,153812,128,0,153937:0:0:0:0:
109,192,153874,128,0,153999:0:0:0:0:
402,192,153874,128,0,153937:0:0:0:0:
36,192,153937,128,0,154062:0:0:0:0:
329,192,153937,128,0,153999:0:0:0:0:
256,192,153999,128,0,154062:0:0:0:0:
182,192,154062,128,0,154124:0:0:0:0:
402,192,154062,128,0,154187:0:0:0:0:
109,192,154124,128,0,154187:0:0:0:0:
329,192,154124,128,0,154249:0:0:0:0:
36,192,154187,128,0,154249:0:0:0:0:
256,192,154187,128,0,154374:0:0:0:0:
182,192,154249,128,0,154405:0:0:0:0:
475,192,154249,128,0,154374:0:0:0:0:
329,192,154312,128,0,154593:0:0:0:0:
36,192,154312,128,0,154593:0:0:0:0:
109,192,154312,128,0,154374:0:0:0:0:
402,192,154312,128,0,154374:0:0:0:0:
109,192,154499,128,0,154546:0:0:0:0:
182,192,154499,128,0,154562:0:0:0:0:
402,192,154499,128,0,154562:0:0:0:0:
256,192,154499,128,0,154780:0:0:0:0:
475,192,154499,128,0,154780:0:0:0:0:
402,192,154687,128,0,154937:0:0:0:0:
329,192,154687,128,0,154749:0:0:0:0:
182,192,154687,128,0,154937:0:0:0:0:
36,192,154687,128,0,154780:0:0:0:0:
109,192,154687,128,0,154749:0:0:0:0:
475,192,154874,128,0,155108:0:0:0:0:
109,192,154874,128,0,155108:0:0:0:0:
329,192,154874,128,0,155108:0:0:0:0:
256,192,154874,128,0,154968:0:0:0:0:
36,192,154874,128,0,154937:0:0:0:0:
182,192,155062,128,0,155671:0:0:0:0:
256,192,155062,128,0,155155:0:0:0:0:
402,192,155062,128,0,155671:0:0:0:0:
36,192,155062,128,0,155483:0:0:0:0:
475,192,155249,128,0,155296:0:0:0:0:
329,192,155249,128,0,155343:0:0:0:0:
109,192,155249,128,0,155483:0:0:0:0:
475,192,155437,128,0,155483:0:0:0:0:
256,192,155437,128,0,155530:0:0:0:0:
329,192,155437,128,0,155718:0:0:0:0:
475,192,155624,128,0,155905:0:0:0:0:
109,192,155624,128,0,156046:0:0:0:0:
256,192,155624,128,0,156046:0:0:0:0:
36,192,155624,128,0,155858:0:0:0:0:
329,192,155812,128,0,155858:0:0:0:0:
402,192,155812,128,0,156046:0:0:0:0:
182,192,155812,128,0,155905:0:0:0:0:
329,192,155999,128,0,156046:0:0:0:0:
475,192,155999,128,0,156046:0:0:0:0:
182,192,155999,128,0,156046:0:0:0:0:
36,192,155999,128,0,156046:0:0:0:0:
475,192,156187,128,0,157968:0:0:0:0:
182,192,156187,128,0,157968:0:0:0:0:
36,192,156187,128,0,157968:0:0:0:0:
256,192,156187,128,0,157968:0:0:0:0:
329,192,156187,128,0,157968:0:0:0:0:
256,192,158062,128,0,158108:0:0:0:0:
475,192,158062,128,0,158108:0:0:0:0:
36,192,158062,128,0,158343:0:0:0:0:
182,192,158062,1,0,0:0:0:0:
402,192,158062,1,0,0:0:0:0:
109,192,158062,128,0,158108:0:0:0:0:
475,192,158249,128,0,158296:0:0:0:0:
329,192,158249,128,0,158624:0:0:0:0:
182,192,158249,1,0,0:0:0:0:
109,192,158437,128,0,158718:0:0:0:0:
36,192,158437,128,0,158483:0:0:0:0:
182,192,158437,1,0,0:0:0:0:
402,192,158624,128,0,158812:0:0:0:0:
475,192,158624,1,0,0:0:0:0:
256,192,158624,128,0,158671:0:0:0:0:
182,192,158812,128,0,159093:0:0:0:0:
36,192,158812,128,0,159093:0:0:0:0:
329,192,158812,128,0,159093:0:0:0:0:
109,192,158812,1,0,0:0:0:0:
475,192,158812,128,0,158858:0:0:0:0:
402,192,158999,128,0,159046:0:0:0:0:
256,192,159187,128,0,159468:0:0:0:0:
109,192,159187,1,0,0:0:0:0:
402,192,159187,128,0,159468:0:0:0:0:
475,192,159187,128,0,159468:0:0:0:0:
36,192,159187,128,0,159233:0:0:0:0:
109,192,159374,128,0,159421:0:0:0:0:
36,192,159515,1,0,0:0:0:0:
109,192,159538,1,0,0:0:0:0:
182,192,159562,1,0,0:0:0:0:
475,192,159562,128,0,160218:0:0:0:0:
329,192,159562,128,0,159608:0:0:0:0:
402,192,159562,128,0,159843:0:0:0:0:
109,192,159749,128,0,159843:0:0:0:0:
36,192,159749,128,0,160218:0:0:0:0:
256,192,159749,128,0,159796:0:0:0:0:
402,192,159937,128,0,160218:0:0:0:0:
182,192,159937,128,0,160218:0:0:0:0:
329,192,159937,128,0,159983:0:0:0:0:
256,192,160124,128,0,160593:0:0:0:0:
109,192,160124,128,0,160218:0:0:0:0:
475,192,160312,128,0,160405:0:0:0:0:
36,192,160312,128,0,160405:0:0:0:0:
329,192,160312,1,0,0:0:0:0:
182,192,160312,1,0,0:0:0:0:
329,192,160405,1,0,0:0:0:0:
182,192,160405,1,0,0:0:0:0:
36,192,160499,128,0,160733:0:0:0:0:
475,192,160499,128,0,160733:0:0:0:0:
109,192,160499,1,0,0:0:0:0:
402,192,160499,1,0,0:0:0:0:
109,192,160593,1,0,0:0:0:0:
402,192,160593,1,0,0:0:0:0:
329,192,160687,128,0,160733:0:0:0:0:
182,192,160687,128,0,160733:0:0:0:0:
256,192,160687,128,0,161038:0:0:0:0:
402,192,160780,128,0,160827:0:0:0:0:
109,192,160780,128,0,160827:0:0:0:0:
329,192,160874,128,0,160944:0:0:0:0:
182,192,160874,128,0,160944:0:0:0:0:
36,192,160874,128,0,161038:0:0:0:0:
475,192,160874,128,0,161038:0:0:0:0:
402,192,160968,128,0,161038:0:0:0:0:
109,192,160968,128,0,161038:0:0:0:0:
182,192,161062,128,0,161249:0:0:0:0:
329,192,161062,128,0,161249:0:0:0:0:
36,192,161249,128,0,161296:0:0:0:0:
256,192,161249,128,0,161437:0:0:0:0:
402,192,161249,128,0,161437:0:0:0:0:
109,192,161343,128,0,161390:0:0:0:0:
475,192,161437,128,0,161858:0:0:0:0:
36,192,161437,128,0,161718:0:0:0:0:
182,192,161437,128,0,161718:0:0:0:0:
329,192,161437,128,0,161483:0:0:0:0:
402,192,161624,128,0,161999:0:0:0:0:
256,192,161624,128,0,161671:0:0:0:0:
329,192,161718,128,0,161765:0:0:0:0:
256,192,161812,128,0,161905:0:0:0:0:
36,192,161812,128,0,162468:0:0:0:0:
109,192,161812,128,0,161858:0:0:0:0:
182,192,161812,1,0,0:0:0:0:
329,192,161999,128,0,162280:0:0:0:0:
475,192,161999,128,0,162280:0:0:0:0:
182,192,161999,128,0,162046:0:0:0:0:
256,192,162093,128,0,162140:0:0:0:0:
109,192,162187,128,0,162468:0:0:0:0:
182,192,162187,128,0,162280:0:0:0:0:
402,192,162187,128,0,162233:0:0:0:0:
475,192,162374,128,0,162468:0:0:0:0:
256,192,162374,128,0,162421:0:0:0:0:
402,192,162374,128,0,162468:0:0:0:0:
182,192,162468,128,0,162515:0:0:0:0:
329,192,162562,128,0,162843:0:0:0:0:
109,192,162562,1,0,0:0:0:0:
475,192,162562,128,0,162843:0:0:0:0:
402,192,162562,1,0,0:0:0:0:
36,192,162562,128,0,162843:0:0:0:0:
256,192,162562,128,0,162608:0:0:0:0:
109,192,162749,128,0,163030:0:0:0:0:
182,192,162749,128,0,162796:0:0:0:0:
256,192,162843,128,0,162890:0:0:0:0:
36,192,162937,128,0,163218:0:0:0:0:
475,192,162937,128,0,163218:0:0:0:0:
182,192,162937,1,0,0:0:0:0:
402,192,162937,1,0,0:0:0:0:
329,192,162937,128,0,162983:0:0:0:0:
109,192,163124,128,0,163218:0:0:0:0:
402,192,163124,128,0,163218:0:0:0:0:
182,192,163124,128,0,163171:0:0:0:0:
256,192,163218,128,0,163593:0:0:0:0:
402,192,163312,1,0,0:0:0:0:
36,192,163312,128,0,163405:0:0:0:0:
109,192,163312,1,0,0:0:0:0:
475,192,163312,128,0,163405:0:0:0:0:
402,192,163405,1,0,0:0:0:0:
109,192,163405,1,0,0:0:0:0:
36,192,163499,128,0,163733:0:0:0:0:
475,192,163499,128,0,163733:0:0:0:0:
329,192,163499,1,0,0:0:0:0:
182,192,163499,1,0,0:0:0:0:
329,192,163593,1,0,0:0:0:0:
182,192,163593,1,0,0:0:0:0:
402,192,163687,128,0,163733:0:0:0:0:
109,192,163687,128,0,163733:0:0:0:0:
256,192,163687,128,0,164038:0:0:0:0:
329,192,163780,128,0,163827:0:0:0:0:
182,192,163780,128,0,163827:0:0:0:0:
475,192,163874,128,0,164038:0:0:0:0:
109,192,163874,128,0,163944:0:0:0:0:
36,192,163874,128,0,164038:0:0:0:0:
402,192,163874,128,0,163944:0:0:0:0:
329,192,163968,128,0,164038:0:0:0:0:
182,192,163968,128,0,164038:0:0:0:0:
109,192,164062,128,0,164343:0:0:0:0:
402,192,164062,128,0,164155:0:0:0:0:
402,192,164249,128,0,164343:0:0:0:0:
475,192,164249,128,0,164530:0:0:0:0:
329,192,164249,1,0,0:0:0:0:
182,192,164249,128,0,164296:0:0:0:0:
256,192,164343,128,0,164390:0:0:0:0:
36,192,164437,128,0,164530:0:0:0:0:
182,192,164437,128,0,164718:0:0:0:0:
402,192,164437,1,0,0:0:0:0:
329,192,164437,128,0,164483:0:0:0:0:
36,192,164624,128,0,165093:0:0:0:0:
475,192,164624,128,0,165093:0:0:0:0:
256,192,164624,128,0,164718:0:0:0:0:
402,192,164624,128,0,164671:0:0:0:0:
329,192,164718,128,0,164765:0:0:0:0:
109,192,164812,128,0,164905:0:0:0:0:
402,192,164812,128,0,164905:0:0:0:0:
256,192,164812,128,0,164858:0:0:0:0:
182,192,164812,1,0,0:0:0:0:
329,192,164999,128,0,165233:0:0:0:0:
256,192,164999,128,0,165046:0:0:0:0:
109,192,164999,1,0,0:0:0:0:
402,192,164999,1,0,0:0:0:0:
182,192,165093,128,0,165140:0:0:0:0:
402,192,165187,128,0,165374:0:0:0:0:
36,192,165187,128,0,165843:0:0:0:0:
475,192,165187,128,0,165468:0:0:0:0:
109,192,165187,128,0,165280:0:0:0:0:
256,192,165187,128,0,165280:0:0:0:0:
182,192,165374,128,0,165608:0:0:0:0:
256,192,165374,128,0,165421:0:0:0:0:
109,192,165374,128,0,165468:0:0:0:0:
329,192,165468,128,0,165515:0:0:0:0:
402,192,165562,128,0,165843:0:0:0:0:
475,192,165562,128,0,165702:0:0:0:0:
256,192,165562,128,0,165655:0:0:0:0:
109,192,165562,128,0,165655:0:0:0:0:
475,192,165749,128,0,166030:0:0:0:0:
109,192,165749,128,0,165796:0:0:0:0:
329,192,165749,128,0,165843:0:0:0:0:
182,192,165843,128,0,165890:0:0:0:0:
109,192,165937,128,0,166218:0:0:0:0:
256,192,165937,128,0,165983:0:0:0:0:
402,192,165937,128,0,166124:0:0:0:0:
329,192,165937,1,0,0:0:0:0:
36,192,165937,128,0,166218:0:0:0:0:
182,192,166124,1,0,0:0:0:0:
256,192,166124,128,0,166405:0:0:0:0:
475,192,166124,128,0,166171:0:0:0:0:
402,192,166218,128,0,166265:0:0:0:0:
109,192,166312,1,0,0:0:0:0:
329,192,166312,1,0,0:0:0:0:
36,192,166312,128,0,166593:0:0:0:0:
475,192,166312,128,0,166593:0:0:0:0:
402,192,166405,1,0,0:0:0:0:
182,192,166405,1,0,0:0:0:0:
256,192,166499,128,0,166827:0:0:0:0:
182,192,166499,1,0,0:0:0:0:
402,192,166499,1,0,0:0:0:0:
109,192,166593,1,0,0:0:0:0:
329,192,166593,1,0,0:0:0:0:
402,192,166687,128,0,166733:0:0:0:0:
182,192,166687,128,0,166733:0:0:0:0:
36,192,166687,128,0,167038:0:0:0:0:
475,192,166687,128,0,167038:0:0:0:0:
109,192,166780,128,0,166827:0:0:0:0:
329,192,166780,128,0,166827:0:0:0:0:
182,192,166874,128,0,166944:0:0:0:0:
402,192,166874,128,0,166944:0:0:0:0:
256,192,166874,128,0,167038:0:0:0:0:
109,192,166968,128,0,167038:0:0:0:0:
329,192,166968,128,0,167038:0:0:0:0:
182,192,167062,128,0,167343:0:0:0:0:
402,192,167062,128,0,167343:0:0:0:0:
36,192,167249,128,0,167530:0:0:0:0:
256,192,167249,128,0,167530:0:0:0:0:
109,192,167249,1,0,0:0:0:0:
475,192,167249,128,0,167530:0:0:0:0:
329,192,167437,128,0,167718:0:0:0:0:
109,192,167437,128,0,167718:0:0:0:0:
182,192,167437,128,0,167718:0:0:0:0:
256,192,167624,128,0,167905:0:0:0:0:
475,192,167624,128,0,167905:0:0:0:0:
402,192,167624,128,0,167905:0:0:0:0:
36,192,167624,128,0,167718:0:0:0:0:
36,192,167812,128,0,168140:0:0:0:0:
182,192,167812,128,0,168140:0:0:0:0:
329,192,167812,128,0,168140:0:0:0:0:
109,192,167812,128,0,167905:0:0:0:0:
256,192,167999,128,0,168140:0:0:0:0:
109,192,167999,128,0,168140:0:0:0:0:
475,192,167999,128,0,168140:0:0:0:0:
402,192,167999,128,0,168140:0:0:0:0:
36,192,168187,1,0,0:0:0:0:
109,192,168187,1,0,0:0:0:0:
256,192,168187,128,0,168515:0:0:0:0:
329,192,168187,128,0,168233:0:0:0:0:
402,192,168187,128,0,168233:0:0:0:0:
475,192,168187,128,0,168233:0:0:0:0:
475,192,168280,128,0,168327:0:0:0:0:
329,192,168280,128,0,168327:0:0:0:0:
402,192,168280,128,0,168327:0:0:0:0:
182,192,168374,128,0,168421:0:0:0:0:
109,192,168374,128,0,168421:0:0:0:0:
36,192,168374,128,0,168421:0:0:0:0:
36,192,168468,128,0,168515:0:0:0:0:
109,192,168468,128,0,168515:0:0:0:0:
182,192,168468,128,0,168515:0:0:0:0:
182,192,168562,128,0,169077:0:0:0:0:
256,192,168562,1,0,0:0:0:0:
329,192,168562,128,0,168749:0:0:0:0:
475,192,168562,128,0,169077:0:0:0:0:
402,192,168562,1,0,0:0:0:0:
36,192,168749,128,0,168890:0:0:0:0:
109,192,168749,128,0,168890:0:0:0:0:
256,192,168749,128,0,168890:0:0:0:0:
402,192,168749,128,0,168890:0:0:0:0:
256,192,168937,128,0,169312:0:0:0:0:
402,192,168937,128,0,169312:0:0:0:0:
109,192,168937,128,0,169077:0:0:0:0:
36,192,168937,128,0,169077:0:0:0:0:
329,192,168937,128,0,169077:0:0:0:0:
182,192,169124,128,0,169312:0:0:0:0:
36,192,169124,128,0,169312:0:0:0:0:
109,192,169124,128,0,169312:0:0:0:0:
329,192,169124,128,0,169312:0:0:0:0:
475,192,169124,128,0,169312:0:0:0:0:
182,192,169499,128,0,169687:0:0:0:0:
329,192,169499,128,0,169624:0:0:0:0:
475,192,169499,128,0,169562:0:0:0:0:
256,192,169499,128,0,169749:0:0:0:0:
36,192,169499,128,0,169874:0:0:0:0:
475,192,169624,128,0,169999:0:0:0:0:
329,192,169687,128,0,169812:0:0:0:0:
182,192,169749,128,0,169999:0:0:0:0:
256,192,169812,128,0,169999:0:0:0:0:
329,192,169874,128,0,169999:0:0:0:0:
36,192,169937,128,0,169999:0:0:0:0:
182,192,170062,1,0,0:0:0:0:
475,192,170062,128,0,170187:0:0:0:0:
36,192,170062,128,0,170312:0:0:0:0:
329,192,170062,128,0,170249:0:0:0:0:
256,192,170062,128,0,170124:0:0:0:0:
402,192,170062,128,0,170124:0:0:0:0:
109,192,170124,128,0,170187:0:0:0:0:
182,192,170187,128,0,170374:0:0:0:0:
402,192,170249,128,0,170312:0:0:0:0:
475,192,170249,128,0,170468:0:0:0:0:
256,192,170249,128,0,170312:0:0:0:0:
109,192,170312,128,0,170562:0:0:0:0:
329,192,170312,128,0,170374:0:0:0:0:
256,192,170374,128,0,170530:0:0:0:0:
182,192,170437,128,0,170749:0:0:0:0:
36,192,170437,128,0,170749:0:0:0:0:
402,192,170437,128,0,170499:0:0:0:0:
329,192,170437,128,0,170749:0:0:0:0:
256,192,170624,128,0,170749:0:0:0:0:
402,192,170624,128,0,170749:0:0:0:0:
475,192,170624,128,0,170749:0:0:0:0:
36,192,170812,128,0,170999:0:0:0:0:
475,192,170812,128,0,170999:0:0:0:0:
256,192,170812,128,0,170999:0:0:0:0:
109,192,170812,128,0,171327:0:0:0:0:
402,192,170874,128,0,170999:0:0:0:0:
329,192,170937,128,0,171187:0:0:0:0:
182,192,170937,128,0,170999:0:0:0:0:
402,192,171093,128,0,171327:0:0:0:0:
256,192,171093,128,0,171187:0:0:0:0:
475,192,171093,128,0,171233:0:0:0:0:
36,192,171093,128,0,171327:0:0:0:0:
182,192,171093,128,0,171499:0:0:0:0:
329,192,171280,128,0,171499:0:0:0:0:
256,192,171280,128,0,171327:0:0:0:0:
475,192,171280,128,0,171327:0:0:0:0:
475,192,171374,128,0,171499:0:0:0:0:
109,192,171374,128,0,171499:0:0:0:0:
402,192,171374,128,0,171499:0:0:0:0:
36,192,171374,128,0,171499:0:0:0:0:
256,192,171374,128,0,171499:0:0:0:0:
475,192,171562,128,0,171749:0:0:0:0:
36,192,171562,128,0,171749:0:0:0:0:
329,192,171562,128,0,171749:0:0:0:0:
256,192,171562,128,0,172030:0:0:0:0:
109,192,171624,128,0,172249:0:0:0:0:
182,192,171687,128,0,171749:0:0:0:0:
402,192,171687,128,0,172093:0:0:0:0:
329,192,171843,128,0,172155:0:0:0:0:
36,192,171843,128,0,172030:0:0:0:0:
475,192,171843,128,0,172030:0:0:0:0:
182,192,171843,128,0,172030:0:0:0:0:
475,192,172124,128,0,172249:0:0:0:0:
256,192,172124,128,0,172249:0:0:0:0:
36,192,172124,128,0,172249:0:0:0:0:
182,192,172124,128,0,172249:0:0:0:0:
402,192,172187,128,0,172437:0:0:0:0:
329,192,172249,128,0,172437:0:0:0:0:
36,192,172312,128,0,172437:0:0:0:0:
109,192,172312,128,0,172812:0:0:0:0:
475,192,172312,128,0,172624:0:0:0:0:
182,192,172312,128,0,172437:0:0:0:0:
256,192,172312,128,0,172624:0:0:0:0:
402,192,172499,128,0,172874:0:0:0:0:
182,192,172499,128,0,172624:0:0:0:0:
36,192,172499,128,0,172624:0:0:0:0:
329,192,172499,128,0,172624:0:0:0:0:
36,192,172687,128,0,172749:0:0:0:0:
329,192,172687,128,0,172812:0:0:0:0:
475,192,172687,128,0,172999:0:0:0:0:
256,192,172687,128,0,172937:0:0:0:0:
182,192,172749,128,0,172874:0:0:0:0:
36,192,172874,128,0,172999:0:0:0:0:
329,192,172874,128,0,173124:0:0:0:0:
109,192,172937,128,0,173124:0:0:0:0:
402,192,172937,128,0,173062:0:0:0:0:
182,192,172999,128,0,173062:0:0:0:0:
475,192,173062,128,0,173187:0:0:0:0:
36,192,173062,128,0,173374:0:0:0:0:
256,192,173062,128,0,173187:0:0:0:0:
402,192,173124,128,0,173374:0:0:0:0:
182,192,173124,128,0,173249:0:0:0:0:
329,192,173187,128,0,173249:0:0:0:0:
109,192,173187,128,0,173312:0:0:0:0:
475,192,173249,128,0,173562:0:0:0:0:
256,192,173249,128,0,173374:0:0:0:0:
182,192,173312,128,0,173562:0:0:0:0:
109,192,173374,128,0,173437:0:0:0:0:
329,192,173437,128,0,173562:0:0:0:0:
36,192,173437,128,0,173749:0:0:0:0:
402,192,173437,128,0,173749:0:0:0:0:
256,192,173437,128,0,173749:0:0:0:0:
109,192,173624,128,0,173749:0:0:0:0:
329,192,173624,128,0,173749:0:0:0:0:
475,192,173624,128,0,173749:0:0:0:0:
182,192,173624,128,0,173749:0:0:0:0:
182,192,173812,128,0,173874:0:0:0:0:
475,192,173812,128,0,173999:0:0:0:0:
256,192,173812,128,0,174499:0:0:0:0:
36,192,173812,128,0,173999:0:0:0:0:
109,192,173812,128,0,173937:0:0:0:0:
402,192,173874,128,0,173999:0:0:0:0:
329,192,173937,128,0,173999:0:0:0:0:
182,192,174093,128,0,174327:0:0:0:0:
475,192,174093,128,0,174187:0:0:0:0:
36,192,174093,128,0,174187:0:0:0:0:
402,192,174093,128,0,174187:0:0:0:0:
329,192,174093,128,0,174187:0:0:0:0:
109,192,174093,128,0,174499:0:0:0:0:
36,192,174280,128,0,174327:0:0:0:0:
329,192,174280,128,0,174327:0:0:0:0:
402,192,174280,128,0,174499:0:0:0:0:
475,192,174280,128,0,174327:0:0:0:0:
36,192,174374,128,0,174499:0:0:0:0:
182,192,174374,128,0,174499:0:0:0:0:
475,192,174374,128,0,174499:0:0:0:0:
329,192,174374,128,0,174499:0:0:0:0:
475,192,174562,128,0,174608:0:0:0:0:
36,192,174562,128,0,174608:0:0:0:0:
109,192,174562,128,0,174608:0:0:0:0:
402,192,174562,128,0,174608:0:0:0:0:
182,192,174562,128,0,174796:0:0:0:0:
329,192,174562,128,0,174796:0:0:0:0:
256,192,174655,128,0,174702:0:0:0:0:
475,192,174749,128,0,175077:0:0:0:0:
36,192,174749,128,0,175030:0:0:0:0:
109,192,174749,128,0,174890:0:0:0:0:
402,192,174749,128,0,174890:0:0:0:0:
329,192,174843,128,0,174890:0:0:0:0:
182,192,174843,128,0,174890:0:0:0:0:
256,192,174937,128,0,175077:0:0:0:0:
402,192,174937,128,0,175187:0:0:0:0:
109,192,174937,128,0,175187:0:0:0:0:
36,192,175124,1,0,0:0:0:0:
182,192,175124,128,0,175249:0:0:0:0:
475,192,175124,128,0,175249:0:0:0:0:
256,192,175187,128,0,175312:0:0:0:0:
329,192,175249,128,0,175374:0:0:0:0:
402,192,175312,128,0,175452:0:0:0:0:
109,192,175312,128,0,175452:0:0:0:0:
475,192,175312,128,0,175452:0:0:0:0:
36,192,175312,128,0,175452:0:0:0:0:
182,192,175312,128,0,175374:0:0:0:0:
109,192,175499,128,0,175546:0:0:0:0:
182,192,175499,128,0,175546:0:0:0:0:
329,192,175499,128,0,175546:0:0:0:0:
475,192,175593,128,0,175640:0:0:0:0:
402,192,175593,128,0,175640:0:0:0:0:
256,192,175593,128,0,175640:0:0:0:0:
36,192,175687,128,0,175999:0:0:0:0:
475,192,175687,128,0,175812:0:0:0:0:
329,192,175687,1,0,0:0:0:0:
182,192,175687,128,0,175749:0:0:0:0:
402,192,175687,128,0,175749:0:0:0:0:
109,192,175687,128,0,175812:0:0:0:0:
256,192,175749,128,0,175812:0:0:0:0:
329,192,175812,128,0,175874:0:0:0:0:
475,192,175874,128,0,175999:0:0:0:0:
182,192,175874,128,0,175937:0:0:0:0:
402,192,175937,128,0,176062:0:0:0:0:
256,192,175937,128,0,175999:0:0:0:0:
329,192,175999,128,0,176124:0:0:0:0:
109,192,175999,128,0,176062:0:0:0:0:
256,192,176062,128,0,176312:0:0:0:0:
36,192,176062,128,0,176187:0:0:0:0:
475,192,176062,128,0,176374:0:0:0:0:
182,192,176062,128,0,176187:0:0:0:0:
109,192,176124,128,0,176249:0:0:0:0:
402,192,176187,128,0,176312:0:0:0:0:
36,192,176249,128,0,176374:0:0:0:0:
329,192,176249,128,0,176374:0:0:0:0:
182,192,176249,128,0,176312:0:0:0:0:
109,192,176312,128,0,176499:0:0:0:0:
402,192,176374,128,0,176499:0:0:0:0:
256,192,176374,128,0,176499:0:0:0:0:
475,192,176437,128,0,176749:0:0:0:0:
182,192,176437,128,0,176749:0:0:0:0:
329,192,176437,128,0,176749:0:0:0:0:
36,192,176437,128,0,176749:0:0:0:0:
256,192,176624,128,0,176749:0:0:0:0:
402,192,176624,128,0,176749:0:0:0:0:
109,192,176624,128,0,176749:0:0:0:0:
475,192,176812,128,0,176999:0:0:0:0:
256,192,176812,128,0,176999:0:0:0:0:
109,192,176812,128,0,176937:0:0:0:0:
36,192,176812,128,0,176999:0:0:0:0:
402,192,176874,128,0,176999:0:0:0:0:
182,192,176874,128,0,177187:0:0:0:0:
329,192,176937,128,0,176999:0:0:0:0:
256,192,177093,128,0,177499:0:0:0:0:
475,192,177093,128,0,177187:0:0:0:0:
109,192,177093,128,0,177187:0:0:0:0:
36,192,177093,128,0,177187:0:0:0:0:
402,192,177093,128,0,177327:0:0:0:0:
182,192,177280,128,0,177327:0:0:0:0:
36,192,177280,128,0,177327:0:0:0:0:
475,192,177280,128,0,177327:0:0:0:0:
329,192,177280,128,0,177499:0:0:0:0:
182,192,177374,128,0,177499:0:0:0:0:
475,192,177374,128,0,177499:0:0:0:0:
36,192,177374,128,0,177499:0:0:0:0:
402,192,177374,128,0,177499:0:0:0:0:
475,192,177562,128,0,178030:0:0:0:0:
182,192,177562,128,0,177687:0:0:0:0:
329,192,177562,128,0,177749:0:0:0:0:
109,192,177562,128,0,177749:0:0:0:0:
36,192,177562,128,0,178030:0:0:0:0:
256,192,177624,128,0,178030:0:0:0:0:
402,192,177687,128,0,177749:0:0:0:0:
402,192,177843,128,0,178030:0:0:0:0:
109,192,177843,128,0,178030:0:0:0:0:
182,192,177843,128,0,178437:0:0:0:0:
329,192,177843,128,0,178030:0:0:0:0:
329,192,178124,1,0,0:0:0:0:
36,192,178124,128,0,178249:0:0:0:0:
256,192,178124,128,0,178249:0:0:0:0:
109,192,178124,128,0,178249:0:0:0:0:
475,192,178124,128,0,178249:0:0:0:0:
402,192,178187,128,0,178437:0:0:0:0:
329,192,178249,128,0,178624:0:0:0:0:
256,192,178312,128,0,178437:0:0:0:0:
109,192,178312,128,0,178624:0:0:0:0:
475,192,178312,128,0,178624:0:0:0:0:
36,192,178312,128,0,178437:0:0:0:0:
182,192,178499,128,0,178749:0:0:0:0:
402,192,178499,128,0,178749:0:0:0:0:
36,192,178499,128,0,178624:0:0:0:0:
256,192,178499,128,0,178624:0:0:0:0:
329,192,178687,128,0,178812:0:0:0:0:
475,192,178687,1,0,0:0:0:0:
109,192,178687,128,0,178812:0:0:0:0:
36,192,178687,128,0,178874:0:0:0:0:
256,192,178749,128,0,178874:0:0:0:0:
182,192,178812,128,0,178937:0:0:0:0:
475,192,178812,128,0,178999:0:0:0:0:
402,192,178874,128,0,178999:0:0:0:0:
109,192,178874,128,0,178999:0:0:0:0:
329,192,178937,128,0,179124:0:0:0:0:
36,192,178937,128,0,178999:0:0:0:0:
256,192,178999,128,0,179062:0:0:0:0:
402,192,179062,128,0,179187:0:0:0:0:
182,192,179062,128,0,179187:0:0:0:0:
36,192,179062,128,0,179124:0:0:0:0:
475,192,179062,128,0,179374:0:0:0:0:
109,192,179124,128,0,179249:0:0:0:0:
256,192,179124,128,0,179312:0:0:0:0:
329,192,179187,128,0,179374:0:0:0:0:
36,192,179249,128,0,179374:0:0:0:0:
402,192,179249,128,0,179562:0:0:0:0:
182,192,179249,128,0,179374:0:0:0:0:
109,192,179312,128,0,179562:0:0:0:0:
256,192,179374,128,0,179562:0:0:0:0:
36,192,179437,128,0,179562:0:0:0:0:
475,192,179437,128,0,179562:0:0:0:0:
182,192,179437,128,0,179562:0:0:0:0:
329,192,179437,128,0,179562:0:0:0:0:
256,192,179624,128,0,179749:0:0:0:0:
475,192,179624,128,0,179749:0:0:0:0:
402,192,179624,128,0,179749:0:0:0:0:
36,192,179624,128,0,179749:0:0:0:0:
109,192,179624,128,0,179749:0:0:0:0:
182,192,179812,128,0,179874:0:0:0:0:
109,192,179812,128,0,179874:0:0:0:0:
36,192,179812,128,0,179874:0:0:0:0:
329,192,179812,128,0,179874:0:0:0:0:
402,192,179812,128,0,179874:0:0:0:0:
475,192,179812,128,0,179874:0:0:0:0:
402,192,179999,1,0,0:0:0:0:
329,192,179999,1,0,0:0:0:0:
182,192,179999,1,0,0:0:0:0:
109,192,179999,1,0,0:0:0:0:
475,192,180093,128,0,180499:0:0:0:0:
402,192,180093,128,0,180155:0:0:0:0:
36,192,180093,128,0,180499:0:0:0:0:
329,192,180093,128,0,180218:0:0:0:0:
182,192,180093,128,0,180249:0:0:0:0:
256,192,180187,128,0,180312:0:0:0:0:
109,192,180187,128,0,180312:0:0:0:0:
402,192,180249,128,0,180374:0:0:0:0:
329,192,180312,128,0,180499:0:0:0:0:
182,192,180312,128,0,180499:0:0:0:0:
109,192,180374,128,0,180499:0:0:0:0:
256,192,180374,128,0,180499:0:0:0:0:
402,192,180437,128,0,180499:0:0:0:0:
475,192,180562,128,0,180702:0:0:0:0:
109,192,180562,128,0,180702:0:0:0:0:
36,192,180562,128,0,180702:0:0:0:0:
182,192,180562,128,0,180702:0:0:0:0:
402,192,180562,128,0,180890:0:0:0:0:
329,192,180562,128,0,180608:0:0:0:0:
256,192,180562,128,0,180796:0:0:0:0:
329,192,180749,128,0,181077:0:0:0:0:
36,192,180749,128,0,180890:0:0:0:0:
109,192,180749,128,0,180796:0:0:0:0:
475,192,180749,128,0,180890:0:0:0:0:
182,192,180749,128,0,181077:0:0:0:0:
256,192,180843,128,0,180983:0:0:0:0:
109,192,180937,128,0,181077:0:0:0:0:
402,192,180937,128,0,181077:0:0:0:0:
36,192,180937,128,0,181077:0:0:0:0:
475,192,180937,128,0,180983:0:0:0:0:
256,192,181030,128,0,181077:0:0:0:0:
182,192,181124,128,0,181452:0:0:0:0:
36,192,181124,128,0,181452:0:0:0:0:
475,192,181124,128,0,181452:0:0:0:0:
329,192,181124,128,0,181452:0:0:0:0:
109,192,181124,128,0,181171:0:0:0:0:
402,192,181124,128,0,181171:0:0:0:0:
256,192,181499,128,0,181687:0:0:0:0:
402,192,181499,128,0,181749:0:0:0:0:
329,192,181499,1,0,0:0:0:0:
109,192,181499,128,0,181624:0:0:0:0:
475,192,181499,128,0,181812:0:0:0:0:
36,192,181499,128,0,181624:0:0:0:0:
182,192,181499,1,0,0:0:0:0:
329,192,181687,128,0,181812:0:0:0:0:
109,192,181687,128,0,181749:0:0:0:0:
36,192,181687,128,0,181999:0:0:0:0:
182,192,181687,128,0,181749:0:0:0:0:
256,192,181749,128,0,181874:0:0:0:0:
182,192,181812,128,0,181937:0:0:0:0:
402,192,181874,128,0,181937:0:0:0:0:
109,192,181874,128,0,181999:0:0:0:0:
475,192,181874,128,0,181999:0:0:0:0:
329,192,181937,128,0,181999:0:0:0:0:
256,192,181999,128,0,182062:0:0:0:0:
475,192,182062,128,0,182562:0:0:0:0:
402,192,182062,128,0,182249:0:0:0:0:
36,192,182062,128,0,182374:0:0:0:0:
109,192,182062,128,0,182187:0:0:0:0:
182,192,182062,128,0,182124:0:0:0:0:
329,192,182124,128,0,182187:0:0:0:0:
256,192,182187,128,0,182374:0:0:0:0:
182,192,182249,128,0,182312:0:0:0:0:
329,192,182312,128,0,182499:0:0:0:0:
109,192,182312,128,0,182437:0:0:0:0:
402,192,182374,128,0,182437:0:0:0:0:
36,192,182437,128,0,182562:0:0:0:0:
256,192,182437,128,0,182624:0:0:0:0:
182,192,182437,128,0,182499:0:0:0:0:
109,192,182499,128,0,182874:0:0:0:0:
402,192,182499,128,0,182624:0:0:0:0:
329,192,182562,128,0,182749:0:0:0:0:
182,192,182624,128,0,182749:0:0:0:0:
36,192,182624,128,0,182749:0:0:0:0:
475,192,182624,128,0,182812:0:0:0:0:
256,192,182687,128,0,182874:0:0:0:0:
402,192,182749,128,0,182874:0:0:0:0:
329,192,182812,128,0,182999:0:0:0:0:
182,192,182812,128,0,182999:0:0:0:0:
36,192,182812,128,0,182937:0:0:0:0:
475,192,182874,128,0,183062:0:0:0:0:
256,192,182937,128,0,183124:0:0:0:0:
109,192,182937,128,0,183124:0:0:0:0:
36,192,182999,128,0,183062:0:0:0:0:
402,192,182999,128,0,183062:0:0:0:0:
182,192,183062,128,0,183249:0:0:0:0:
329,192,183062,128,0,183249:0:0:0:0:
475,192,183124,128,0,183249:0:0:0:0:
36,192,183187,128,0,183312:0:0:0:0:
402,192,183187,128,0,183499:0:0:0:0:
256,192,183187,128,0,183312:0:0:0:0:
109,192,183249,128,0,183312:0:0:0:0:
329,192,183312,128,0,183624:0:0:0:0:
182,192,183312,128,0,183374:0:0:0:0:
475,192,183312,128,0,183499:0:0:0:0:
256,192,183374,128,0,183437:0:0:0:0:
36,192,183374,128,0,183687:0:0:0:0:
109,192,183437,128,0,183562:0:0:0:0:
182,192,183499,128,0,183562:0:0:0:0:
256,192,183562,128,0,184062:0:0:0:0:
402,192,183562,128,0,183687:0:0:0:0:
475,192,183562,128,0,183874:0:0:0:0:
109,192,183624,128,0,183687:0:0:0:0:
182,192,183687,128,0,183749:0:0:0:0:
329,192,183749,128,0,183812:0:0:0:0:
36,192,183749,128,0,183874:0:0:0:0:
109,192,183812,128,0,183937:0:0:0:0:
402,192,183812,128,0,183874:0:0:0:0:
182,192,183874,128,0,183999:0:0:0:0:
36,192,183937,128,0,184062:0:0:0:0:
329,192,183937,128,0,183999:0:0:0:0:
402,192,183937,1,0,0:0:0:0:
475,192,183937,128,0,184249:0:0:0:0:
109,192,183999,128,0,184249:0:0:0:0:
402,192,184062,128,0,184312:0:0:0:0:
182,192,184062,128,0,184124:0:0:0:0:
36,192,184124,128,0,184249:0:0:0:0:
329,192,184124,128,0,184187:0:0:0:0:
256,192,184187,128,0,184249:0:0:0:0:
182,192,184249,128,0,184312:0:0:0:0:
475,192,184312,128,0,184437:0:0:0:0:
36,192,184312,128,0,184437:0:0:0:0:
109,192,184312,128,0,184437:0:0:0:0:
329,192,184312,128,0,184437:0:0:0:0:
402,192,184374,128,0,184624:0:0:0:0:
256,192,184374,128,0,184499:0:0:0:0:
182,192,184437,128,0,184562:0:0:0:0:
36,192,184499,128,0,184624:0:0:0:0:
109,192,184499,128,0,184687:0:0:0:0:
329,192,184499,128,0,184624:0:0:0:0:
475,192,184499,128,0,184999:0:0:0:0:
256,192,184562,128,0,184749:0:0:0:0:
182,192,184624,128,0,184687:0:0:0:0:
402,192,184687,128,0,184812:0:0:0:0:
36,192,184687,128,0,184999:0:0:0:0:
329,192,184687,128,0,184874:0:0:0:0:
109,192,184749,128,0,184874:0:0:0:0:
182,192,184812,128,0,184937:0:0:0:0:
402,192,184874,128,0,184999:0:0:0:0:
256,192,184874,128,0,184999:0:0:0:0:
329,192,184937,128,0,185062:0:0:0:0:
109,192,184999,128,0,185062:0:0:0:0:
402,192,185062,128,0,185124:0:0:0:0:
182,192,185062,128,0,185124:0:0:0:0:
475,192,185062,128,0,185374:0:0:0:0:
36,192,185062,128,0,185187:0:0:0:0:
256,192,185062,128,0,185187:0:0:0:0:
329,192,185124,128,0,185624:0:0:0:0:
109,192,185187,128,0,185312:0:0:0:0:
36,192,185249,128,0,185374:0:0:0:0:
402,192,185249,1,0,0:0:0:0:
182,192,185249,128,0,185437:0:0:0:0:
256,192,185312,128,0,185374:0:0:0:0:
402,192,185374,128,0,185437:0:0:0:0:
109,192,185437,128,0,185499:0:0:0:0:
36,192,185437,128,0,185687:0:0:0:0:
256,192,185437,128,0,185562:0:0:0:0:
475,192,185437,128,0,185749:0:0:0:0:
182,192,185499,128,0,185687:0:0:0:0:
109,192,185562,128,0,185749:0:0:0:0:
402,192,185562,128,0,185874:0:0:0:0:
256,192,185624,128,0,185749:0:0:0:0:
329,192,185687,128,0,185812:0:0:0:0:
182,192,185749,128,0,185874:0:0:0:0:
475,192,185812,128,0,185937:0:0:0:0:
36,192,185812,128,0,185937:0:0:0:0:
256,192,185812,128,0,186187:0:0:0:0:
109,192,185874,128,0,185999:0:0:0:0:
329,192,185874,128,0,185999:0:0:0:0:
182,192,185937,128,0,186062:0:0:0:0:
402,192,185937,128,0,186062:0:0:0:0:
36,192,185999,128,0,186124:0:0:0:0:
475,192,185999,128,0,186124:0:0:0:0:
109,192,186062,128,0,186437:0:0:0:0:
329,192,186124,128,0,186249:0:0:0:0:
182,192,186124,128,0,186249:0:0:0:0:
475,192,186187,128,0,186499:0:0:0:0:
36,192,186187,128,0,186312:0:0:0:0:
402,192,186187,1,0,0:0:0:0:
256,192,186249,128,0,186312:0:0:0:0:
402,192,186312,128,0,186874:0:0:0:0:
182,192,186312,128,0,186374:0:0:0:0:
329,192,186374,128,0,186499:0:0:0:0:
36,192,186374,128,0,186687:0:0:0:0:
256,192,186437,128,0,186687:0:0:0:0:
182,192,186499,128,0,186687:0:0:0:0:
329,192,186562,128,0,187187:0:0:0:0:
109,192,186562,128,0,186874:0:0:0:0:
475,192,186562,128,0,186687:0:0:0:0:
182,192,186749,128,0,187062:0:0:0:0:
36,192,186749,128,0,187062:0:0:0:0:
475,192,186749,128,0,187374:0:0:0:0:
256,192,186749,128,0,186874:0:0:0:0:
402,192,186937,128,0,187249:0:0:0:0:
256,192,186937,128,0,187124:0:0:0:0:
109,192,186937,128,0,186999:0:0:0:0:
109,192,187124,128,0,187249:0:0:0:0:
36,192,187124,128,0,187249:0:0:0:0:
182,192,187187,128,0,187374:0:0:0:0:
256,192,187249,128,0,187374:0:0:0:0:
109,192,187312,128,0,187374:0:0:0:0:
36,192,187312,128,0,187374:0:0:0:0:
329,192,187312,128,0,187374:0:0:0:0:
402,192,187312,128,0,187374:0:0:0:0:
109,192,187499,128,0,187546:0:0:0:0:
256,192,187499,128,0,187546:0:0:0:0:
402,192,187499,128,0,187546:0:0:0:0:
256,192,187593,128,0,187640:0:0:0:0:
402,192,187593,128,0,187640:0:0:0:0:
109,192,187593,128,0,187640:0:0:0:0:
402,192,187687,128,0,187812:0:0:0:0:
182,192,187687,128,0,187812:0:0:0:0:
36,192,187687,128,0,187999:0:0:0:0:
475,192,187687,128,0,187999:0:0:0:0:
329,192,187749,128,0,187874:0:0:0:0:
109,192,187749,128,0,187874:0:0:0:0:
256,192,187812,128,0,187999:0:0:0:0:
182,192,187874,128,0,187999:0:0:0:0:
402,192,187874,128,0,187999:0:0:0:0:
329,192,187937,128,0,187999:0:0:0:0:
109,192,187937,128,0,187999:0:0:0:0:
36,192,188062,128,0,188374:0:0:0:0:
256,192,188062,128,0,188249:0:0:0:0:
475,192,188062,128,0,188374:0:0:0:0:
182,192,188062,1,0,0:0:0:0:
329,192,188062,1,0,0:0:0:0:
402,192,188062,128,0,188124:0:0:0:0:
109,192,188124,128,0,188249:0:0:0:0:
329,192,188187,128,0,188374:0:0:0:0:
182,192,188187,128,0,188312:0:0:0:0:
402,192,188249,128,0,188312:0:0:0:0:
109,192,188312,128,0,188562:0:0:0:0:
256,192,188312,128,0,188437:0:0:0:0:
182,192,188374,128,0,188687:0:0:0:0:
36,192,188437,128,0,188749:0:0:0:0:
475,192,188437,128,0,188624:0:0:0:0:
402,192,188437,128,0,188499:0:0:0:0:
256,192,188499,128,0,188624:0:0:0:0:
329,192,188562,128,0,188749:0:0:0:0:
109,192,188624,128,0,188749:0:0:0:0:
402,192,188624,128,0,188687:0:0:0:0:
256,192,188687,128,0,188812:0:0:0:0:
475,192,188687,128,0,188874:0:0:0:0:
182,192,188749,128,0,188999:0:0:0:0:
329,192,188812,128,0,188874:0:0:0:0:
36,192,188812,128,0,189124:0:0:0:0:
109,192,188812,128,0,188937:0:0:0:0:
402,192,188874,128,0,188937:0:0:0:0:
475,192,188937,128,0,189062:0:0:0:0:
256,192,188937,128,0,189062:0:0:0:0:
329,192,188999,128,0,189124:0:0:0:0:
402,192,189062,128,0,189187:0:0:0:0:
109,192,189062,128,0,189312:0:0:0:0:
182,192,189124,128,0,189249:0:0:0:0:
475,192,189124,128,0,189312:0:0:0:0:
256,192,189187,128,0,189374:0:0:0:0:
36,192,189187,128,0,189312:0:0:0:0:
329,192,189249,128,0,189499:0:0:0:0:
402,192,189312,128,0,189437:0:0:0:0:
182,192,189312,128,0,189437:0:0:0:0:
109,192,189374,128,0,189499:0:0:0:0:
475,192,189374,128,0,189687:0:0:0:0:
36,192,189374,128,0,189499:0:0:0:0:
256,192,189437,128,0,189562:0:0:0:0:
182,192,189499,128,0,189624:0:0:0:0:
402,192,189562,128,0,189812:0:0:0:0:
36,192,189562,128,0,189749:0:0:0:0:
109,192,189562,128,0,189687:0:0:0:0:
329,192,189624,128,0,189749:0:0:0:0:
256,192,189687,128,0,189874:0:0:0:0:
182,192,189749,128,0,189812:0:0:0:0:
475,192,189749,128,0,189874:0:0:0:0:
329,192,189812,128,0,190062:0:0:0:0:
36,192,189812,128,0,190062:0:0:0:0:
402,192,189874,128,0,190062:0:0:0:0:
109,192,189874,128,0,190062:0:0:0:0:
475,192,189937,128,0,190249:0:0:0:0:
182,192,189937,128,0,190062:0:0:0:0:
256,192,189999,128,0,190249:0:0:0:0:
329,192,190124,128,0,190249:0:0:0:0:
109,192,190124,128,0,190249:0:0:0:0:
36,192,190124,128,0,190249:0:0:0:0:
402,192,190124,128,0,190249:0:0:0:0:
182,192,190124,128,0,190249:0:0:0:0:
475,192,190312,128,0,190546:0:0:0:0:
36,192,190312,128,0,190546:0:0:0:0:
256,192,190312,128,0,190499:0:0:0:0:
402,192,190312,128,0,190546:0:0:0:0:
109,192,190312,128,0,190546:0:0:0:0:
329,192,190499,128,0,191015:0:0:0:0:
182,192,190499,128,0,191015:0:0:0:0:
475,192,190593,128,0,190827:0:0:0:0:
36,192,190593,128,0,190827:0:0:0:0:
402,192,190593,128,0,190827:0:0:0:0:
109,192,190593,128,0,190827:0:0:0:0:
256,192,190593,128,0,190827:0:0:0:0:
402,192,190874,128,0,191015:0:0:0:0:
36,192,190874,128,0,191015:0:0:0:0:
256,192,190874,128,0,191015:0:0:0:0:
475,192,190874,128,0,191015:0:0:0:0:
109,192,190874,128,0,191015:0:0:0:0:
36,192,191062,128,0,191562:0:0:0:0:
475,192,191062,128,0,191562:0:0:0:0:
109,192,191062,128,0,191187:0:0:0:0:
402,192,191062,1,0,0:0:0:0:
329,192,191062,128,0,191187:0:0:0:0:
182,192,191124,128,0,191312:0:0:0:0:
256,192,191187,128,0,191249:0:0:0:0:
402,192,191249,128,0,191312:0:0:0:0:
109,192,191249,128,0,191390:0:0:0:0:
329,192,191312,128,0,191374:0:0:0:0:
256,192,191374,128,0,191687:0:0:0:0:
329,192,191437,128,0,191562:0:0:0:0:
182,192,191437,1,0,0:0:0:0:
402,192,191437,1,0,0:0:0:0:
109,192,191499,128,0,191562:0:0:0:0:
402,192,191624,128,0,191937:0:0:0:0:
109,192,191624,128,0,191937:0:0:0:0:
475,192,191624,128,0,191687:0:0:0:0:
182,192,191624,128,0,191749:0:0:0:0:
36,192,191624,1,0,0:0:0:0:
329,192,191687,128,0,191812:0:0:0:0:
256,192,191749,128,0,191874:0:0:0:0:
36,192,191812,128,0,191937:0:0:0:0:
475,192,191812,128,0,191937:0:0:0:0:
182,192,191874,128,0,192124:0:0:0:0:
329,192,191937,128,0,192124:0:0:0:0:
256,192,191999,128,0,192249:0:0:0:0:
36,192,191999,128,0,192124:0:0:0:0:
475,192,191999,128,0,192124:0:0:0:0:
402,192,191999,1,0,0:0:0:0:
109,192,191999,1,0,0:0:0:0:
475,192,192187,128,0,192687:0:0:0:0:
36,192,192187,128,0,192249:0:0:0:0:
329,192,192187,128,0,192687:0:0:0:0:
182,192,192187,1,0,0:0:0:0:
402,192,192187,128,0,192249:0:0:0:0:
109,192,192249,128,0,192312:0:0:0:0:
182,192,192312,128,0,192374:0:0:0:0:
402,192,192374,128,0,192437:0:0:0:0:
36,192,192437,128,0,192687:0:0:0:0:
256,192,192437,128,0,192499:0:0:0:0:
109,192,192499,128,0,192687:0:0:0:0:
182,192,192562,128,0,192687:0:0:0:0:
402,192,192562,128,0,192687:0:0:0:0:
475,192,192749,1,0,0:0:0:0:
329,192,192749,128,0,192937:0:0:0:0:
182,192,192749,128,0,192812:0:0:0:0:
402,192,192749,1,0,0:0:0:0:
109,192,192749,1,0,0:0:0:0:
36,192,192749,1,0,0:0:0:0:
256,192,192749,128,0,192874:0:0:0:0:
182,192,192874,128,0,193062:0:0:0:0:
256,192,192937,128,0,193062:0:0:0:0:
329,192,192999,128,0,193062:0:0:0:0:
329,192,193312,128,0,194015:0:0:0:0:
475,192,193312,128,0,194015:0:0:0:0:
109,192,193312,128,0,193358:0:0:0:0:
36,192,193312,128,0,194015:0:0:0:0:
182,192,193312,1,0,0:0:0:0:
402,192,193312,1,0,0:0:0:0:
256,192,193405,128,0,193452:0:0:0:0:
182,192,193499,128,0,193546:0:0:0:0:
109,192,193593,128,0,193780:0:0:0:0:
182,192,193687,128,0,194015:0:0:0:0:
256,192,193780,128,0,194015:0:0:0:0:
109,192,193874,128,0,194015:0:0:0:0:
402,192,193874,128,0,194015:0:0:0:0:
329,192,194062,128,0,194483:0:0:0:0:
36,192,194062,128,0,194108:0:0:0:0:
256,192,194062,128,0,194296:0:0:0:0:
109,192,194062,128,0,194155:0:0:0:0:
475,192,194062,128,0,194108:0:0:0:0:
402,192,194062,128,0,194155:0:0:0:0:
475,192,194249,128,0,194296:0:0:0:0:
182,192,194249,128,0,194530:0:0:0:0:
36,192,194249,128,0,194343:0:0:0:0:
402,192,194249,128,0,194343:0:0:0:0:
402,192,194437,128,0,194765:0:0:0:0:
256,192,194437,128,0,194671:0:0:0:0:
36,192,194437,128,0,194577:0:0:0:0:
475,192,194437,128,0,194483:0:0:0:0:
109,192,194437,128,0,194765:0:0:0:0:
182,192,194624,128,0,194952:0:0:0:0:
475,192,194624,128,0,194765:0:0:0:0:
36,192,194624,128,0,194671:0:0:0:0:
256,192,194812,128,0,194905:0:0:0:0:
402,192,194812,128,0,194858:0:0:0:0:
36,192,194812,128,0,194858:0:0:0:0:
329,192,194812,128,0,195046:0:0:0:0:
475,192,194812,128,0,194858:0:0:0:0:
109,192,194812,128,0,195093:0:0:0:0:
256,192,194999,128,0,195233:0:0:0:0:
36,192,194999,128,0,195468:0:0:0:0:
402,192,194999,128,0,195233:0:0:0:0:
475,192,194999,128,0,195093:0:0:0:0:
475,192,195187,128,0,195327:0:0:0:0:
109,192,195187,128,0,195233:0:0:0:0:
182,192,195187,128,0,195327:0:0:0:0:
329,192,195187,128,0,195702:0:0:0:0:
109,192,195374,128,0,195608:0:0:0:0:
402,192,195374,128,0,195421:0:0:0:0:
256,192,195374,128,0,195468:0:0:0:0:
475,192,195374,128,0,195468:0:0:0:0:
182,192,195562,128,0,195890:0:0:0:0:
402,192,195562,128,0,195890:0:0:0:0:
475,192,195562,128,0,195890:0:0:0:0:
36,192,195562,128,0,195702:0:0:0:0:
256,192,195562,128,0,195655:0:0:0:0:
109,192,195749,128,0,196265:0:0:0:0:
256,192,195749,128,0,195796:0:0:0:0:
402,192,195937,128,0,196077:0:0:0:0:
36,192,195937,128,0,196030:0:0:0:0:
256,192,195937,128,0,196030:0:0:0:0:
182,192,195937,128,0,196171:0:0:0:0:
475,192,195937,128,0,196218:0:0:0:0:
329,192,195937,128,0,195983:0:0:0:0:
402,192,196124,128,0,196452:0:0:0:0:
329,192,196124,128,0,196171:0:0:0:0:
36,192,196124,128,0,196171:0:0:0:0:
256,192,196124,128,0,196265:0:0:0:0:
109,192,196312,128,0,196358:0:0:0:0:
475,192,196312,128,0,196593:0:0:0:0:
329,192,196312,128,0,196358:0:0:0:0:
182,192,196312,128,0,196593:0:0:0:0:
256,192,196312,128,0,196405:0:0:0:0:
36,192,196312,128,0,196358:0:0:0:0:
109,192,196499,128,0,196733:0:0:0:0:
329,192,196499,128,0,196593:0:0:0:0:
36,192,196499,128,0,196546:0:0:0:0:
36,192,196687,128,0,196733:0:0:0:0:
182,192,196687,128,0,196780:0:0:0:0:
475,192,196687,128,0,196733:0:0:0:0:
402,192,196687,128,0,196968:0:0:0:0:
256,192,196687,128,0,196827:0:0:0:0:
109,192,196874,128,0,197202:0:0:0:0:
329,192,196874,128,0,197155:0:0:0:0:
36,192,196874,128,0,196968:0:0:0:0:
182,192,196874,128,0,196921:0:0:0:0:
475,192,196874,128,0,196921:0:0:0:0:
256,192,196968,1,0,0:0:0:0:
256,192,197062,128,0,197108:0:0:0:0:
182,192,197062,128,0,197343:0:0:0:0:
36,192,197062,128,0,197108:0:0:0:0:
475,192,197062,128,0,197765:0:0:0:0:
402,192,197062,128,0,197296:0:0:0:0:
36,192,197249,128,0,197765:0:0:0:0:
256,192,197249,128,0,197483:0:0:0:0:
329,192,197249,128,0,197296:0:0:0:0:
109,192,197437,128,0,197577:0:0:0:0:
402,192,197437,128,0,197483:0:0:0:0:
329,192,197437,128,0,197765:0:0:0:0:
182,192,197437,128,0,197530:0:0:0:0:
402,192,197624,128,0,197858:0:0:0:0:
182,192,197624,128,0,197671:0:0:0:0:
256,192,197624,128,0,197765:0:0:0:0:
475,192,197812,128,0,198046:0:0:0:0:
109,192,197812,128,0,198140:0:0:0:0:
329,192,197812,128,0,197952:0:0:0:0:
36,192,197812,128,0,197858:0:0:0:0:
256,192,197812,128,0,198140:0:0:0:0:
182,192,197812,128,0,197905:0:0:0:0:
402,192,197999,128,0,198327:0:0:0:0:
182,192,197999,128,0,198046:0:0:0:0:
36,192,197999,128,0,198046:0:0:0:0:
329,192,198093,128,0,198233:0:0:0:0:
256,192,198187,128,0,198515:0:0:0:0:
182,192,198187,128,0,198327:0:0:0:0:
109,192,198187,128,0,198421:0:0:0:0:
475,192,198187,128,0,198515:0:0:0:0:
36,192,198187,128,0,198233:0:0:0:0:
36,192,198374,128,0,198515:0:0:0:0:
329,192,198374,128,0,198421:0:0:0:0:
329,192,198562,128,0,199124:0:0:0:0:
402,192,198562,128,0,198702:0:0:0:0:
475,192,198562,128,0,198608:0:0:0:0:
109,192,198562,128,0,198655:0:0:0:0:
256,192,198562,128,0,198655:0:0:0:0:
182,192,198562,128,0,198890:0:0:0:0:
36,192,198562,128,0,198890:0:0:0:0:
109,192,198749,128,0,199265:0:0:0:0:
256,192,198749,128,0,198796:0:0:0:0:
475,192,198749,128,0,198890:0:0:0:0:
402,192,198843,128,0,199265:0:0:0:0:
36,192,198937,128,0,199171:0:0:0:0:
182,192,198937,128,0,199640:0:0:0:0:
256,192,198937,128,0,199030:0:0:0:0:
475,192,198937,128,0,199077:0:0:0:0:
475,192,199124,128,0,199452:0:0:0:0:
256,192,199124,128,0,199171:0:0:0:0:
36,192,199218,128,0,199452:0:0:0:0:
329,192,199218,128,0,199265:0:0:0:0:
256,192,199312,128,0,199452:0:0:0:0:
329,192,199312,128,0,199827:0:0:0:0:
402,192,199312,128,0,199452:0:0:0:0:
109,192,199312,128,0,199358:0:0:0:0:
36,192,199499,128,0,199640:0:0:0:0:
256,192,199499,128,0,199640:0:0:0:0:
109,192,199499,128,0,199640:0:0:0:0:
402,192,199499,128,0,199546:0:0:0:0:
475,192,199499,128,0,199640:0:0:0:0:
109,192,199687,128,0,200015:0:0:0:0:
256,192,199687,128,0,199921:0:0:0:0:
402,192,199687,128,0,200015:0:0:0:0:
182,192,199687,128,0,199827:0:0:0:0:
475,192,199687,128,0,199733:0:0:0:0:
36,192,199687,128,0,199733:0:0:0:0:
475,192,199874,128,0,200015:0:0:0:0:
36,192,199874,128,0,200015:0:0:0:0:
182,192,199874,128,0,200015:0:0:0:0:
329,192,199874,128,0,200202:0:0:0:0:
402,192,200062,128,0,200108:0:0:0:0:
182,192,200062,128,0,200765:0:0:0:0:
256,192,200062,128,0,200202:0:0:0:0:
36,192,200062,128,0,200155:0:0:0:0:
475,192,200062,128,0,200343:0:0:0:0:
109,192,200062,128,0,200390:0:0:0:0:
402,192,200249,128,0,200483:0:0:0:0:
329,192,200249,128,0,200343:0:0:0:0:
36,192,200249,128,0,200296:0:0:0:0:
36,192,200437,128,0,200577:0:0:0:0:
475,192,200437,128,0,201093:0:0:0:0:
329,192,200437,128,0,200765:0:0:0:0:
109,192,200437,128,0,200483:0:0:0:0:
256,192,200437,128,0,200530:0:0:0:0:
256,192,200624,128,0,200905:0:0:0:0:
109,192,200624,128,0,200671:0:0:0:0:
402,192,200624,128,0,200671:0:0:0:0:
36,192,200624,128,0,200952:0:0:0:0:
402,192,200812,128,0,201280:0:0:0:0:
109,192,200812,128,0,200858:0:0:0:0:
182,192,200812,128,0,201046:0:0:0:0:
329,192,200812,128,0,200858:0:0:0:0:
36,192,200999,128,0,201093:0:0:0:0:
109,192,200999,128,0,201327:0:0:0:0:
329,192,200999,128,0,201046:0:0:0:0:
256,192,200999,128,0,201233:0:0:0:0:
182,192,201187,128,0,201468:0:0:0:0:
329,192,201187,128,0,201327:0:0:0:0:
36,192,201187,128,0,201233:0:0:0:0:
475,192,201187,128,0,201468:0:0:0:0:
36,192,201374,128,0,201702:0:0:0:0:
256,192,201374,128,0,201702:0:0:0:0:
402,192,201374,128,0,201421:0:0:0:0:
109,192,201562,128,0,201608:0:0:0:0:
402,192,201562,128,0,201702:0:0:0:0:
182,192,201562,128,0,201890:0:0:0:0:
329,192,201562,128,0,201608:0:0:0:0:
475,192,201562,128,0,202265:0:0:0:0:
36,192,201749,128,0,201796:0:0:0:0:
256,192,201749,128,0,201796:0:0:0:0:
329,192,201749,128,0,201890:0:0:0:0:
109,192,201749,128,0,202265:0:0:0:0:
36,192,201937,128,0,202030:0:0:0:0:
329,192,201937,128,0,202265:0:0:0:0:
402,192,201937,128,0,201983:0:0:0:0:
256,192,201937,128,0,202171:0:0:0:0:
402,192,202124,128,0,202499:0:0:0:0:
36,192,202124,128,0,202265:0:0:0:0:
182,192,202124,128,0,202265:0:0:0:0:
109,192,202312,128,0,202733:0:0:0:0:
475,192,202312,128,0,202405:0:0:0:0:
329,192,202312,128,0,202593:0:0:0:0:
36,192,202312,128,0,202405:0:0:0:0:
182,192,202312,128,0,202405:0:0:0:0:
256,192,202312,128,0,202405:0:0:0:0:
182,192,202499,128,0,202546:0:0:0:0:
36,192,202499,128,0,202593:0:0:0:0:
475,192,202499,128,0,202733:0:0:0:0:
256,192,202499,128,0,202827:0:0:0:0:
402,192,202593,128,0,203015:0:0:0:0:
36,192,202687,128,0,202812:0:0:0:0:
329,192,202687,128,0,202733:0:0:0:0:
182,192,202687,128,0,203015:0:0:0:0:
329,192,202874,128,0,203155:0:0:0:0:
36,192,202874,128,0,203015:0:0:0:0:
475,192,202874,128,0,203015:0:0:0:0:
109,192,202874,128,0,202921:0:0:0:0:
36,192,203062,128,0,203483:0:0:0:0:
402,192,203062,128,0,203483:0:0:0:0:
256,192,203062,128,0,203296:0:0:0:0:
109,192,203062,128,0,203108:0:0:0:0:
182,192,203062,128,0,203108:0:0:0:0:
475,192,203062,128,0,203202:0:0:0:0:
182,192,203249,128,0,203483:0:0:0:0:
475,192,203249,128,0,203390:0:0:0:0:
109,192,203249,128,0,203296:0:0:0:0:
329,192,203249,128,0,203390:0:0:0:0:
475,192,203437,128,0,203483:0:0:0:0:
329,192,203437,128,0,203624:0:0:0:0:
109,192,203437,128,0,203577:0:0:0:0:
256,192,203437,128,0,203483:0:0:0:0:
475,192,203530,128,0,203765:0:0:0:0:
182,192,203530,128,0,203671:0:0:0:0:
256,192,203624,128,0,203765:0:0:0:0:
402,192,203624,128,0,203671:0:0:0:0:
36,192,203624,128,0,203671:0:0:0:0:
109,192,203624,128,0,203671:0:0:0:0:
329,192,203718,128,0,203858:0:0:0:0:
36,192,203718,128,0,203858:0:0:0:0:
256,192,203812,128,0,203858:0:0:0:0:
182,192,203812,128,0,203858:0:0:0:0:
475,192,203812,128,0,203858:0:0:0:0:
402,192,203812,128,0,204140:0:0:0:0:
109,192,203812,128,0,203858:0:0:0:0:
329,192,204187,128,0,204421:0:0:0:0:
36,192,204187,128,0,204280:0:0:0:0:
475,192,204187,128,0,204280:0:0:0:0:
109,192,204187,128,0,204280:0:0:0:0:
256,192,204187,128,0,204280:0:0:0:0:
402,192,204187,128,0,204280:0:0:0:0:
182,192,204187,128,0,204421:0:0:0:0:
36,192,204374,128,0,204421:0:0:0:0:
475,192,204374,128,0,204421:0:0:0:0:
256,192,204374,128,0,204421:0:0:0:0:
402,192,204468,128,0,204515:0:0:0:0:
109,192,204468,128,0,204515:0:0:0:0:
329,192,204468,128,0,204515:0:0:0:0:
182,192,204468,128,0,204515:0:0:0:0:
256,192,204562,128,0,204796:0:0:0:0:
475,192,204562,128,0,204983:0:0:0:0:
36,192,204562,128,0,204608:0:0:0:0:
36,192,204749,128,0,204796:0:0:0:0:
402,192,204749,128,0,204983:0:0:0:0:
182,192,204749,128,0,204983:0:0:0:0:
36,192,204937,128,0,204983:0:0:0:0:
329,192,204937,128,0,205218:0:0:0:0:
256,192,204937,128,0,204983:0:0:0:0:
109,192,204937,128,0,204983:0:0:0:0:
36,192,205124,128,0,205452:0:0:0:0:
475,192,205124,128,0,205452:0:0:0:0:
182,192,205124,128,0,205218:0:0:0:0:
256,192,205124,128,0,205171:0:0:0:0:
109,192,205124,128,0,205171:0:0:0:0:
402,192,205124,128,0,205171:0:0:0:0:
182,192,205312,128,0,205358:0:0:0:0:
329,192,205312,128,0,205358:0:0:0:0:
109,192,205312,1,0,0:0:0:0:
402,192,205312,1,0,0:0:0:0:
256,192,205405,128,0,205640:0:0:0:0:
109,192,205405,128,0,205452:0:0:0:0:
402,192,205405,128,0,205452:0:0:0:0:
329,192,205499,128,0,205546:0:0:0:0:
182,192,205499,128,0,205546:0:0:0:0:
36,192,205499,128,0,205640:0:0:0:0:
475,192,205499,128,0,205640:0:0:0:0:
109,192,205593,128,0,205640:0:0:0:0:
402,192,205593,128,0,205640:0:0:0:0:
475,192,205687,128,0,206062:0:0:0:0:
256,192,205687,128,0,205749:0:0:0:0:
36,192,205687,128,0,205812:0:0:0:0:
109,192,205749,128,0,205812:0:0:0:0:
329,192,205749,128,0,205812:0:0:0:0:
182,192,205812,128,0,205874:0:0:0:0:
402,192,205812,128,0,205874:0:0:0:0:
256,192,205874,128,0,205937:0:0:0:0:
36,192,205874,128,0,205937:0:0:0:0:
329,192,205937,128,0,206062:0:0:0:0:
109,192,205937,128,0,205999:0:0:0:0:
182,192,205999,128,0,206062:0:0:0:0:
36,192,206062,128,0,206187:0:0:0:0:
256,192,206062,128,0,206187:0:0:0:0:
402,192,206062,128,0,206187:0:0:0:0:
182,192,206124,128,0,206249:0:0:0:0:
329,192,206187,128,0,206312:0:0:0:0:
256,192,206249,128,0,206374:0:0:0:0:
109,192,206249,128,0,206374:0:0:0:0:
402,192,206249,128,0,206312:0:0:0:0:
475,192,206249,128,0,206312:0:0:0:0:
36,192,206249,1,0,0:0:0:0:
182,192,206312,128,0,206437:0:0:0:0:
329,192,206374,128,0,206624:0:0:0:0:
256,192,206437,128,0,206499:0:0:0:0:
36,192,206437,128,0,206562:0:0:0:0:
402,192,206437,128,0,206499:0:0:0:0:
475,192,206437,128,0,206562:0:0:0:0:
109,192,206499,128,0,206687:0:0:0:0:
182,192,206562,128,0,206687:0:0:0:0:
256,192,206624,128,0,206874:0:0:0:0:
402,192,206624,128,0,206687:0:0:0:0:
475,192,206624,128,0,206937:0:0:0:0:
36,192,206624,128,0,206874:0:0:0:0:
329,192,206687,128,0,206749:0:0:0:0:
182,192,206749,128,0,206937:0:0:0:0:
109,192,206812,128,0,206999:0:0:0:0:
402,192,206812,128,0,207124:0:0:0:0:
329,192,206874,128,0,206999:0:0:0:0:
256,192,206937,128,0,207062:0:0:0:0:
36,192,206937,128,0,207124:0:0:0:0:
182,192,206999,128,0,207124:0:0:0:0:
475,192,206999,128,0,207124:0:0:0:0:
329,192,207062,128,0,207312:0:0:0:0:
109,192,207124,128,0,207249:0:0:0:0:
256,192,207124,128,0,207187:0:0:0:0:
475,192,207187,128,0,207499:0:0:0:0:
36,192,207187,128,0,207499:0:0:0:0:
182,192,207187,128,0,207312:0:0:0:0:
402,192,207187,128,0,207499:0:0:0:0:
109,192,207374,128,0,207499:0:0:0:0:
256,192,207374,128,0,207437:0:0:0:0:
182,192,207437,128,0,207499:0:0:0:0:
329,192,207437,128,0,207499:0:0:0:0:
36,192,207562,128,0,207624:0:0:0:0:
256,192,207562,128,0,207687:0:0:0:0:
109,192,207562,128,0,207687:0:0:0:0:
475,192,207562,1,0,0:0:0:0:
402,192,207562,128,0,207687:0:0:0:0:
329,192,207624,128,0,207812:0:0:0:0:
182,192,207687,128,0,207812:0:0:0:0:
475,192,207687,128,0,207874:0:0:0:0:
36,192,207749,128,0,207937:0:0:0:0:
256,192,207749,128,0,207937:0:0:0:0:
402,192,207812,128,0,208062:0:0:0:0:
109,192,207812,128,0,207874:0:0:0:0:
182,192,207874,128,0,207937:0:0:0:0:
475,192,207937,128,0,208249:0:0:0:0:
329,192,207937,128,0,207999:0:0:0:0:
109,192,207937,128,0,207999:0:0:0:0:
256,192,207999,128,0,208062:0:0:0:0:
36,192,207999,128,0,208062:0:0:0:0:
182,192,208062,128,0,208124:0:0:0:0:
109,192,208124,128,0,208249:0:0:0:0:
329,192,208124,128,0,208187:0:0:0:0:
36,192,208124,128,0,208187:0:0:0:0:
402,192,208124,128,0,208312:0:0:0:0:
182,192,208187,128,0,208312:0:0:0:0:
256,192,208249,128,0,208374:0:0:0:0:
329,192,208312,128,0,208437:0:0:0:0:
36,192,208312,128,0,208374:0:0:0:0:
475,192,208312,128,0,208624:0:0:0:0:
109,192,208374,128,0,208437:0:0:0:0:
402,192,208374,128,0,208624:0:0:0:0:
182,192,208437,128,0,208499:0:0:0:0:
36,192,208499,128,0,208624:0:0:0:0:
256,192,208499,128,0,208562:0:0:0:0:
182,192,208562,128,0,208874:0:0:0:0:
329,192,208562,128,0,208624:0:0:0:0:
109,192,208624,128,0,208687:0:0:0:0:
36,192,208687,128,0,208999:0:0:0:0:
402,192,208687,128,0,208999:0:0:0:0:
475,192,208687,128,0,208749:0:0:0:0:
256,192,208687,128,0,208874:0:0:0:0:
329,192,208687,128,0,208749:0:0:0:0:
475,192,208874,128,0,209187:0:0:0:0:
329,192,208874,128,0,208999:0:0:0:0:
109,192,208874,128,0,208999:0:0:0:0:
256,192,208937,128,0,209062:0:0:0:0:
182,192,208999,128,0,209124:0:0:0:0:
329,192,209062,128,0,209124:0:0:0:0:
36,192,209062,128,0,209499:0:0:0:0:
109,192,209062,128,0,209187:0:0:0:0:
402,192,209062,128,0,209374:0:0:0:0:
256,192,209124,128,0,209187:0:0:0:0:
182,192,209187,128,0,209249:0:0:0:0:
475,192,209249,1,0,0:0:0:0:
109,192,209249,128,0,209312:0:0:0:0:
329,192,209249,128,0,209499:0:0:0:0:
256,192,209312,128,0,209499:0:0:0:0:
182,192,209374,128,0,209499:0:0:0:0:
475,192,209437,128,0,209499:0:0:0:0:
109,192,209437,128,0,209687:0:0:0:0:
402,192,209437,128,0,209749:0:0:0:0:
182,192,209624,128,0,209687:0:0:0:0:
36,192,209624,128,0,209874:0:0:0:0:
329,192,209624,128,0,209874:0:0:0:0:
256,192,209624,128,0,209687:0:0:0:0:
475,192,209624,128,0,209687:0:0:0:0:
109,192,209812,128,0,209999:0:0:0:0:
182,192,209812,128,0,209874:0:0:0:0:
402,192,209812,128,0,210062:0:0:0:0:
475,192,209812,128,0,210249:0:0:0:0:
256,192,209812,128,0,209874:0:0:0:0:
256,192,209999,128,0,210062:0:0:0:0:
329,192,209999,128,0,210062:0:0:0:0:
36,192,209999,128,0,210093:0:0:0:0:
182,192,210093,1,0,0:0:0:0:
109,192,210093,128,0,210187:0:0:0:0:
329,192,210187,128,0,210249:0:0:0:0:
36,192,210187,128,0,210312:0:0:0:0:
402,192,210187,128,0,210249:0:0:0:0:
182,192,210187,128,0,210374:0:0:0:0:
256,192,210280,1,0,0:0:0:0:
109,192,210280,128,0,210468:0:0:0:0:
402,192,210374,128,0,210437:0:0:0:0:
36,192,210374,128,0,210562:0:0:0:0:
475,192,210374,128,0,210437:0:0:0:0:
256,192,210374,128,0,210468:0:0:0:0:
329,192,210468,1,0,0:0:0:0:
182,192,210468,128,0,210562:0:0:0:0:
329,192,210562,128,0,210749:0:0:0:0:
109,192,210562,128,0,210874:0:0:0:0:
402,192,210562,128,0,210624:0:0:0:0:
475,192,210562,128,0,210874:0:0:0:0:
256,192,210624,128,0,210687:0:0:0:0:
36,192,210624,128,0,210687:0:0:0:0:
182,192,210687,128,0,210812:0:0:0:0:
256,192,210749,128,0,210937:0:0:0:0:
36,192,210749,128,0,211062:0:0:0:0:
329,192,210812,128,0,210874:0:0:0:0:
402,192,210812,128,0,210999:0:0:0:0:
182,192,210874,128,0,210999:0:0:0:0:
329,192,210937,128,0,211062:0:0:0:0:
475,192,210937,128,0,211062:0:0:0:0:
109,192,210937,128,0,211124:0:0:0:0:
256,192,210999,128,0,211124:0:0:0:0:
402,192,211062,128,0,211124:0:0:0:0:
36,192,211124,128,0,211437:0:0:0:0:
182,192,211124,128,0,211249:0:0:0:0:
475,192,211124,128,0,211499:0:0:0:0:
329,192,211124,128,0,211187:0:0:0:0:
256,192,211187,128,0,211374:0:0:0:0:
329,192,211249,128,0,211437:0:0:0:0:
182,192,211312,128,0,211562:0:0:0:0:
109,192,211312,128,0,211374:0:0:0:0:
402,192,211374,128,0,211624:0:0:0:0:
256,192,211437,128,0,211624:0:0:0:0:
329,192,211499,128,0,211999:0:0:0:0:
36,192,211499,128,0,211562:0:0:0:0:
109,192,211562,128,0,211749:0:0:0:0:
475,192,211562,128,0,211624:0:0:0:0:
182,192,211624,128,0,211999:0:0:0:0:
256,192,211687,128,0,211749:0:0:0:0:
402,192,211687,128,0,211999:0:0:0:0:
36,192,211687,128,0,211999:0:0:0:0:
475,192,211687,128,0,211999:0:0:0:0:
109,192,212062,128,0,212124:0:0:0:0:
475,192,212062,128,0,212687:0:0:0:0:
256,192,212062,1,0,0:0:0:0:
402,192,212062,1,0,0:0:0:0:
36,192,212062,128,0,212437:0:0:0:0:
256,192,212124,128,0,212187:0:0:0:0:
402,192,212187,128,0,212249:0:0:0:0:
182,192,212249,128,0,212312:0:0:0:0:
109,192,212249,1,0,0:0:0:0:
329,192,212312,128,0,212374:0:0:0:0:
109,192,212374,128,0,212437:0:0:0:0:
402,192,212437,1,0,0:0:0:0:
256,192,212437,128,0,212499:0:0:0:0:
182,192,212437,1,0,0:0:0:0:
36,192,212499,128,0,212562:0:0:0:0:
182,192,212562,128,0,212624:0:0:0:0:
36,192,212624,128,0,213312:0:0:0:0:
329,192,212624,128,0,212687:0:0:0:0:
109,192,212624,1,0,0:0:0:0:
402,192,212624,1,0,0:0:0:0:
256,192,212624,1,0,0:0:0:0:
182,192,212687,128,0,212749:0:0:0:0:
402,192,212749,128,0,212812:0:0:0:0:
475,192,212812,1,0,0:0:0:0:
256,192,212812,128,0,212874:0:0:0:0:
182,192,212812,1,0,0:0:0:0:
109,192,212874,128,0,212937:0:0:0:0:
475,192,212937,128,0,212999:0:0:0:0:
329,192,212999,128,0,213062:0:0:0:0:
256,192,212999,1,0,0:0:0:0:
402,192,212999,1,0,0:0:0:0:
182,192,213062,128,0,213124:0:0:0:0:
402,192,213124,128,0,213187:0:0:0:0:
109,192,213187,128,0,213312:0:0:0:0:
256,192,213187,128,0,213499:0:0:0:0:
329,192,213187,128,0,213312:0:0:0:0:
182,192,213187,128,0,213312:0:0:0:0:
475,192,213187,128,0,213937:0:0:0:0:
402,192,213374,128,0,213499:0:0:0:0:
109,192,213374,128,0,213437:0:0:0:0:
329,192,213437,128,0,213499:0:0:0:0:
36,192,213437,128,0,213499:0:0:0:0:
182,192,213499,128,0,213562:0:0:0:0:
109,192,213562,1,0,0:0:0:0:
36,192,213562,128,0,214624:0:0:0:0:
256,192,213562,1,0,0:0:0:0:
329,192,213562,1,0,0:0:0:0:
402,192,213562,128,0,213624:0:0:0:0:
256,192,213624,128,0,213687:0:0:0:0:
109,192,213687,128,0,213749:0:0:0:0:
329,192,213749,128,0,213812:0:0:0:0:
402,192,213749,1,0,0:0:0:0:
182,192,213812,128,0,213874:0:0:0:0:
402,192,213874,128,0,213937:0:0:0:0:
256,192,213937,128,0,213999:0:0:0:0:
329,192,213937,1,0,0:0:0:0:
109,192,213937,1,0,0:0:0:0:
475,192,213999,128,0,214062:0:0:0:0:
329,192,214062,128,0,214124:0:0:0:0:
182,192,214124,128,0,214187:0:0:0:0:
109,192,214124,1,0,0:0:0:0:
475,192,214124,128,0,214999:0:0:0:0:
402,192,214124,1,0,0:0:0:0:
256,192,214124,1,0,0:0:0:0:
402,192,214187,128,0,214249:0:0:0:0:
256,192,214249,128,0,214312:0:0:0:0:
109,192,214312,128,0,214374:0:0:0:0:
182,192,214312,1,0,0:0:0:0:
329,192,214374,128,0,214437:0:0:0:0:
182,192,214437,128,0,214499:0:0:0:0:
402,192,214499,128,0,214562:0:0:0:0:
109,192,214499,1,0,0:0:0:0:
256,192,214562,128,0,214624:0:0:0:0:
109,192,214624,128,0,214687:0:0:0:0:
36,192,214687,128,0,214999:0:0:0:0:
329,192,214687,128,0,214812:0:0:0:0:
402,192,214687,128,0,214812:0:0:0:0:
256,192,214687,128,0,214812:0:0:0:0:
182,192,214687,128,0,214812:0:0:0:0:
109,192,214874,128,0,214999:0:0:0:0:
256,192,214874,128,0,214937:0:0:0:0:
402,192,214874,128,0,215062:0:0:0:0:
182,192,214937,128,0,215062:0:0:0:0:
329,192,214999,128,0,215062:0:0:0:0:
36,192,215062,128,0,215499:0:0:0:0:
109,192,215062,128,0,215124:0:0:0:0:
475,192,215062,1,0,0:0:0:0:
256,192,215062,1,0,0:0:0:0:
256,192,215124,128,0,215187:0:0:0:0:
402,192,215187,128,0,215249:0:0:0:0:
109,192,215249,1,0,0:0:0:0:
182,192,215249,1,0,0:0:0:0:
329,192,215249,128,0,215312:0:0:0:0:
475,192,215312,128,0,215374:0:0:0:0:
256,192,215374,128,0,215437:0:0:0:0:
475,192,215437,128,0,215812:0:0:0:0:
402,192,215437,128,0,215499:0:0:0:0:
109,192,215437,1,0,0:0:0:0:
329,192,215437,1,0,0:0:0:0:
182,192,215499,128,0,215562:0:0:0:0:
329,192,215562,128,0,215624:0:0:0:0:
36,192,215624,128,0,216499:0:0:0:0:
109,192,215624,128,0,215687:0:0:0:0:
402,192,215624,1,0,0:0:0:0:
256,192,215624,1,0,0:0:0:0:
182,192,215624,1,0,0:0:0:0:
256,192,215687,128,0,215749:0:0:0:0:
402,192,215749,128,0,215812:0:0:0:0:
329,192,215812,128,0,215874:0:0:0:0:
109,192,215812,1,0,0:0:0:0:
182,192,215874,128,0,215937:0:0:0:0:
402,192,215937,128,0,215999:0:0:0:0:
256,192,215999,128,0,216062:0:0:0:0:
109,192,215999,1,0,0:0:0:0:
329,192,215999,1,0,0:0:0:0:
475,192,216062,128,0,216124:0:0:0:0:
329,192,216124,128,0,216187:0:0:0:0:
475,192,216187,128,0,216499:0:0:0:0:
182,192,216187,1,0,0:0:0:0:
109,192,216187,128,0,216280:0:0:0:0:
256,192,216187,128,0,216374:0:0:0:0:
402,192,216187,128,0,216374:0:0:0:0:
182,192,216374,128,0,216499:0:0:0:0:
109,192,216374,128,0,216499:0:0:0:0:
329,192,216437,128,0,216499:0:0:0:0:
402,192,216437,128,0,216499:0:0:0:0:
256,192,216499,128,0,216562:0:0:0:0:
182,192,216562,128,0,216624:0:0:0:0:
475,192,216562,128,0,217062:0:0:0:0:
36,192,216562,128,0,217062:0:0:0:0:
329,192,216562,1,0,0:0:0:0:
402,192,216562,1,0,0:0:0:0:
109,192,216562,1,0,0:0:0:0:
329,192,216624,128,0,216687:0:0:0:0:
109,192,216687,128,0,216749:0:0:0:0:
402,192,216749,128,0,216812:0:0:0:0:
256,192,216749,1,0,0:0:0:0:
182,192,216812,128,0,216874:0:0:0:0:
329,192,216874,128,0,216937:0:0:0:0:
256,192,216937,128,0,217062:0:0:0:0:
402,192,216937,128,0,217062:0:0:0:0:
109,192,216937,128,0,217062:0:0:0:0:
182,192,216937,1,0,0:0:0:0:
109,192,217124,128,0,217968:0:0:0:0:
402,192,217124,128,0,217968:0:0:0:0:
182,192,217124,1,0,0:0:0:0:
256,192,217124,1,0,0:0:0:0:
36,192,217124,1,0,0:0:0:0:
329,192,217124,1,0,0:0:0:0:
475,192,217124,1,0,0:0:0:0:
475,192,218062,128,0,218718:0:0:0:0:
256,192,218062,128,0,218296:0:0:0:0:
109,192,218062,128,0,218155:0:0:0:0:
182,192,218062,128,0,218718:0:0:0:0:
402,192,218062,128,0,218155:0:0:0:0:
329,192,218062,128,0,218155:0:0:0:0:
36,192,218062,128,0,218296:0:0:0:0:
329,192,218249,128,0,219093:0:0:0:0:
109,192,218249,128,0,218483:0:0:0:0:
402,192,218249,128,0,218296:0:0:0:0:
36,192,218437,128,0,218483:0:0:0:0:
402,192,218437,128,0,218483:0:0:0:0:
256,192,218437,128,0,218483:0:0:0:0:
36,192,218624,128,0,219093:0:0:0:0:
256,192,218624,128,0,219249:0:0:0:0:
109,192,218624,128,0,218858:0:0:0:0:
402,192,218624,128,0,218718:0:0:0:0:
402,192,218812,128,0,219093:0:0:0:0:
182,192,218812,128,0,218858:0:0:0:0:
475,192,218812,128,0,218858:0:0:0:0:
109,192,218999,128,0,219093:0:0:0:0:
475,192,218999,128,0,219093:0:0:0:0:
182,192,218999,128,0,219093:0:0:0:0:
475,192,219187,128,0,219312:0:0:0:0:
402,192,219187,128,0,219312:0:0:0:0:
182,192,219187,128,0,219249:0:0:0:0:
329,192,219187,128,0,219374:0:0:0:0:
36,192,219187,128,0,219499:0:0:0:0:
109,192,219249,128,0,219374:0:0:0:0:
182,192,219312,128,0,219499:0:0:0:0:
475,192,219374,128,0,219562:0:0:0:0:
256,192,219374,128,0,219437:0:0:0:0:
109,192,219437,128,0,219562:0:0:0:0:
402,192,219437,128,0,219562:0:0:0:0:
329,192,219499,128,0,219624:0:0:0:0:
256,192,219562,128,0,219687:0:0:0:0:
36,192,219562,128,0,219874:0:0:0:0:
182,192,219624,128,0,219812:0:0:0:0:
475,192,219624,128,0,219687:0:0:0:0:
109,192,219687,128,0,219749:0:0:0:0:
402,192,219687,128,0,219749:0:0:0:0:
256,192,219749,128,0,219874:0:0:0:0:
475,192,219749,128,0,220062:0:0:0:0:
329,192,219812,128,0,219937:0:0:0:0:
402,192,219874,128,0,219999:0:0:0:0:
109,192,219874,128,0,219937:0:0:0:0:
182,192,219937,128,0,219999:0:0:0:0:
36,192,219937,128,0,220187:0:0:0:0:
256,192,219999,128,0,220062:0:0:0:0:
329,192,220062,128,0,220124:0:0:0:0:
109,192,220062,128,0,220187:0:0:0:0:
475,192,220124,128,0,220249:0:0:0:0:
402,192,220124,128,0,220187:0:0:0:0:
182,192,220124,128,0,220249:0:0:0:0:
256,192,220187,128,0,220374:0:0:0:0:
329,192,220249,128,0,220405:0:0:0:0:
182,192,220312,128,0,220593:0:0:0:0:
475,192,220312,128,0,220624:0:0:0:0:
402,192,220312,128,0,220358:0:0:0:0:
109,192,220312,128,0,220405:0:0:0:0:
36,192,220312,128,0,220437:0:0:0:0:
256,192,220499,128,0,220780:0:0:0:0:
36,192,220499,128,0,220812:0:0:0:0:
329,192,220499,128,0,220593:0:0:0:0:
109,192,220499,128,0,220546:0:0:0:0:
402,192,220499,128,0,220546:0:0:0:0:
329,192,220687,128,0,220937:0:0:0:0:
475,192,220687,128,0,220780:0:0:0:0:
109,192,220687,128,0,220968:0:0:0:0:
182,192,220687,128,0,220749:0:0:0:0:
402,192,220687,128,0,220827:0:0:0:0:
182,192,220874,128,0,221155:0:0:0:0:
256,192,220874,128,0,220968:0:0:0:0:
36,192,220874,128,0,220968:0:0:0:0:
402,192,220874,128,0,221155:0:0:0:0:
475,192,220874,128,0,220937:0:0:0:0:
329,192,221062,128,0,221718:0:0:0:0:
256,192,221062,128,0,221296:0:0:0:0:
109,192,221062,128,0,221718:0:0:0:0:
475,192,221062,128,0,221483:0:0:0:0:
36,192,221062,128,0,221155:0:0:0:0:
182,192,221249,128,0,221296:0:0:0:0:
402,192,221249,128,0,221483:0:0:0:0:
36,192,221249,128,0,221483:0:0:0:0:
256,192,221437,128,0,221483:0:0:0:0:
182,192,221437,128,0,221718:0:0:0:0:
256,192,221624,128,0,222046:0:0:0:0:
475,192,221624,128,0,221858:0:0:0:0:
36,192,221624,128,0,221858:0:0:0:0:
402,192,221624,128,0,222187:0:0:0:0:
182,192,221812,128,0,221858:0:0:0:0:
109,192,221812,128,0,222187:0:0:0:0:
329,192,221812,128,0,221858:0:0:0:0:
182,192,221999,128,0,222046:0:0:0:0:
329,192,221999,128,0,222046:0:0:0:0:
475,192,221999,128,0,222046:0:0:0:0:
36,192,221999,128,0,222046:0:0:0:0:
475,192,222187,128,0,223968:0:0:0:0:
256,192,222187,128,0,223968:0:0:0:0:
36,192,222187,128,0,223968:0:0:0:0:
329,192,222187,128,0,223968:0:0:0:0:
182,192,222187,128,0,223968:0:0:0:0:
109,192,224062,128,0,224530:0:0:0:0:
36,192,224062,1,0,0:0:0:0:
475,192,224062,1,0,0:0:0:0:
256,192,224062,128,0,224108:0:0:0:0:
182,192,224249,128,0,224530:0:0:0:0:
329,192,224249,128,0,224296:0:0:0:0:
256,192,224437,128,0,224530:0:0:0:0:
402,192,224437,128,0,224483:0:0:0:0:
36,192,224624,1,0,0:0:0:0:
402,192,224624,128,0,225093:0:0:0:0:
475,192,224624,1,0,0:0:0:0:
109,192,224624,1,0,0:0:0:0:
256,192,224624,128,0,224671:0:0:0:0:
329,192,224812,128,0,225093:0:0:0:0:
182,192,224812,128,0,224858:0:0:0:0:
256,192,224999,128,0,225093:0:0:0:0:
109,192,224999,128,0,225046:0:0:0:0:
36,192,225187,128,0,225562:0:0:0:0:
475,192,225187,128,0,225562:0:0:0:0:
402,192,225187,128,0,225233:0:0:0:0:
256,192,225187,128,0,225374:0:0:0:0:
182,192,225374,128,0,225562:0:0:0:0:
329,192,225374,128,0,225421:0:0:0:0:
329,192,225562,128,0,225749:0:0:0:0:
402,192,225749,128,0,225937:0:0:0:0:
475,192,225937,128,0,226218:0:0:0:0:
402,192,226218,128,0,226312:0:0:0:0:
475,192,226312,128,0,226405:0:0:0:0:
329,192,226405,128,0,226499:0:0:0:0:
402,192,226499,128,0,226593:0:0:0:0:
329,192,226593,128,0,226687:0:0:0:0:
256,192,226687,128,0,227062:0:0:0:0:
36,192,226687,128,0,227062:0:0:0:0:
182,192,227062,128,0,227624:0:0:0:0:
402,192,227062,128,0,227108:0:0:0:0:
109,192,227249,128,0,227624:0:0:0:0:
329,192,227249,128,0,227296:0:0:0:0:
329,192,227437,128,0,227624:0:0:0:0:
475,192,227437,128,0,227483:0:0:0:0:
402,192,227624,128,0,227999:0:0:0:0:
36,192,227624,128,0,227671:0:0:0:0:
256,192,227812,128,0,227999:0:0:0:0:
109,192,227812,128,0,227858:0:0:0:0:
475,192,227999,128,0,228093:0:0:0:0:
36,192,227999,1,0,0:0:0:0:
109,192,228062,1,0,0:0:0:0:
182,192,228093,1,0,0:0:0:0:
256,192,228124,1,0,0:0:0:0:
329,192,228155,1,0,0:0:0:0:
109,192,228187,1,0,0:0:0:0:
402,192,228187,1,0,0:0:0:0:
475,192,228187,1,0,0:0:0:0:
36,192,228187,1,0,0:0:0:0:
