osu file format v14

[General]
AudioFilename: M2U - Lune.mp3
AudioLeadIn: 0
PreviewTime: 33565
Countdown: 0
SampleSet: Soft
StackLeniency: 0.7
Mode: 3
LetterboxInBreaks: 0
SpecialStyle: 0
WidescreenStoryboard: 1

[Editor]
DistanceSpacing: 1.5
BeatDivisor: 4
GridSize: 4
TimelineZoom: 2.7

[Metadata]
Title:M2U Pack
TitleUnicode:M2U Pack
Artist:M2U
ArtistUnicode:M2U
Creator:Kim_GodSSI
Version:Lune 7K
Source:
Tags:arpia97 lami- buschan ezmmr micleak nabi- ruka takjun roasted chicken murumoo other nicode sherie 約束之歌 guriri 구리리 howling redeye red eye lucy egoist 最後の花弁 나래
BeatmapID:3856445
BeatmapSetID:1572720

[Difficulty]
HPDrainRate:8
CircleSize:7
OverallDifficulty:7
ApproachRate:5
SliderMultiplier:1.4
SliderTickRate:1

[Events]
//Background and Video events
0,0,"M2U - Lune.jpg",0,0
//Break Periods
//Storyboard Layer 0 (Background)
//Storyboard Layer 1 (Fail)
//Storyboard Layer 2 (Pass)
//Storyboard Layer 3 (Foreground)
//Storyboard Layer 4 (Overlay)
//Storyboard Sound Samples

[TimingPoints]
565,375,4,2,0,0,1,0

[HitObjects]
36,192,565,128,0,1315:0:0:0:0:
475,192,565,128,0,940:0:0:0:0:
182,192,565,1,0,0:0:0:0:
109,192,565,1,0,0:0:0:0:
329,192,565,1,0,0:0:0:0:
402,192,565,1,0,0:0:0:0:
329,192,940,128,0,1315:0:0:0:0:
109,192,940,1,0,0:0:0:0:
402,192,940,1,0,0:0:0:0:
182,192,1127,1,0,0:0:0:0:
256,192,1315,1,0,0:0:0:0:
402,192,1315,1,0,0:0:0:0:
475,192,1315,128,0,2065:0:0:0:0:
109,192,1315,128,0,2065:0:0:0:0:
182,192,1502,1,0,0:0:0:0:
329,192,1690,1,0,0:0:0:0:
256,192,1877,1,0,0:0:0:0:
36,192,2065,128,0,2815:0:0:0:0:
329,192,2065,128,0,2440:0:0:0:0:
182,192,2065,1,0,0:0:0:0:
402,192,2065,1,0,0:0:0:0:
256,192,2252,1,0,0:0:0:0:
182,192,2440,128,0,2815:0:0:0:0:
109,192,2440,1,0,0:0:0:0:
402,192,2440,1,0,0:0:0:0:
475,192,2440,1,0,0:0:0:0:
329,192,2627,1,0,0:0:0:0:
475,192,2815,128,0,3565:0:0:0:0:
256,192,2815,128,0,3190:0:0:0:0:
402,192,2815,1,0,0:0:0:0:
109,192,2815,1,0,0:0:0:0:
109,192,3190,128,0,3565:0:0:0:0:
36,192,3190,1,0,0:0:0:0:
402,192,3190,1,0,0:0:0:0:
256,192,3471,1,0,0:0:0:0:
329,192,3518,1,0,0:0:0:0:
402,192,3565,128,0,3940:0:0:0:0:
36,192,3565,128,0,4315:0:0:0:0:
475,192,3940,128,0,4315:0:0:0:0:
109,192,3940,1,0,0:0:0:0:
256,192,3940,1,0,0:0:0:0:
256,192,4127,1,0,0:0:0:0:
329,192,4315,128,0,4690:0:0:0:0:
109,192,4315,1,0,0:0:0:0:
182,192,4315,1,0,0:0:0:0:
402,192,4315,1,0,0:0:0:0:
182,192,4690,128,0,4971:0:0:0:0:
36,192,4690,1,0,0:0:0:0:
475,192,4690,1,0,0:0:0:0:
402,192,4877,1,0,0:0:0:0:
329,192,4971,128,0,5065:0:0:0:0:
475,192,5065,128,0,5815:0:0:0:0:
36,192,5065,128,0,5440:0:0:0:0:
182,192,5065,1,0,0:0:0:0:
109,192,5065,1,0,0:0:0:0:
182,192,5252,1,0,0:0:0:0:
402,192,5440,1,0,0:0:0:0:
256,192,5440,128,0,5815:0:0:0:0:
329,192,5440,1,0,0:0:0:0:
36,192,5627,128,0,5815:0:0:0:0:
109,192,5721,128,0,5815:0:0:0:0:
182,192,5815,128,0,6190:0:0:0:0:
402,192,5815,128,0,6002:0:0:0:0:
329,192,5815,1,0,0:0:0:0:
329,192,6002,128,0,6190:0:0:0:0:
36,192,6002,1,0,0:0:0:0:
475,192,6190,128,0,6565:0:0:0:0:
36,192,6190,128,0,6377:0:0:0:0:
256,192,6190,1,0,0:0:0:0:
182,192,6377,128,0,6565:0:0:0:0:
329,192,6377,1,0,0:0:0:0:
109,192,6565,128,0,7127:0:0:0:0:
36,192,6565,1,0,0:0:0:0:
256,192,6565,1,0,0:0:0:0:
402,192,6565,1,0,0:0:0:0:
256,192,6940,128,0,7315:0:0:0:0:
36,192,6940,1,0,0:0:0:0:
475,192,6940,1,0,0:0:0:0:
402,192,6940,1,0,0:0:0:0:
329,192,7127,1,0,0:0:0:0:
109,192,7315,128,0,7877:0:0:0:0:
402,192,7315,128,0,7690:0:0:0:0:
182,192,7315,1,0,0:0:0:0:
36,192,7315,1,0,0:0:0:0:
475,192,7315,1,0,0:0:0:0:
329,192,7502,1,0,0:0:0:0:
256,192,7690,1,0,0:0:0:0:
182,192,7877,1,0,0:0:0:0:
329,192,8065,128,0,8627:0:0:0:0:
256,192,8065,1,0,0:0:0:0:
475,192,8065,1,0,0:0:0:0:
36,192,8065,1,0,0:0:0:0:
182,192,8252,1,0,0:0:0:0:
109,192,8440,128,0,9190:0:0:0:0:
36,192,8440,1,0,0:0:0:0:
402,192,8440,1,0,0:0:0:0:
475,192,8440,1,0,0:0:0:0:
256,192,8627,1,0,0:0:0:0:
402,192,8815,128,0,9190:0:0:0:0:
329,192,8815,1,0,0:0:0:0:
475,192,8815,1,0,0:0:0:0:
36,192,8815,1,0,0:0:0:0:
256,192,9190,128,0,9565:0:0:0:0:
475,192,9190,1,0,0:0:0:0:
36,192,9190,1,0,0:0:0:0:
402,192,9377,1,0,0:0:0:0:
109,192,9377,1,0,0:0:0:0:
182,192,9565,128,0,10315:0:0:0:0:
475,192,9565,128,0,9940:0:0:0:0:
36,192,9565,1,0,0:0:0:0:
329,192,9565,1,0,0:0:0:0:
402,192,9940,128,0,10315:0:0:0:0:
36,192,9940,1,0,0:0:0:0:
329,192,9940,1,0,0:0:0:0:
256,192,10127,1,0,0:0:0:0:
36,192,10315,128,0,10971:0:0:0:0:
256,192,10315,1,0,0:0:0:0:
475,192,10315,128,0,10971:0:0:0:0:
329,192,10315,1,0,0:0:0:0:
109,192,10315,1,0,0:0:0:0:
329,192,10502,1,0,0:0:0:0:
182,192,10690,1,0,0:0:0:0:
329,192,10877,1,0,0:0:0:0:
182,192,11065,128,0,11440:0:0:0:0:
329,192,11065,128,0,11440:0:0:0:0:
36,192,11065,1,0,0:0:0:0:
475,192,11065,1,0,0:0:0:0:
402,192,11065,1,0,0:0:0:0:
109,192,11252,1,0,0:0:0:0:
256,192,11440,128,0,11815:0:0:0:0:
402,192,11440,128,0,11815:0:0:0:0:
36,192,11440,1,0,0:0:0:0:
475,192,11440,1,0,0:0:0:0:
182,192,11627,1,0,0:0:0:0:
109,192,11815,128,0,12190:0:0:0:0:
329,192,11815,128,0,12190:0:0:0:0:
475,192,11815,128,0,12190:0:0:0:0:
36,192,11815,1,0,0:0:0:0:
182,192,11815,1,0,0:0:0:0:
256,192,12190,128,0,12565:0:0:0:0:
402,192,12190,128,0,12565:0:0:0:0:
36,192,12190,128,0,12377:0:0:0:0:
182,192,12190,1,0,0:0:0:0:
36,192,12471,1,0,0:0:0:0:
109,192,12518,1,0,0:0:0:0:
329,192,12565,128,0,12940:0:0:0:0:
475,192,12565,128,0,13315:0:0:0:0:
182,192,12565,1,0,0:0:0:0:
109,192,12940,128,0,13315:0:0:0:0:
36,192,12940,1,0,0:0:0:0:
402,192,12940,1,0,0:0:0:0:
182,192,13127,1,0,0:0:0:0:
36,192,13315,128,0,13690:0:0:0:0:
329,192,13315,128,0,13690:0:0:0:0:
402,192,13315,1,0,0:0:0:0:
256,192,13315,1,0,0:0:0:0:
402,192,13690,128,0,13877:0:0:0:0:
182,192,13690,1,0,0:0:0:0:
475,192,13690,1,0,0:0:0:0:
109,192,13877,128,0,14065:0:0:0:0:
256,192,13877,1,0,0:0:0:0:
182,192,14065,128,0,14346:0:0:0:0:
329,192,14065,128,0,14346:0:0:0:0:
475,192,14065,1,0,0:0:0:0:
36,192,14065,1,0,0:0:0:0:
36,192,14815,128,0,15565:0:0:0:0:
182,192,14815,128,0,15565:0:0:0:0:
329,192,14815,1,0,0:0:0:0:
475,192,14815,1,0,0:0:0:0:
256,192,15190,1,0,0:0:0:0:
402,192,15190,1,0,0:0:0:0:
475,192,15471,1,0,0:0:0:0:
402,192,15518,1,0,0:0:0:0:
329,192,15565,128,0,15940:0:0:0:0:
109,192,15565,128,0,16315:0:0:0:0:
256,192,15940,128,0,16315:0:0:0:0:
36,192,15940,1,0,0:0:0:0:
402,192,15940,1,0,0:0:0:0:
475,192,15940,1,0,0:0:0:0:
329,192,16127,1,0,0:0:0:0:
402,192,16315,128,0,17065:0:0:0:0:
182,192,16315,128,0,16690:0:0:0:0:
329,192,16315,1,0,0:0:0:0:
475,192,16315,1,0,0:0:0:0:
36,192,16315,1,0,0:0:0:0:
256,192,16690,128,0,17065:0:0:0:0:
109,192,16690,1,0,0:0:0:0:
36,192,16690,1,0,0:0:0:0:
182,192,16877,1,0,0:0:0:0:
109,192,17065,128,0,17721:0:0:0:0:
329,192,17065,128,0,17346:0:0:0:0:
182,192,17065,1,0,0:0:0:0:
36,192,17065,1,0,0:0:0:0:
256,192,17252,1,0,0:0:0:0:
402,192,17440,128,0,18377:0:0:0:0:
329,192,17440,1,0,0:0:0:0:
475,192,17440,1,0,0:0:0:0:
256,192,17627,1,0,0:0:0:0:
182,192,17815,128,0,18377:0:0:0:0:
109,192,17815,1,0,0:0:0:0:
36,192,17815,1,0,0:0:0:0:
329,192,18002,1,0,0:0:0:0:
256,192,18190,1,0,0:0:0:0:
329,192,18377,1,0,0:0:0:0:
36,192,18481,1,0,0:0:0:0:
109,192,18523,1,0,0:0:0:0:
182,192,18565,1,0,0:0:0:0:
329,192,18565,128,0,19127:0:0:0:0:
475,192,18565,128,0,19127:0:0:0:0:
182,192,18940,128,0,19315:0:0:0:0:
36,192,18940,128,0,19033:0:0:0:0:
109,192,18940,1,0,0:0:0:0:
402,192,19127,128,0,19502:0:0:0:0:
256,192,19127,128,0,19221:0:0:0:0:
109,192,19315,128,0,19690:0:0:0:0:
36,192,19315,128,0,19408:0:0:0:0:
329,192,19315,1,0,0:0:0:0:
475,192,19315,1,0,0:0:0:0:
329,192,19502,128,0,19877:0:0:0:0:
475,192,19502,128,0,19596:0:0:0:0:
182,192,19502,1,0,0:0:0:0:
36,192,19690,128,0,20065:0:0:0:0:
182,192,19690,128,0,19783:0:0:0:0:
475,192,19690,1,0,0:0:0:0:
256,192,19877,128,0,20065:0:0:0:0:
402,192,19877,128,0,19971:0:0:0:0:
109,192,19877,1,0,0:0:0:0:
329,192,20065,1,0,0:0:0:0:
182,192,20065,1,0,0:0:0:0:
109,192,20065,128,0,20346:0:0:0:0:
475,192,20065,128,0,20252:0:0:0:0:
402,192,20252,128,0,20346:0:0:0:0:
182,192,20252,128,0,20533:0:0:0:0:
36,192,20252,1,0,0:0:0:0:
329,192,20346,128,0,20440:0:0:0:0:
475,192,20440,128,0,20533:0:0:0:0:
36,192,20440,128,0,20721:0:0:0:0:
256,192,20440,1,0,0:0:0:0:
329,192,20533,128,0,20627:0:0:0:0:
402,192,20627,128,0,20721:0:0:0:0:
109,192,20627,128,0,20908:0:0:0:0:
256,192,20721,128,0,20815:0:0:0:0:
329,192,20815,128,0,20908:0:0:0:0:
36,192,20815,128,0,21283:0:0:0:0:
475,192,20815,128,0,21190:0:0:0:0:
402,192,20815,1,0,0:0:0:0:
182,192,20908,128,0,21002:0:0:0:0:
256,192,21002,128,0,21096:0:0:0:0:
329,192,21096,128,0,21190:0:0:0:0:
402,192,21190,128,0,21471:0:0:0:0:
109,192,21190,128,0,21377:0:0:0:0:
182,192,21283,128,0,21471:0:0:0:0:
256,192,21377,128,0,21565:0:0:0:0:
109,192,21565,1,0,0:0:0:0:
402,192,21565,1,0,0:0:0:0:
475,192,21565,1,0,0:0:0:0:
36,192,21565,128,0,21940:0:0:0:0:
329,192,21565,128,0,21752:0:0:0:0:
256,192,21752,128,0,21940:0:0:0:0:
109,192,21752,1,0,0:0:0:0:
475,192,21752,1,0,0:0:0:0:
402,192,21846,128,0,22033:0:0:0:0:
182,192,21940,128,0,22127:0:0:0:0:
109,192,21940,1,0,0:0:0:0:
475,192,21940,1,0,0:0:0:0:
329,192,22033,128,0,22221:0:0:0:0:
109,192,22127,128,0,22315:0:0:0:0:
36,192,22127,1,0,0:0:0:0:
475,192,22127,1,0,0:0:0:0:
256,192,22221,128,0,22596:0:0:0:0:
402,192,22315,128,0,22502:0:0:0:0:
182,192,22315,1,0,0:0:0:0:
36,192,22315,1,0,0:0:0:0:
475,192,22315,1,0,0:0:0:0:
36,192,22502,1,0,0:0:0:0:
475,192,22502,1,0,0:0:0:0:
109,192,22502,128,0,22690:0:0:0:0:
329,192,22596,128,0,22783:0:0:0:0:
182,192,22690,128,0,23065:0:0:0:0:
475,192,22690,1,0,0:0:0:0:
402,192,22690,1,0,0:0:0:0:
36,192,22783,128,0,22971:0:0:0:0:
256,192,22877,1,0,0:0:0:0:
475,192,22877,1,0,0:0:0:0:
329,192,22971,128,0,23158:0:0:0:0:
256,192,23065,1,0,0:0:0:0:
109,192,23065,1,0,0:0:0:0:
475,192,23065,128,0,23252:0:0:0:0:
36,192,23065,128,0,23346:0:0:0:0:
402,192,23158,128,0,23346:0:0:0:0:
256,192,23252,128,0,23627:0:0:0:0:
182,192,23252,1,0,0:0:0:0:
109,192,23346,128,0,23533:0:0:0:0:
475,192,23440,128,0,23815:0:0:0:0:
182,192,23440,1,0,0:0:0:0:
329,192,23440,1,0,0:0:0:0:
36,192,23440,1,0,0:0:0:0:
402,192,23533,128,0,23721:0:0:0:0:
36,192,23627,128,0,23815:0:0:0:0:
109,192,23627,1,0,0:0:0:0:
182,192,23721,128,0,23908:0:0:0:0:
402,192,23815,128,0,24002:0:0:0:0:
109,192,23815,1,0,0:0:0:0:
329,192,23815,1,0,0:0:0:0:
256,192,23908,128,0,24096:0:0:0:0:
109,192,24002,128,0,24190:0:0:0:0:
475,192,24002,1,0,0:0:0:0:
36,192,24002,1,0,0:0:0:0:
402,192,24096,128,0,24283:0:0:0:0:
182,192,24096,1,0,0:0:0:0:
329,192,24190,128,0,24377:0:0:0:0:
36,192,24190,1,0,0:0:0:0:
475,192,24190,1,0,0:0:0:0:
256,192,24283,128,0,24471:0:0:0:0:
109,192,24283,1,0,0:0:0:0:
36,192,24377,128,0,24565:0:0:0:0:
182,192,24377,1,0,0:0:0:0:
475,192,24377,1,0,0:0:0:0:
109,192,24471,128,0,24565:0:0:0:0:
182,192,24565,128,0,24752:0:0:0:0:
402,192,24565,128,0,24940:0:0:0:0:
475,192,24565,1,0,0:0:0:0:
329,192,24565,1,0,0:0:0:0:
256,192,24752,128,0,24940:0:0:0:0:
36,192,24752,1,0,0:0:0:0:
329,192,24752,1,0,0:0:0:0:
109,192,24846,128,0,25033:0:0:0:0:
329,192,24940,128,0,25127:0:0:0:0:
475,192,24940,1,0,0:0:0:0:
36,192,24940,1,0,0:0:0:0:
182,192,25033,128,0,25221:0:0:0:0:
402,192,25127,128,0,25315:0:0:0:0:
475,192,25127,1,0,0:0:0:0:
36,192,25127,1,0,0:0:0:0:
256,192,25221,128,0,25596:0:0:0:0:
109,192,25315,128,0,25502:0:0:0:0:
182,192,25315,1,0,0:0:0:0:
329,192,25315,1,0,0:0:0:0:
475,192,25315,1,0,0:0:0:0:
36,192,25315,1,0,0:0:0:0:
402,192,25502,128,0,25690:0:0:0:0:
36,192,25502,1,0,0:0:0:0:
475,192,25502,1,0,0:0:0:0:
182,192,25596,128,0,25783:0:0:0:0:
329,192,25690,128,0,26065:0:0:0:0:
109,192,25690,1,0,0:0:0:0:
36,192,25690,1,0,0:0:0:0:
475,192,25783,128,0,25971:0:0:0:0:
256,192,25877,1,0,0:0:0:0:
36,192,25877,1,0,0:0:0:0:
182,192,25971,128,0,26158:0:0:0:0:
36,192,26065,128,0,26252:0:0:0:0:
475,192,26065,128,0,26346:0:0:0:0:
256,192,26065,1,0,0:0:0:0:
402,192,26065,1,0,0:0:0:0:
109,192,26158,128,0,26346:0:0:0:0:
256,192,26252,128,0,26627:0:0:0:0:
329,192,26252,1,0,0:0:0:0:
402,192,26346,128,0,26533:0:0:0:0:
329,192,26440,1,0,0:0:0:0:
475,192,26440,1,0,0:0:0:0:
36,192,26440,128,0,26815:0:0:0:0:
182,192,26440,1,0,0:0:0:0:
109,192,26533,128,0,26721:0:0:0:0:
475,192,26627,128,0,26815:0:0:0:0:
402,192,26627,1,0,0:0:0:0:
329,192,26721,128,0,26908:0:0:0:0:
109,192,26815,128,0,27002:0:0:0:0:
182,192,26815,1,0,0:0:0:0:
402,192,26815,1,0,0:0:0:0:
256,192,26908,128,0,27096:0:0:0:0:
402,192,27002,128,0,27190:0:0:0:0:
36,192,27002,1,0,0:0:0:0:
475,192,27002,1,0,0:0:0:0:
109,192,27096,128,0,27283:0:0:0:0:
182,192,27190,128,0,27377:0:0:0:0:
329,192,27190,1,0,0:0:0:0:
475,192,27190,1,0,0:0:0:0:
256,192,27283,128,0,27502:0:0:0:0:
402,192,27283,1,0,0:0:0:0:
329,192,27377,128,0,27440:0:0:0:0:
475,192,27377,1,0,0:0:0:0:
36,192,27377,1,0,0:0:0:0:
182,192,27471,128,0,27565:0:0:0:0:
109,192,27565,1,0,0:0:0:0:
36,192,27565,1,0,0:0:0:0:
475,192,27565,1,0,0:0:0:0:
402,192,27565,128,0,27752:0:0:0:0:
329,192,27658,128,0,27940:0:0:0:0:
182,192,27658,1,0,0:0:0:0:
256,192,27752,128,0,27846:0:0:0:0:
36,192,27752,1,0,0:0:0:0:
402,192,27846,128,0,28033:0:0:0:0:
109,192,27846,1,0,0:0:0:0:
475,192,27940,128,0,28127:0:0:0:0:
182,192,27940,128,0,28127:0:0:0:0:
36,192,27940,1,0,0:0:0:0:
256,192,28033,128,0,28221:0:0:0:0:
109,192,28033,1,0,0:0:0:0:
329,192,28127,128,0,28315:0:0:0:0:
36,192,28127,1,0,0:0:0:0:
402,192,28221,128,0,28408:0:0:0:0:
109,192,28221,128,0,28502:0:0:0:0:
182,192,28315,128,0,28596:0:0:0:0:
36,192,28315,1,0,0:0:0:0:
475,192,28315,1,0,0:0:0:0:
256,192,28408,128,0,28690:0:0:0:0:
329,192,28502,128,0,28783:0:0:0:0:
402,192,28502,1,0,0:0:0:0:
36,192,28596,128,0,28971:0:0:0:0:
475,192,28596,1,0,0:0:0:0:
109,192,28690,128,0,28971:0:0:0:0:
402,192,28690,1,0,0:0:0:0:
182,192,28783,128,0,28971:0:0:0:0:
475,192,28783,1,0,0:0:0:0:
256,192,28877,128,0,28971:0:0:0:0:
329,192,28877,1,0,0:0:0:0:
402,192,28971,1,0,0:0:0:0:
109,192,29065,128,0,29252:0:0:0:0:
36,192,29065,1,0,0:0:0:0:
256,192,29065,1,0,0:0:0:0:
475,192,29065,1,0,0:0:0:0:
329,192,29065,1,0,0:0:0:0:
182,192,29158,128,0,29440:0:0:0:0:
402,192,29158,1,0,0:0:0:0:
256,192,29252,128,0,29346:0:0:0:0:
329,192,29252,1,0,0:0:0:0:
109,192,29346,128,0,29533:0:0:0:0:
475,192,29346,1,0,0:0:0:0:
329,192,29440,128,0,29627:0:0:0:0:
36,192,29440,128,0,29627:0:0:0:0:
402,192,29440,1,0,0:0:0:0:
256,192,29533,128,0,29721:0:0:0:0:
475,192,29627,1,0,0:0:0:0:
182,192,29627,128,0,29815:0:0:0:0:
402,192,29721,128,0,30002:0:0:0:0:
109,192,29721,128,0,29908:0:0:0:0:
36,192,29815,1,0,0:0:0:0:
475,192,29815,1,0,0:0:0:0:
329,192,29815,128,0,30096:0:0:0:0:
256,192,29908,128,0,30190:0:0:0:0:
109,192,30002,1,0,0:0:0:0:
182,192,30002,128,0,30283:0:0:0:0:
36,192,30096,1,0,0:0:0:0:
475,192,30096,128,0,30471:0:0:0:0:
109,192,30190,1,0,0:0:0:0:
402,192,30190,128,0,30471:0:0:0:0:
36,192,30283,1,0,0:0:0:0:
329,192,30283,128,0,30471:0:0:0:0:
182,192,30377,1,0,0:0:0:0:
256,192,30377,128,0,30471:0:0:0:0:
109,192,30471,1,0,0:0:0:0:
402,192,30565,1,0,0:0:0:0:
36,192,30565,1,0,0:0:0:0:
475,192,30565,1,0,0:0:0:0:
256,192,30565,1,0,0:0:0:0:
329,192,30565,1,0,0:0:0:0:
402,192,30752,128,0,30846:0:0:0:0:
256,192,30752,128,0,30846:0:0:0:0:
36,192,30752,128,0,31127:0:0:0:0:
109,192,30752,1,0,0:0:0:0:
475,192,30846,128,0,30940:0:0:0:0:
329,192,30846,128,0,31221:0:0:0:0:
402,192,30940,128,0,31033:0:0:0:0:
182,192,30940,128,0,31033:0:0:0:0:
109,192,30940,1,0,0:0:0:0:
256,192,31033,128,0,31127:0:0:0:0:
109,192,31127,128,0,31408:0:0:0:0:
475,192,31127,1,0,0:0:0:0:
402,192,31127,128,0,31315:0:0:0:0:
182,192,31221,128,0,31315:0:0:0:0:
256,192,31315,128,0,31690:0:0:0:0:
36,192,31315,1,0,0:0:0:0:
475,192,31315,1,0,0:0:0:0:
329,192,31408,128,0,31502:0:0:0:0:
402,192,31408,128,0,31502:0:0:0:0:
182,192,31502,128,0,31596:0:0:0:0:
36,192,31502,128,0,31596:0:0:0:0:
109,192,31502,1,0,0:0:0:0:
329,192,31596,128,0,31690:0:0:0:0:
475,192,31596,128,0,31690:0:0:0:0:
109,192,31690,128,0,31783:0:0:0:0:
36,192,31690,128,0,31783:0:0:0:0:
402,192,31690,1,0,0:0:0:0:
256,192,31783,128,0,31877:0:0:0:0:
329,192,31783,128,0,31877:0:0:0:0:
109,192,31877,128,0,31971:0:0:0:0:
182,192,31877,128,0,31971:0:0:0:0:
475,192,31877,1,0,0:0:0:0:
329,192,31971,128,0,32065:0:0:0:0:
402,192,31971,128,0,32065:0:0:0:0:
182,192,32065,128,0,32346:0:0:0:0:
256,192,32065,1,0,0:0:0:0:
36,192,32065,1,0,0:0:0:0:
109,192,32065,1,0,0:0:0:0:
475,192,32065,1,0,0:0:0:0:
329,192,32346,128,0,32440:0:0:0:0:
402,192,32440,128,0,32533:0:0:0:0:
256,192,32533,128,0,32627:0:0:0:0:
182,192,32627,128,0,32721:0:0:0:0:
256,192,32721,128,0,32815:0:0:0:0:
109,192,32815,128,0,33002:0:0:0:0:
402,192,32815,128,0,33002:0:0:0:0:
402,192,33190,128,0,33471:0:0:0:0:
256,192,33190,128,0,33471:0:0:0:0:
109,192,33190,128,0,33471:0:0:0:0:
182,192,33565,128,0,33846:0:0:0:0:
36,192,33565,1,0,0:0:0:0:
109,192,33565,1,0,0:0:0:0:
329,192,33565,1,0,0:0:0:0:
475,192,33565,1,0,0:0:0:0:
256,192,33752,128,0,34033:0:0:0:0:
329,192,33752,1,0,0:0:0:0:
475,192,33752,1,0,0:0:0:0:
182,192,33940,1,0,0:0:0:0:
402,192,33940,1,0,0:0:0:0:
109,192,33940,128,0,34221:0:0:0:0:
475,192,33940,1,0,0:0:0:0:
36,192,33940,1,0,0:0:0:0:
182,192,34127,128,0,34408:0:0:0:0:
329,192,34127,1,0,0:0:0:0:
475,192,34127,1,0,0:0:0:0:
109,192,34315,1,0,0:0:0:0:
36,192,34315,1,0,0:0:0:0:
475,192,34315,1,0,0:0:0:0:
402,192,34315,128,0,34596:0:0:0:0:
256,192,34315,1,0,0:0:0:0:
256,192,34502,128,0,34783:0:0:0:0:
36,192,34502,1,0,0:0:0:0:
182,192,34502,1,0,0:0:0:0:
402,192,34690,1,0,0:0:0:0:
329,192,34690,128,0,34971:0:0:0:0:
109,192,34690,1,0,0:0:0:0:
475,192,34690,1,0,0:0:0:0:
36,192,34690,1,0,0:0:0:0:
256,192,34877,1,0,0:0:0:0:
109,192,34877,1,0,0:0:0:0:
36,192,34981,1,0,0:0:0:0:
109,192,35023,1,0,0:0:0:0:
182,192,35065,1,0,0:0:0:0:
402,192,35065,128,0,35346:0:0:0:0:
329,192,35065,1,0,0:0:0:0:
475,192,35065,1,0,0:0:0:0:
256,192,35252,128,0,35533:0:0:0:0:
182,192,35252,1,0,0:0:0:0:
36,192,35252,1,0,0:0:0:0:
329,192,35440,128,0,35721:0:0:0:0:
109,192,35440,1,0,0:0:0:0:
36,192,35440,1,0,0:0:0:0:
402,192,35440,1,0,0:0:0:0:
475,192,35440,1,0,0:0:0:0:
109,192,35627,1,0,0:0:0:0:
402,192,35627,1,0,0:0:0:0:
182,192,35721,128,0,35815:0:0:0:0:
475,192,35815,1,0,0:0:0:0:
109,192,35815,1,0,0:0:0:0:
36,192,35815,1,0,0:0:0:0:
329,192,35815,128,0,35908:0:0:0:0:
182,192,36002,1,0,0:0:0:0:
329,192,36002,1,0,0:0:0:0:
329,192,36190,128,0,36283:0:0:0:0:
109,192,36190,1,0,0:0:0:0:
36,192,36190,1,0,0:0:0:0:
475,192,36190,1,0,0:0:0:0:
182,192,36283,128,0,36377:0:0:0:0:
402,192,36283,1,0,0:0:0:0:
256,192,36377,128,0,36471:0:0:0:0:
475,192,36377,1,0,0:0:0:0:
36,192,36377,1,0,0:0:0:0:
329,192,36471,128,0,36565:0:0:0:0:
109,192,36471,1,0,0:0:0:0:
182,192,36565,1,0,0:0:0:0:
475,192,36565,1,0,0:0:0:0:
402,192,36565,1,0,0:0:0:0:
36,192,36565,128,0,37221:0:0:0:0:
256,192,36752,128,0,36846:0:0:0:0:
402,192,36752,128,0,36846:0:0:0:0:
109,192,36752,128,0,36846:0:0:0:0:
329,192,36940,1,0,0:0:0:0:
475,192,36940,128,0,37596:0:0:0:0:
109,192,36940,1,0,0:0:0:0:
182,192,36940,1,0,0:0:0:0:
256,192,37127,128,0,37221:0:0:0:0:
109,192,37127,128,0,37221:0:0:0:0:
402,192,37127,128,0,37221:0:0:0:0:
182,192,37315,1,0,0:0:0:0:
36,192,37315,1,0,0:0:0:0:
109,192,37315,1,0,0:0:0:0:
329,192,37315,1,0,0:0:0:0:
182,192,37502,128,0,37877:0:0:0:0:
329,192,37502,128,0,37596:0:0:0:0:
36,192,37502,128,0,37596:0:0:0:0:
475,192,37690,1,0,0:0:0:0:
402,192,37690,128,0,38065:0:0:0:0:
256,192,37690,1,0,0:0:0:0:
36,192,37690,1,0,0:0:0:0:
109,192,37690,1,0,0:0:0:0:
109,192,37877,128,0,38065:0:0:0:0:
256,192,37877,128,0,37971:0:0:0:0:
182,192,38065,128,0,38158:0:0:0:0:
329,192,38065,128,0,38158:0:0:0:0:
36,192,38065,1,0,0:0:0:0:
475,192,38065,1,0,0:0:0:0:
182,192,38252,128,0,38440:0:0:0:0:
329,192,38252,128,0,38440:0:0:0:0:
36,192,38252,1,0,0:0:0:0:
475,192,38252,1,0,0:0:0:0:
402,192,38440,128,0,38627:0:0:0:0:
475,192,38440,128,0,38627:0:0:0:0:
36,192,38440,1,0,0:0:0:0:
109,192,38440,1,0,0:0:0:0:
256,192,38440,1,0,0:0:0:0:
109,192,38627,128,0,38815:0:0:0:0:
36,192,38627,128,0,38815:0:0:0:0:
256,192,38627,1,0,0:0:0:0:
256,192,38815,128,0,38908:0:0:0:0:
402,192,38815,128,0,38908:0:0:0:0:
329,192,38815,1,0,0:0:0:0:
475,192,38815,1,0,0:0:0:0:
182,192,38815,1,0,0:0:0:0:
182,192,39002,128,0,39096:0:0:0:0:
329,192,39002,128,0,39096:0:0:0:0:
36,192,39002,1,0,0:0:0:0:
109,192,39190,1,0,0:0:0:0:
182,192,39190,128,0,39283:0:0:0:0:
329,192,39190,128,0,39283:0:0:0:0:
256,192,39190,1,0,0:0:0:0:
475,192,39190,1,0,0:0:0:0:
36,192,39190,1,0,0:0:0:0:
256,192,39377,128,0,39471:0:0:0:0:
402,192,39377,128,0,39471:0:0:0:0:
109,192,39377,1,0,0:0:0:0:
402,192,39565,1,0,0:0:0:0:
475,192,39565,1,0,0:0:0:0:
182,192,39565,128,0,40033:0:0:0:0:
329,192,39565,128,0,39846:0:0:0:0:
109,192,39565,1,0,0:0:0:0:
36,192,39565,1,0,0:0:0:0:
36,192,39752,1,0,0:0:0:0:
475,192,39752,1,0,0:0:0:0:
402,192,39846,128,0,40127:0:0:0:0:
109,192,39846,1,0,0:0:0:0:
329,192,39940,128,0,40033:0:0:0:0:
256,192,39940,1,0,0:0:0:0:
36,192,39940,1,0,0:0:0:0:
475,192,40033,128,0,40221:0:0:0:0:
109,192,40033,1,0,0:0:0:0:
256,192,40127,128,0,40315:0:0:0:0:
182,192,40127,1,0,0:0:0:0:
329,192,40221,128,0,40315:0:0:0:0:
36,192,40221,1,0,0:0:0:0:
402,192,40315,128,0,40596:0:0:0:0:
109,192,40315,128,0,40596:0:0:0:0:
475,192,40315,1,0,0:0:0:0:
182,192,40315,1,0,0:0:0:0:
256,192,40502,128,0,40783:0:0:0:0:
36,192,40502,1,0,0:0:0:0:
475,192,40502,1,0,0:0:0:0:
182,192,40596,128,0,40690:0:0:0:0:
329,192,40690,128,0,40971:0:0:0:0:
36,192,40690,1,0,0:0:0:0:
475,192,40690,1,0,0:0:0:0:
402,192,40783,128,0,40877:0:0:0:0:
109,192,40877,128,0,41065:0:0:0:0:
36,192,40877,1,0,0:0:0:0:
475,192,40877,1,0,0:0:0:0:
182,192,40971,128,0,41065:0:0:0:0:
402,192,41065,128,0,41440:0:0:0:0:
36,192,41065,1,0,0:0:0:0:
256,192,41065,1,0,0:0:0:0:
475,192,41065,1,0,0:0:0:0:
109,192,41252,128,0,41346:0:0:0:0:
256,192,41252,128,0,41346:0:0:0:0:
36,192,41252,128,0,41815:0:0:0:0:
475,192,41252,128,0,41346:0:0:0:0:
109,192,41440,1,0,0:0:0:0:
256,192,41440,1,0,0:0:0:0:
475,192,41440,1,0,0:0:0:0:
329,192,41627,128,0,41721:0:0:0:0:
182,192,41627,128,0,41721:0:0:0:0:
475,192,41627,128,0,41721:0:0:0:0:
182,192,41815,1,0,0:0:0:0:
329,192,41815,1,0,0:0:0:0:
475,192,41815,128,0,42190:0:0:0:0:
402,192,41815,1,0,0:0:0:0:
109,192,41815,1,0,0:0:0:0:
109,192,42002,128,0,42096:0:0:0:0:
256,192,42002,128,0,42096:0:0:0:0:
36,192,42002,128,0,42096:0:0:0:0:
36,192,42190,1,0,0:0:0:0:
109,192,42190,1,0,0:0:0:0:
256,192,42190,1,0,0:0:0:0:
402,192,42190,128,0,42377:0:0:0:0:
329,192,42283,1,0,0:0:0:0:
109,192,42377,128,0,42565:0:0:0:0:
182,192,42377,1,0,0:0:0:0:
475,192,42377,1,0,0:0:0:0:
256,192,42471,1,0,0:0:0:0:
402,192,42471,1,0,0:0:0:0:
36,192,42565,1,0,0:0:0:0:
182,192,42565,1,0,0:0:0:0:
329,192,42565,128,0,43408:0:0:0:0:
475,192,42565,1,0,0:0:0:0:
109,192,42752,128,0,42846:0:0:0:0:
36,192,42752,128,0,42846:0:0:0:0:
182,192,42752,128,0,42846:0:0:0:0:
402,192,42846,128,0,42940:0:0:0:0:
475,192,42846,128,0,42940:0:0:0:0:
256,192,42940,128,0,43033:0:0:0:0:
182,192,42940,128,0,43033:0:0:0:0:
402,192,43033,128,0,43127:0:0:0:0:
475,192,43033,128,0,43127:0:0:0:0:
36,192,43127,128,0,43221:0:0:0:0:
182,192,43127,128,0,43221:0:0:0:0:
109,192,43127,128,0,43221:0:0:0:0:
402,192,43221,128,0,43315:0:0:0:0:
475,192,43221,128,0,43315:0:0:0:0:
256,192,43315,128,0,43971:0:0:0:0:
182,192,43408,128,0,43502:0:0:0:0:
109,192,43408,128,0,43502:0:0:0:0:
36,192,43408,128,0,43502:0:0:0:0:
329,192,43502,128,0,43596:0:0:0:0:
402,192,43502,128,0,43596:0:0:0:0:
475,192,43502,128,0,43596:0:0:0:0:
109,192,43596,128,0,43690:0:0:0:0:
36,192,43596,128,0,43690:0:0:0:0:
182,192,43596,128,0,43690:0:0:0:0:
475,192,43690,128,0,43783:0:0:0:0:
329,192,43690,128,0,43783:0:0:0:0:
402,192,43690,128,0,43783:0:0:0:0:
182,192,43783,128,0,43877:0:0:0:0:
109,192,43783,128,0,43877:0:0:0:0:
36,192,43783,128,0,43877:0:0:0:0:
329,192,43877,128,0,43971:0:0:0:0:
402,192,43877,128,0,43971:0:0:0:0:
475,192,43877,128,0,43971:0:0:0:0:
182,192,43971,128,0,44065:0:0:0:0:
109,192,43971,128,0,44065:0:0:0:0:
36,192,43971,128,0,44065:0:0:0:0:
329,192,44065,128,0,44440:0:0:0:0:
475,192,44065,128,0,44440:0:0:0:0:
256,192,44065,1,0,0:0:0:0:
402,192,44065,1,0,0:0:0:0:
402,192,44252,1,0,0:0:0:0:
36,192,44252,128,0,44627:0:0:0:0:
256,192,44252,128,0,44346:0:0:0:0:
109,192,44252,1,0,0:0:0:0:
182,192,44346,128,0,44627:0:0:0:0:
402,192,44440,128,0,44533:0:0:0:0:
256,192,44440,1,0,0:0:0:0:
109,192,44440,1,0,0:0:0:0:
329,192,44533,128,0,44627:0:0:0:0:
475,192,44627,128,0,44721:0:0:0:0:
109,192,44627,128,0,44815:0:0:0:0:
256,192,44627,1,0,0:0:0:0:
402,192,44627,1,0,0:0:0:0:
329,192,44721,128,0,44815:0:0:0:0:
256,192,44815,128,0,45096:0:0:0:0:
402,192,44815,1,0,0:0:0:0:
36,192,44815,128,0,45190:0:0:0:0:
182,192,44815,128,0,44908:0:0:0:0:
475,192,44815,1,0,0:0:0:0:
475,192,44908,128,0,45471:0:0:0:0:
182,192,45002,128,0,45283:0:0:0:0:
109,192,45002,1,0,0:0:0:0:
329,192,45002,128,0,45096:0:0:0:0:
402,192,45096,128,0,45283:0:0:0:0:
109,192,45190,128,0,45471:0:0:0:0:
256,192,45190,128,0,45283:0:0:0:0:
329,192,45283,128,0,45471:0:0:0:0:
36,192,45377,128,0,45565:0:0:0:0:
182,192,45377,1,0,0:0:0:0:
402,192,45377,128,0,45471:0:0:0:0:
256,192,45471,128,0,45846:0:0:0:0:
182,192,45565,1,0,0:0:0:0:
475,192,45565,1,0,0:0:0:0:
109,192,45565,128,0,45658:0:0:0:0:
402,192,45565,128,0,45658:0:0:0:0:
329,192,45658,128,0,45752:0:0:0:0:
182,192,45752,128,0,46033:0:0:0:0:
36,192,45752,128,0,45846:0:0:0:0:
402,192,45752,1,0,0:0:0:0:
475,192,45752,128,0,45846:0:0:0:0:
109,192,45846,128,0,45940:0:0:0:0:
256,192,45940,128,0,46221:0:0:0:0:
475,192,45940,1,0,0:0:0:0:
402,192,45940,128,0,46033:0:0:0:0:
329,192,46033,128,0,46127:0:0:0:0:
402,192,46127,1,0,0:0:0:0:
475,192,46127,128,0,46221:0:0:0:0:
182,192,46127,128,0,46315:0:0:0:0:
36,192,46127,128,0,46221:0:0:0:0:
109,192,46221,128,0,46408:0:0:0:0:
475,192,46315,128,0,46502:0:0:0:0:
329,192,46315,128,0,46502:0:0:0:0:
36,192,46315,128,0,46502:0:0:0:0:
256,192,46315,1,0,0:0:0:0:
402,192,46315,1,0,0:0:0:0:
182,192,46502,1,0,0:0:0:0:
402,192,46502,1,0,0:0:0:0:
329,192,46596,1,0,0:0:0:0:
109,192,46596,1,0,0:0:0:0:
256,192,46690,128,0,46783:0:0:0:0:
182,192,46690,1,0,0:0:0:0:
36,192,46690,128,0,47065:0:0:0:0:
475,192,46690,128,0,46783:0:0:0:0:
329,192,46783,128,0,46877:0:0:0:0:
182,192,46877,128,0,47065:0:0:0:0:
475,192,46877,1,0,0:0:0:0:
402,192,46877,128,0,46971:0:0:0:0:
109,192,46877,1,0,0:0:0:0:
256,192,46971,128,0,47065:0:0:0:0:
109,192,47065,1,0,0:0:0:0:
329,192,47065,128,0,47440:0:0:0:0:
475,192,47065,128,0,47440:0:0:0:0:
402,192,47065,1,0,0:0:0:0:
36,192,47252,128,0,47627:0:0:0:0:
109,192,47252,1,0,0:0:0:0:
256,192,47252,128,0,47346:0:0:0:0:
402,192,47252,1,0,0:0:0:0:
182,192,47346,128,0,47627:0:0:0:0:
402,192,47440,128,0,47533:0:0:0:0:
256,192,47440,1,0,0:0:0:0:
109,192,47440,1,0,0:0:0:0:
329,192,47533,128,0,47627:0:0:0:0:
109,192,47627,128,0,47721:0:0:0:0:
402,192,47627,128,0,47721:0:0:0:0:
256,192,47627,1,0,0:0:0:0:
475,192,47627,1,0,0:0:0:0:
182,192,47721,128,0,47815:0:0:0:0:
329,192,47721,1,0,0:0:0:0:
256,192,47815,128,0,48002:0:0:0:0:
475,192,47815,128,0,47908:0:0:0:0:
36,192,47815,128,0,48002:0:0:0:0:
402,192,47815,1,0,0:0:0:0:
329,192,47908,128,0,48190:0:0:0:0:
109,192,47908,1,0,0:0:0:0:
182,192,48002,1,0,0:0:0:0:
475,192,48002,1,0,0:0:0:0:
402,192,48002,128,0,48096:0:0:0:0:
256,192,48096,128,0,48377:0:0:0:0:
36,192,48096,1,0,0:0:0:0:
182,192,48190,128,0,48283:0:0:0:0:
109,192,48190,1,0,0:0:0:0:
475,192,48190,128,0,48283:0:0:0:0:
402,192,48190,1,0,0:0:0:0:
329,192,48283,128,0,48471:0:0:0:0:
36,192,48283,128,0,48377:0:0:0:0:
109,192,48377,128,0,48471:0:0:0:0:
402,192,48377,128,0,48565:0:0:0:0:
475,192,48377,1,0,0:0:0:0:
182,192,48471,128,0,48565:0:0:0:0:
36,192,48565,128,0,48658:0:0:0:0:
256,192,48565,128,0,48658:0:0:0:0:
475,192,48565,128,0,48658:0:0:0:0:
109,192,48752,1,0,0:0:0:0:
256,192,48752,1,0,0:0:0:0:
402,192,48752,1,0,0:0:0:0:
36,192,48752,1,0,0:0:0:0:
475,192,48752,1,0,0:0:0:0:
182,192,48940,128,0,49033:0:0:0:0:
329,192,48940,128,0,49033:0:0:0:0:
475,192,48940,128,0,49033:0:0:0:0:
36,192,48940,128,0,49033:0:0:0:0:
475,192,49127,1,0,0:0:0:0:
182,192,49127,1,0,0:0:0:0:
36,192,49127,1,0,0:0:0:0:
329,192,49127,1,0,0:0:0:0:
256,192,49127,1,0,0:0:0:0:
109,192,49315,128,0,49502:0:0:0:0:
402,192,49315,128,0,49502:0:0:0:0:
256,192,49315,1,0,0:0:0:0:
36,192,49315,1,0,0:0:0:0:
475,192,49315,1,0,0:0:0:0:
182,192,49502,1,0,0:0:0:0:
36,192,49502,1,0,0:0:0:0:
329,192,49502,1,0,0:0:0:0:
475,192,49502,1,0,0:0:0:0:
256,192,49596,1,0,0:0:0:0:
182,192,49690,1,0,0:0:0:0:
36,192,49690,1,0,0:0:0:0:
329,192,49690,1,0,0:0:0:0:
402,192,49690,1,0,0:0:0:0:
475,192,49690,1,0,0:0:0:0:
109,192,49690,1,0,0:0:0:0:
109,192,49877,1,0,0:0:0:0:
182,192,49877,1,0,0:0:0:0:
329,192,49877,1,0,0:0:0:0:
402,192,49877,1,0,0:0:0:0:
182,192,50065,128,0,50815:0:0:0:0:
329,192,50065,128,0,50252:0:0:0:0:
36,192,50065,1,0,0:0:0:0:
109,192,50065,1,0,0:0:0:0:
475,192,50065,1,0,0:0:0:0:
256,192,50065,1,0,0:0:0:0:
402,192,50252,128,0,50346:0:0:0:0:
475,192,50346,128,0,50440:0:0:0:0:
402,192,50440,128,0,50533:0:0:0:0:
329,192,50533,128,0,50627:0:0:0:0:
256,192,50627,128,0,50721:0:0:0:0:
329,192,50721,128,0,50815:0:0:0:0:
109,192,50815,128,0,50908:0:0:0:0:
402,192,50815,128,0,50908:0:0:0:0:
475,192,50908,128,0,51002:0:0:0:0:
182,192,50908,128,0,51002:0:0:0:0:
36,192,51002,128,0,51096:0:0:0:0:
329,192,51002,128,0,51096:0:0:0:0:
402,192,51096,128,0,51190:0:0:0:0:
109,192,51096,128,0,51190:0:0:0:0:
329,192,51190,128,0,51283:0:0:0:0:
36,192,51190,128,0,51283:0:0:0:0:
182,192,51283,128,0,51377:0:0:0:0:
475,192,51283,128,0,51377:0:0:0:0:
329,192,51377,128,0,51471:0:0:0:0:
36,192,51377,128,0,51471:0:0:0:0:
402,192,51471,128,0,51565:0:0:0:0:
182,192,51471,128,0,51565:0:0:0:0:
109,192,51565,128,0,52315:0:0:0:0:
329,192,51565,128,0,51752:0:0:0:0:
36,192,51565,1,0,0:0:0:0:
256,192,51565,1,0,0:0:0:0:
475,192,51565,1,0,0:0:0:0:
402,192,51752,128,0,51846:0:0:0:0:
475,192,51846,128,0,51940:0:0:0:0:
329,192,51940,128,0,52033:0:0:0:0:
256,192,52033,128,0,52127:0:0:0:0:
182,192,52127,128,0,52221:0:0:0:0:
402,192,52127,128,0,52221:0:0:0:0:
256,192,52221,128,0,52315:0:0:0:0:
475,192,52221,128,0,52315:0:0:0:0:
36,192,52315,128,0,52408:0:0:0:0:
329,192,52315,128,0,52408:0:0:0:0:
475,192,52408,128,0,52502:0:0:0:0:
182,192,52408,128,0,52502:0:0:0:0:
36,192,52502,128,0,52596:0:0:0:0:
329,192,52502,128,0,52596:0:0:0:0:
402,192,52596,128,0,52690:0:0:0:0:
109,192,52596,128,0,52690:0:0:0:0:
36,192,52690,128,0,52783:0:0:0:0:
329,192,52690,128,0,52783:0:0:0:0:
182,192,52783,128,0,52877:0:0:0:0:
475,192,52783,128,0,52877:0:0:0:0:
329,192,52877,128,0,52971:0:0:0:0:
36,192,52877,128,0,52971:0:0:0:0:
109,192,52971,128,0,53065:0:0:0:0:
402,192,52971,128,0,53065:0:0:0:0:
36,192,53065,128,0,53815:0:0:0:0:
329,192,53065,128,0,53252:0:0:0:0:
182,192,53065,1,0,0:0:0:0:
256,192,53065,1,0,0:0:0:0:
475,192,53065,1,0,0:0:0:0:
402,192,53252,128,0,53346:0:0:0:0:
475,192,53346,128,0,53440:0:0:0:0:
402,192,53440,128,0,53533:0:0:0:0:
329,192,53533,128,0,53627:0:0:0:0:
402,192,53627,128,0,53721:0:0:0:0:
182,192,53721,128,0,53815:0:0:0:0:
402,192,53815,128,0,53908:0:0:0:0:
109,192,53815,128,0,53908:0:0:0:0:
475,192,53908,128,0,54002:0:0:0:0:
182,192,53908,128,0,54002:0:0:0:0:
36,192,54002,128,0,54096:0:0:0:0:
256,192,54002,128,0,54096:0:0:0:0:
109,192,54096,128,0,54190:0:0:0:0:
329,192,54096,128,0,54190:0:0:0:0:
182,192,54190,128,0,54471:0:0:0:0:
402,192,54190,128,0,54471:0:0:0:0:
329,192,54283,128,0,54377:0:0:0:0:
475,192,54283,128,0,54377:0:0:0:0:
36,192,54377,128,0,54658:0:0:0:0:
256,192,54377,128,0,54565:0:0:0:0:
329,192,54471,128,0,54658:0:0:0:0:
109,192,54471,128,0,54565:0:0:0:0:
182,192,54565,128,0,54752:0:0:0:0:
475,192,54565,128,0,54752:0:0:0:0:
402,192,54658,128,0,54940:0:0:0:0:
109,192,54658,128,0,54940:0:0:0:0:
36,192,54752,128,0,54846:0:0:0:0:
329,192,54752,128,0,54846:0:0:0:0:
182,192,54846,128,0,55033:0:0:0:0:
475,192,54846,128,0,55033:0:0:0:0:
36,192,54940,128,0,55033:0:0:0:0:
329,192,54940,128,0,55033:0:0:0:0:
109,192,55127,128,0,55221:0:0:0:0:
402,192,55127,128,0,55221:0:0:0:0:
256,192,55127,128,0,55221:0:0:0:0:
109,192,55315,1,0,0:0:0:0:
182,192,55315,128,0,55690:0:0:0:0:
329,192,55315,128,0,55690:0:0:0:0:
402,192,55315,1,0,0:0:0:0:
475,192,55315,128,0,55408:0:0:0:0:
36,192,55315,128,0,55408:0:0:0:0:
256,192,55408,128,0,55502:0:0:0:0:
36,192,55502,128,0,55596:0:0:0:0:
475,192,55502,128,0,55596:0:0:0:0:
109,192,55596,128,0,55690:0:0:0:0:
402,192,55596,128,0,55690:0:0:0:0:
36,192,55690,128,0,55971:0:0:0:0:
475,192,55690,128,0,55971:0:0:0:0:
256,192,55690,1,0,0:0:0:0:
182,192,55877,128,0,55971:0:0:0:0:
329,192,55877,128,0,55971:0:0:0:0:
256,192,55877,128,0,55971:0:0:0:0:
329,192,56065,128,0,56627:0:0:0:0:
475,192,56065,128,0,56158:0:0:0:0:
182,192,56065,1,0,0:0:0:0:
36,192,56065,1,0,0:0:0:0:
109,192,56065,1,0,0:0:0:0:
402,192,56158,128,0,56252:0:0:0:0:
256,192,56252,128,0,56346:0:0:0:0:
402,192,56346,128,0,56440:0:0:0:0:
182,192,56440,128,0,57002:0:0:0:0:
36,192,56440,128,0,56533:0:0:0:0:
475,192,56440,1,0,0:0:0:0:
109,192,56533,128,0,56627:0:0:0:0:
256,192,56627,128,0,56721:0:0:0:0:
109,192,56721,128,0,56815:0:0:0:0:
402,192,56815,128,0,57377:0:0:0:0:
475,192,56815,128,0,56908:0:0:0:0:
36,192,56815,1,0,0:0:0:0:
256,192,56815,1,0,0:0:0:0:
329,192,56908,128,0,57002:0:0:0:0:
256,192,57002,128,0,57096:0:0:0:0:
329,192,57096,128,0,57190:0:0:0:0:
109,192,57190,128,0,57752:0:0:0:0:
36,192,57190,128,0,57283:0:0:0:0:
256,192,57190,1,0,0:0:0:0:
475,192,57190,1,0,0:0:0:0:
182,192,57283,128,0,57377:0:0:0:0:
256,192,57377,128,0,57471:0:0:0:0:
402,192,57471,128,0,57565:0:0:0:0:
475,192,57565,1,0,0:0:0:0:
36,192,57565,1,0,0:0:0:0:
329,192,57565,128,0,58127:0:0:0:0:
256,192,57565,128,0,57658:0:0:0:0:
182,192,57658,128,0,57752:0:0:0:0:
402,192,57752,128,0,57846:0:0:0:0:
256,192,57846,128,0,57940:0:0:0:0:
182,192,57940,128,0,58502:0:0:0:0:
36,192,57940,128,0,58033:0:0:0:0:
402,192,57940,1,0,0:0:0:0:
475,192,57940,1,0,0:0:0:0:
109,192,58033,128,0,58127:0:0:0:0:
402,192,58127,128,0,58221:0:0:0:0:
256,192,58221,128,0,58315:0:0:0:0:
475,192,58315,128,0,58690:0:0:0:0:
36,192,58315,128,0,58408:0:0:0:0:
329,192,58408,128,0,58690:0:0:0:0:
109,192,58408,128,0,58502:0:0:0:0:
402,192,58502,128,0,58690:0:0:0:0:
36,192,58502,128,0,58596:0:0:0:0:
256,192,58596,128,0,58690:0:0:0:0:
36,192,58690,1,0,0:0:0:0:
182,192,58690,128,0,58877:0:0:0:0:
109,192,58690,128,0,58971:0:0:0:0:
329,192,58783,128,0,59065:0:0:0:0:
402,192,58877,128,0,59065:0:0:0:0:
256,192,58971,128,0,59065:0:0:0:0:
182,192,59065,128,0,59627:0:0:0:0:
109,192,59065,128,0,59158:0:0:0:0:
475,192,59065,1,0,0:0:0:0:
36,192,59158,128,0,59252:0:0:0:0:
402,192,59158,128,0,59252:0:0:0:0:
256,192,59252,128,0,59346:0:0:0:0:
109,192,59346,128,0,59440:0:0:0:0:
475,192,59346,128,0,59440:0:0:0:0:
329,192,59440,128,0,60002:0:0:0:0:
402,192,59440,128,0,59533:0:0:0:0:
36,192,59440,1,0,0:0:0:0:
256,192,59440,1,0,0:0:0:0:
475,192,59533,128,0,59627:0:0:0:0:
109,192,59533,128,0,59627:0:0:0:0:
256,192,59627,128,0,59721:0:0:0:0:
402,192,59721,128,0,59815:0:0:0:0:
36,192,59721,128,0,59815:0:0:0:0:
109,192,59815,128,0,60377:0:0:0:0:
182,192,59815,128,0,59908:0:0:0:0:
256,192,59815,1,0,0:0:0:0:
36,192,59908,128,0,60002:0:0:0:0:
475,192,59908,128,0,60002:0:0:0:0:
402,192,60002,128,0,60096:0:0:0:0:
256,192,60096,128,0,60190:0:0:0:0:
402,192,60190,128,0,60752:0:0:0:0:
329,192,60190,128,0,60283:0:0:0:0:
182,192,60190,1,0,0:0:0:0:
36,192,60190,128,0,60283:0:0:0:0:
475,192,60283,128,0,60377:0:0:0:0:
256,192,60283,128,0,60377:0:0:0:0:
182,192,60377,128,0,60471:0:0:0:0:
329,192,60471,128,0,60565:0:0:0:0:
109,192,60565,128,0,61127:0:0:0:0:
256,192,60565,128,0,60658:0:0:0:0:
36,192,60565,128,0,60658:0:0:0:0:
475,192,60565,1,0,0:0:0:0:
182,192,60658,128,0,60752:0:0:0:0:
329,192,60752,128,0,60846:0:0:0:0:
402,192,60846,128,0,60940:0:0:0:0:
475,192,60940,128,0,61033:0:0:0:0:
36,192,60940,128,0,61033:0:0:0:0:
256,192,60940,128,0,61315:0:0:0:0:
329,192,61033,128,0,61127:0:0:0:0:
182,192,61033,128,0,61127:0:0:0:0:
475,192,61127,128,0,61221:0:0:0:0:
36,192,61127,128,0,61221:0:0:0:0:
109,192,61221,128,0,61315:0:0:0:0:
402,192,61221,128,0,61315:0:0:0:0:
329,192,61315,128,0,61690:0:0:0:0:
182,192,61315,128,0,61690:0:0:0:0:
36,192,61408,1,0,0:0:0:0:
475,192,61408,1,0,0:0:0:0:
109,192,61502,1,0,0:0:0:0:
402,192,61502,1,0,0:0:0:0:
475,192,61596,1,0,0:0:0:0:
36,192,61596,1,0,0:0:0:0:
402,192,61690,1,0,0:0:0:0:
109,192,61690,1,0,0:0:0:0:
329,192,61783,1,0,0:0:0:0:
182,192,61783,1,0,0:0:0:0:
109,192,61877,1,0,0:0:0:0:
402,192,61877,1,0,0:0:0:0:
182,192,61971,1,0,0:0:0:0:
329,192,61971,1,0,0:0:0:0:
475,192,62065,1,0,0:0:0:0:
402,192,62065,128,0,62190:0:0:0:0:
109,192,62065,1,0,0:0:0:0:
256,192,62065,1,0,0:0:0:0:
36,192,62065,1,0,0:0:0:0:
475,192,62252,128,0,62377:0:0:0:0:
402,192,62440,128,0,62565:0:0:0:0:
329,192,62627,128,0,62752:0:0:0:0:
36,192,62627,1,0,0:0:0:0:
109,192,62690,1,0,0:0:0:0:
182,192,62815,1,0,0:0:0:0:
402,192,62815,128,0,62940:0:0:0:0:
475,192,63002,128,0,63127:0:0:0:0:
402,192,63190,128,0,63315:0:0:0:0:
36,192,63377,1,0,0:0:0:0:
329,192,63377,128,0,63502:0:0:0:0:
109,192,63440,1,0,0:0:0:0:
182,192,63565,1,0,0:0:0:0:
402,192,63565,128,0,63690:0:0:0:0:
475,192,63752,128,0,63877:0:0:0:0:
256,192,63940,128,0,64065:0:0:0:0:
402,192,64127,128,0,64252:0:0:0:0:
182,192,64315,128,0,64690:0:0:0:0:
36,192,64315,1,0,0:0:0:0:
475,192,64315,1,0,0:0:0:0:
329,192,64690,1,0,0:0:0:0:
475,192,64713,1,0,0:0:0:0:
402,192,65065,128,0,65627:0:0:0:0:
36,192,65065,1,0,0:0:0:0:
182,192,65065,1,0,0:0:0:0:
475,192,65065,1,0,0:0:0:0:
109,192,65252,1,0,0:0:0:0:
256,192,65252,1,0,0:0:0:0:
36,192,65440,1,0,0:0:0:0:
182,192,65440,128,0,66002:0:0:0:0:
329,192,65440,1,0,0:0:0:0:
475,192,65440,1,0,0:0:0:0:
256,192,65627,1,0,0:0:0:0:
329,192,65815,128,0,66377:0:0:0:0:
36,192,65815,1,0,0:0:0:0:
256,192,65815,1,0,0:0:0:0:
475,192,65815,1,0,0:0:0:0:
109,192,66002,1,0,0:0:0:0:
109,192,66190,128,0,66565:0:0:0:0:
36,192,66190,1,0,0:0:0:0:
182,192,66190,1,0,0:0:0:0:
402,192,66190,1,0,0:0:0:0:
475,192,66190,1,0,0:0:0:0:
329,192,66471,1,0,0:0:0:0:
402,192,66518,1,0,0:0:0:0:
182,192,66565,1,0,0:0:0:0:
36,192,66565,1,0,0:0:0:0:
475,192,66565,128,0,66940:0:0:0:0:
256,192,66752,1,0,0:0:0:0:
109,192,66752,1,0,0:0:0:0:
329,192,66940,128,0,67315:0:0:0:0:
182,192,66940,1,0,0:0:0:0:
36,192,66940,1,0,0:0:0:0:
402,192,66940,1,0,0:0:0:0:
109,192,67127,1,0,0:0:0:0:
475,192,67127,1,0,0:0:0:0:
182,192,67221,128,0,67315:0:0:0:0:
402,192,67221,1,0,0:0:0:0:
36,192,67315,1,0,0:0:0:0:
256,192,67315,128,0,67690:0:0:0:0:
475,192,67315,1,0,0:0:0:0:
109,192,67315,1,0,0:0:0:0:
109,192,67502,1,0,0:0:0:0:
402,192,67502,1,0,0:0:0:0:
109,192,67690,128,0,67971:0:0:0:0:
36,192,67690,1,0,0:0:0:0:
329,192,67690,1,0,0:0:0:0:
475,192,67690,1,0,0:0:0:0:
182,192,67783,128,0,67877:0:0:0:0:
256,192,67783,1,0,0:0:0:0:
475,192,67877,1,0,0:0:0:0:
36,192,67877,1,0,0:0:0:0:
402,192,67877,128,0,68065:0:0:0:0:
329,192,67971,128,0,68065:0:0:0:0:
182,192,68065,128,0,68158:0:0:0:0:
475,192,68065,128,0,68346:0:0:0:0:
36,192,68065,1,0,0:0:0:0:
256,192,68065,1,0,0:0:0:0:
329,192,68252,128,0,68533:0:0:0:0:
109,192,68252,128,0,68346:0:0:0:0:
256,192,68252,1,0,0:0:0:0:
256,192,68440,1,0,0:0:0:0:
475,192,68440,1,0,0:0:0:0:
36,192,68440,128,0,68721:0:0:0:0:
182,192,68440,128,0,68533:0:0:0:0:
109,192,68627,1,0,0:0:0:0:
256,192,68627,128,0,68721:0:0:0:0:
402,192,68627,128,0,68721:0:0:0:0:
329,192,68815,128,0,69096:0:0:0:0:
256,192,68815,1,0,0:0:0:0:
36,192,68815,1,0,0:0:0:0:
475,192,68815,1,0,0:0:0:0:
182,192,69002,128,0,69283:0:0:0:0:
475,192,69002,128,0,69096:0:0:0:0:
109,192,69002,1,0,0:0:0:0:
256,192,69190,128,0,69471:0:0:0:0:
36,192,69190,128,0,69283:0:0:0:0:
402,192,69190,128,0,69283:0:0:0:0:
329,192,69190,1,0,0:0:0:0:
475,192,69190,1,0,0:0:0:0:
109,192,69377,128,0,69471:0:0:0:0:
475,192,69377,128,0,69471:0:0:0:0:
402,192,69377,1,0,0:0:0:0:
182,192,69565,128,0,70033:0:0:0:0:
36,192,69565,1,0,0:0:0:0:
256,192,69565,1,0,0:0:0:0:
109,192,69565,1,0,0:0:0:0:
475,192,69565,1,0,0:0:0:0:
329,192,69752,128,0,69846:0:0:0:0:
475,192,69752,128,0,69846:0:0:0:0:
36,192,69752,128,0,69846:0:0:0:0:
256,192,69940,128,0,70033:0:0:0:0:
402,192,69940,128,0,70502:0:0:0:0:
475,192,69940,1,0,0:0:0:0:
109,192,69940,1,0,0:0:0:0:
36,192,69940,1,0,0:0:0:0:
36,192,70127,128,0,70221:0:0:0:0:
182,192,70127,128,0,70221:0:0:0:0:
329,192,70127,128,0,70221:0:0:0:0:
109,192,70315,128,0,70408:0:0:0:0:
256,192,70315,128,0,70783:0:0:0:0:
329,192,70315,1,0,0:0:0:0:
475,192,70315,1,0,0:0:0:0:
36,192,70315,1,0,0:0:0:0:
475,192,70502,128,0,70596:0:0:0:0:
36,192,70502,128,0,70596:0:0:0:0:
182,192,70502,128,0,70596:0:0:0:0:
109,192,70690,128,0,70971:0:0:0:0:
402,192,70690,128,0,70783:0:0:0:0:
329,192,70690,1,0,0:0:0:0:
475,192,70690,1,0,0:0:0:0:
36,192,70690,1,0,0:0:0:0:
182,192,70877,128,0,70971:0:0:0:0:
475,192,70877,128,0,70971:0:0:0:0:
329,192,70877,128,0,70971:0:0:0:0:
329,192,71065,1,0,0:0:0:0:
475,192,71065,1,0,0:0:0:0:
402,192,71065,128,0,71533:0:0:0:0:
182,192,71065,1,0,0:0:0:0:
36,192,71065,1,0,0:0:0:0:
182,192,71252,1,0,0:0:0:0:
109,192,71252,128,0,71533:0:0:0:0:
36,192,71252,1,0,0:0:0:0:
475,192,71252,1,0,0:0:0:0:
329,192,71346,1,0,0:0:0:0:
256,192,71440,128,0,71815:0:0:0:0:
36,192,71440,1,0,0:0:0:0:
475,192,71440,1,0,0:0:0:0:
182,192,71533,128,0,71627:0:0:0:0:
475,192,71627,1,0,0:0:0:0:
36,192,71627,1,0,0:0:0:0:
329,192,71627,128,0,71815:0:0:0:0:
182,192,71721,128,0,71815:0:0:0:0:
109,192,71815,1,0,0:0:0:0:
36,192,71815,1,0,0:0:0:0:
475,192,71815,1,0,0:0:0:0:
402,192,71815,1,0,0:0:0:0:
329,192,72190,128,0,72471:0:0:0:0:
182,192,72190,128,0,72471:0:0:0:0:
36,192,72190,128,0,72471:0:0:0:0:
475,192,72190,1,0,0:0:0:0:
256,192,72190,1,0,0:0:0:0:
109,192,72190,1,0,0:0:0:0:
402,192,72377,1,0,0:0:0:0:
475,192,72377,1,0,0:0:0:0:
182,192,72565,1,0,0:0:0:0:
36,192,72565,1,0,0:0:0:0:
329,192,72565,128,0,72752:0:0:0:0:
475,192,72565,128,0,72846:0:0:0:0:
182,192,72752,128,0,72940:0:0:0:0:
36,192,72752,1,0,0:0:0:0:
109,192,72752,1,0,0:0:0:0:
256,192,72940,128,0,73127:0:0:0:0:
36,192,72940,128,0,73221:0:0:0:0:
475,192,72940,1,0,0:0:0:0:
402,192,72940,1,0,0:0:0:0:
402,192,73127,128,0,73315:0:0:0:0:
109,192,73127,1,0,0:0:0:0:
329,192,73127,1,0,0:0:0:0:
182,192,73315,128,0,73690:0:0:0:0:
475,192,73315,128,0,73690:0:0:0:0:
36,192,73315,1,0,0:0:0:0:
109,192,73315,1,0,0:0:0:0:
329,192,73315,1,0,0:0:0:0:
256,192,73502,1,0,0:0:0:0:
402,192,73502,1,0,0:0:0:0:
36,192,73502,128,0,74065:0:0:0:0:
329,192,73690,128,0,73877:0:0:0:0:
109,192,73690,1,0,0:0:0:0:
402,192,73690,1,0,0:0:0:0:
256,192,73783,1,0,0:0:0:0:
475,192,73877,1,0,0:0:0:0:
109,192,73877,128,0,74065:0:0:0:0:
402,192,73971,1,0,0:0:0:0:
256,192,73971,1,0,0:0:0:0:
182,192,74065,128,0,74908:0:0:0:0:
329,192,74065,1,0,0:0:0:0:
475,192,74065,1,0,0:0:0:0:
256,192,74158,1,0,0:0:0:0:
402,192,74252,128,0,74346:0:0:0:0:
475,192,74252,128,0,74346:0:0:0:0:
329,192,74252,128,0,74346:0:0:0:0:
36,192,74252,1,0,0:0:0:0:
109,192,74252,1,0,0:0:0:0:
109,192,74346,128,0,74440:0:0:0:0:
36,192,74346,128,0,74440:0:0:0:0:
402,192,74440,1,0,0:0:0:0:
256,192,74440,128,0,74533:0:0:0:0:
329,192,74440,128,0,74533:0:0:0:0:
475,192,74440,1,0,0:0:0:0:
109,192,74533,128,0,74627:0:0:0:0:
36,192,74533,128,0,74627:0:0:0:0:
402,192,74627,128,0,74721:0:0:0:0:
475,192,74627,128,0,74721:0:0:0:0:
329,192,74627,128,0,74721:0:0:0:0:
256,192,74627,1,0,0:0:0:0:
109,192,74721,128,0,74908:0:0:0:0:
36,192,74721,128,0,74908:0:0:0:0:
256,192,74815,128,0,75471:0:0:0:0:
402,192,74815,1,0,0:0:0:0:
475,192,74815,1,0,0:0:0:0:
329,192,74815,1,0,0:0:0:0:
329,192,74908,128,0,75002:0:0:0:0:
402,192,74908,128,0,75190:0:0:0:0:
475,192,74908,128,0,75002:0:0:0:0:
182,192,75002,128,0,75096:0:0:0:0:
109,192,75002,128,0,75283:0:0:0:0:
36,192,75002,128,0,75096:0:0:0:0:
329,192,75096,128,0,75377:0:0:0:0:
475,192,75096,128,0,75190:0:0:0:0:
36,192,75190,128,0,75471:0:0:0:0:
182,192,75190,128,0,75283:0:0:0:0:
402,192,75283,128,0,75377:0:0:0:0:
475,192,75283,128,0,75658:0:0:0:0:
109,192,75377,128,0,75471:0:0:0:0:
182,192,75377,128,0,75471:0:0:0:0:
329,192,75471,128,0,75658:0:0:0:0:
402,192,75471,128,0,75658:0:0:0:0:
256,192,75565,128,0,75658:0:0:0:0:
109,192,75565,128,0,75658:0:0:0:0:
182,192,75565,128,0,75940:0:0:0:0:
36,192,75565,128,0,75940:0:0:0:0:
475,192,75752,128,0,76221:0:0:0:0:
109,192,75752,1,0,0:0:0:0:
402,192,75752,128,0,75846:0:0:0:0:
256,192,75752,128,0,75846:0:0:0:0:
329,192,75846,128,0,76033:0:0:0:0:
109,192,75940,128,0,76033:0:0:0:0:
402,192,75940,1,0,0:0:0:0:
256,192,75940,128,0,76221:0:0:0:0:
182,192,76033,128,0,76127:0:0:0:0:
36,192,76127,128,0,76221:0:0:0:0:
329,192,76127,128,0,76315:0:0:0:0:
109,192,76127,1,0,0:0:0:0:
402,192,76127,1,0,0:0:0:0:
182,192,76221,128,0,76315:0:0:0:0:
475,192,76315,128,0,76690:0:0:0:0:
402,192,76315,128,0,76408:0:0:0:0:
256,192,76315,128,0,76596:0:0:0:0:
109,192,76315,128,0,76408:0:0:0:0:
36,192,76315,1,0,0:0:0:0:
36,192,76408,128,0,76690:0:0:0:0:
329,192,76502,128,0,76783:0:0:0:0:
402,192,76502,1,0,0:0:0:0:
182,192,76502,128,0,76690:0:0:0:0:
109,192,76596,128,0,76783:0:0:0:0:
402,192,76690,128,0,76971:0:0:0:0:
256,192,76690,128,0,76877:0:0:0:0:
182,192,76783,128,0,77065:0:0:0:0:
36,192,76783,128,0,76971:0:0:0:0:
475,192,76877,128,0,77065:0:0:0:0:
109,192,76877,128,0,76971:0:0:0:0:
329,192,76877,128,0,76971:0:0:0:0:
256,192,76971,128,0,77346:0:0:0:0:
329,192,77065,1,0,0:0:0:0:
36,192,77065,1,0,0:0:0:0:
402,192,77065,128,0,77158:0:0:0:0:
109,192,77065,128,0,77158:0:0:0:0:
182,192,77158,128,0,77440:0:0:0:0:
329,192,77252,128,0,77533:0:0:0:0:
475,192,77252,128,0,77346:0:0:0:0:
109,192,77252,1,0,0:0:0:0:
36,192,77252,128,0,77346:0:0:0:0:
402,192,77346,128,0,77440:0:0:0:0:
256,192,77440,128,0,77721:0:0:0:0:
109,192,77440,128,0,77533:0:0:0:0:
475,192,77440,128,0,77533:0:0:0:0:
36,192,77440,128,0,77533:0:0:0:0:
182,192,77533,128,0,77627:0:0:0:0:
329,192,77627,128,0,77815:0:0:0:0:
109,192,77627,1,0,0:0:0:0:
36,192,77627,128,0,77721:0:0:0:0:
475,192,77627,128,0,77721:0:0:0:0:
402,192,77721,128,0,77908:0:0:0:0:
36,192,77815,128,0,78002:0:0:0:0:
182,192,77815,128,0,78002:0:0:0:0:
475,192,77815,128,0,78002:0:0:0:0:
109,192,77815,1,0,0:0:0:0:
256,192,77815,128,0,78002:0:0:0:0:
109,192,78002,128,0,78096:0:0:0:0:
329,192,78002,128,0,78096:0:0:0:0:
182,192,78096,128,0,78190:0:0:0:0:
402,192,78096,128,0,78190:0:0:0:0:
36,192,78190,128,0,78283:0:0:0:0:
256,192,78190,128,0,78471:0:0:0:0:
475,192,78190,128,0,78658:0:0:0:0:
329,192,78190,128,0,78283:0:0:0:0:
182,192,78283,128,0,78377:0:0:0:0:
36,192,78377,1,0,0:0:0:0:
329,192,78377,128,0,78565:0:0:0:0:
402,192,78377,1,0,0:0:0:0:
109,192,78377,128,0,78471:0:0:0:0:
182,192,78565,128,0,78940:0:0:0:0:
36,192,78565,128,0,79033:0:0:0:0:
256,192,78565,128,0,78658:0:0:0:0:
402,192,78565,128,0,78658:0:0:0:0:
109,192,78565,128,0,78658:0:0:0:0:
475,192,78752,128,0,79127:0:0:0:0:
256,192,78752,128,0,78846:0:0:0:0:
109,192,78752,1,0,0:0:0:0:
402,192,78752,128,0,78846:0:0:0:0:
329,192,78846,128,0,79127:0:0:0:0:
109,192,78940,128,0,79033:0:0:0:0:
402,192,78940,1,0,0:0:0:0:
256,192,78940,128,0,79033:0:0:0:0:
182,192,79033,128,0,79127:0:0:0:0:
402,192,79127,128,0,79315:0:0:0:0:
109,192,79127,128,0,79221:0:0:0:0:
256,192,79127,1,0,0:0:0:0:
36,192,79127,1,0,0:0:0:0:
329,192,79221,128,0,79408:0:0:0:0:
182,192,79221,1,0,0:0:0:0:
256,192,79315,128,0,79502:0:0:0:0:
36,192,79315,128,0,79502:0:0:0:0:
475,192,79315,128,0,79502:0:0:0:0:
109,192,79315,1,0,0:0:0:0:
182,192,79408,128,0,79690:0:0:0:0:
402,192,79502,128,0,79596:0:0:0:0:
329,192,79502,1,0,0:0:0:0:
109,192,79502,128,0,79596:0:0:0:0:
256,192,79596,128,0,79877:0:0:0:0:
475,192,79596,128,0,79690:0:0:0:0:
329,192,79690,128,0,79783:0:0:0:0:
36,192,79690,128,0,79783:0:0:0:0:
109,192,79690,1,0,0:0:0:0:
182,192,79783,128,0,79971:0:0:0:0:
402,192,79783,1,0,0:0:0:0:
109,192,79877,128,0,80065:0:0:0:0:
36,192,79877,1,0,0:0:0:0:
329,192,79877,1,0,0:0:0:0:
475,192,79877,128,0,79971:0:0:0:0:
256,192,79971,1,0,0:0:0:0:
402,192,79971,128,0,80065:0:0:0:0:
36,192,80065,128,0,80158:0:0:0:0:
475,192,80065,128,0,80158:0:0:0:0:
182,192,80065,128,0,80158:0:0:0:0:
329,192,80065,128,0,80158:0:0:0:0:
256,192,80252,1,0,0:0:0:0:
475,192,80252,1,0,0:0:0:0:
36,192,80252,1,0,0:0:0:0:
109,192,80252,128,0,80533:0:0:0:0:
402,192,80252,128,0,80533:0:0:0:0:
329,192,80440,128,0,80533:0:0:0:0:
182,192,80440,128,0,80533:0:0:0:0:
36,192,80440,128,0,80533:0:0:0:0:
475,192,80440,128,0,80533:0:0:0:0:
475,192,80627,1,0,0:0:0:0:
36,192,80627,1,0,0:0:0:0:
256,192,80627,1,0,0:0:0:0:
329,192,80627,128,0,80815:0:0:0:0:
182,192,80627,128,0,80815:0:0:0:0:
402,192,80815,128,0,81002:0:0:0:0:
109,192,80815,128,0,81002:0:0:0:0:
256,192,80815,1,0,0:0:0:0:
475,192,80815,1,0,0:0:0:0:
36,192,80815,1,0,0:0:0:0:
329,192,81002,1,0,0:0:0:0:
475,192,81002,1,0,0:0:0:0:
182,192,81002,1,0,0:0:0:0:
36,192,81002,1,0,0:0:0:0:
256,192,81096,1,0,0:0:0:0:
36,192,81190,128,0,81283:0:0:0:0:
109,192,81190,128,0,81283:0:0:0:0:
182,192,81190,128,0,81283:0:0:0:0:
329,192,81190,128,0,81283:0:0:0:0:
402,192,81190,128,0,81283:0:0:0:0:
475,192,81190,128,0,81283:0:0:0:0:
109,192,81377,128,0,81471:0:0:0:0:
402,192,81377,128,0,81471:0:0:0:0:
329,192,81377,128,0,81471:0:0:0:0:
182,192,81377,128,0,81471:0:0:0:0:
36,192,81565,128,0,82033:0:0:0:0:
329,192,81565,128,0,81752:0:0:0:0:
182,192,81565,1,0,0:0:0:0:
475,192,81565,1,0,0:0:0:0:
256,192,81565,1,0,0:0:0:0:
402,192,81752,128,0,81846:0:0:0:0:
109,192,81752,128,0,82221:0:0:0:0:
475,192,81846,128,0,81940:0:0:0:0:
402,192,81940,128,0,82033:0:0:0:0:
182,192,81940,128,0,82221:0:0:0:0:
329,192,82033,128,0,82127:0:0:0:0:
256,192,82127,128,0,82221:0:0:0:0:
36,192,82127,128,0,82221:0:0:0:0:
329,192,82221,128,0,82315:0:0:0:0:
109,192,82315,128,0,82408:0:0:0:0:
402,192,82315,128,0,82408:0:0:0:0:
36,192,82315,1,0,0:0:0:0:
475,192,82408,128,0,82502:0:0:0:0:
182,192,82408,128,0,82502:0:0:0:0:
36,192,82502,128,0,82596:0:0:0:0:
329,192,82502,128,0,82596:0:0:0:0:
402,192,82596,128,0,82877:0:0:0:0:
109,192,82596,128,0,82971:0:0:0:0:
329,192,82690,128,0,82783:0:0:0:0:
36,192,82690,128,0,82783:0:0:0:0:
182,192,82783,128,0,82877:0:0:0:0:
475,192,82783,128,0,82971:0:0:0:0:
329,192,82877,128,0,82971:0:0:0:0:
36,192,82877,128,0,83065:0:0:0:0:
402,192,82971,128,0,83065:0:0:0:0:
182,192,82971,128,0,83065:0:0:0:0:
109,192,83065,128,0,83721:0:0:0:0:
329,192,83065,128,0,83252:0:0:0:0:
256,192,83065,1,0,0:0:0:0:
475,192,83065,1,0,0:0:0:0:
402,192,83252,128,0,83346:0:0:0:0:
36,192,83252,128,0,83533:0:0:0:0:
475,192,83346,128,0,83440:0:0:0:0:
329,192,83440,128,0,83533:0:0:0:0:
182,192,83440,128,0,83721:0:0:0:0:
256,192,83533,128,0,83627:0:0:0:0:
402,192,83627,128,0,83721:0:0:0:0:
36,192,83627,128,0,83721:0:0:0:0:
256,192,83721,128,0,83815:0:0:0:0:
475,192,83721,128,0,83815:0:0:0:0:
36,192,83815,128,0,83908:0:0:0:0:
329,192,83815,128,0,83908:0:0:0:0:
475,192,83908,128,0,84002:0:0:0:0:
182,192,83908,128,0,84002:0:0:0:0:
36,192,84002,128,0,84096:0:0:0:0:
329,192,84002,128,0,84096:0:0:0:0:
402,192,84096,128,0,84377:0:0:0:0:
109,192,84096,128,0,84377:0:0:0:0:
36,192,84190,128,0,84283:0:0:0:0:
329,192,84190,128,0,84283:0:0:0:0:
182,192,84283,128,0,84471:0:0:0:0:
475,192,84283,128,0,84471:0:0:0:0:
329,192,84377,128,0,84471:0:0:0:0:
36,192,84377,128,0,84471:0:0:0:0:
109,192,84471,128,0,84565:0:0:0:0:
402,192,84471,128,0,84565:0:0:0:0:
36,192,84565,128,0,85033:0:0:0:0:
329,192,84565,128,0,84752:0:0:0:0:
182,192,84565,1,0,0:0:0:0:
256,192,84565,1,0,0:0:0:0:
475,192,84565,1,0,0:0:0:0:
402,192,84752,128,0,84846:0:0:0:0:
182,192,84752,128,0,85315:0:0:0:0:
475,192,84846,128,0,84940:0:0:0:0:
402,192,84940,128,0,85033:0:0:0:0:
109,192,84940,128,0,85315:0:0:0:0:
329,192,85033,128,0,85127:0:0:0:0:
402,192,85127,128,0,85221:0:0:0:0:
36,192,85127,128,0,85315:0:0:0:0:
256,192,85221,128,0,85408:0:0:0:0:
475,192,85221,128,0,85408:0:0:0:0:
329,192,85315,128,0,85502:0:0:0:0:
182,192,85408,128,0,85596:0:0:0:0:
402,192,85408,128,0,85596:0:0:0:0:
36,192,85502,128,0,85596:0:0:0:0:
256,192,85502,128,0,85596:0:0:0:0:
109,192,85596,128,0,85690:0:0:0:0:
329,192,85596,128,0,85690:0:0:0:0:
475,192,85690,128,0,85783:0:0:0:0:
402,192,85690,128,0,85971:0:0:0:0:
256,192,85690,1,0,0:0:0:0:
36,192,85690,128,0,85783:0:0:0:0:
182,192,85690,128,0,85971:0:0:0:0:
256,192,85877,128,0,86252:0:0:0:0:
36,192,85877,128,0,85971:0:0:0:0:
475,192,85877,128,0,85971:0:0:0:0:
182,192,86065,1,0,0:0:0:0:
475,192,86065,1,0,0:0:0:0:
36,192,86065,1,0,0:0:0:0:
329,192,86065,1,0,0:0:0:0:
109,192,86158,1,0,0:0:0:0:
402,192,86158,1,0,0:0:0:0:
182,192,86252,1,0,0:0:0:0:
36,192,86252,1,0,0:0:0:0:
475,192,86252,1,0,0:0:0:0:
329,192,86252,1,0,0:0:0:0:
256,192,86346,1,0,0:0:0:0:
182,192,86440,1,0,0:0:0:0:
329,192,86440,1,0,0:0:0:0:
475,192,86440,1,0,0:0:0:0:
36,192,86440,1,0,0:0:0:0:
109,192,86627,1,0,0:0:0:0:
256,192,86627,1,0,0:0:0:0:
402,192,86627,1,0,0:0:0:0:
109,192,86815,128,0,87190:0:0:0:0:
36,192,86815,1,0,0:0:0:0:
402,192,86815,128,0,87190:0:0:0:0:
329,192,86815,128,0,86908:0:0:0:0:
182,192,86815,1,0,0:0:0:0:
475,192,86815,1,0,0:0:0:0:
256,192,86908,128,0,87002:0:0:0:0:
182,192,87002,128,0,87096:0:0:0:0:
256,192,87096,128,0,87190:0:0:0:0:
475,192,87190,128,0,87471:0:0:0:0:
36,192,87190,128,0,87471:0:0:0:0:
182,192,87190,128,0,87471:0:0:0:0:
329,192,87190,128,0,87471:0:0:0:0:
256,192,87377,128,0,87471:0:0:0:0:
109,192,87377,128,0,87471:0:0:0:0:
402,192,87377,128,0,87471:0:0:0:0:
109,192,87565,128,0,87846:0:0:0:0:
256,192,87565,1,0,0:0:0:0:
402,192,87565,128,0,87846:0:0:0:0:
475,192,87565,1,0,0:0:0:0:
36,192,87565,1,0,0:0:0:0:
182,192,87752,128,0,87940:0:0:0:0:
475,192,87752,128,0,87940:0:0:0:0:
329,192,87846,128,0,88033:0:0:0:0:
36,192,87846,128,0,88033:0:0:0:0:
402,192,87940,128,0,88127:0:0:0:0:
109,192,87940,128,0,88221:0:0:0:0:
182,192,88033,128,0,88127:0:0:0:0:
475,192,88033,128,0,88221:0:0:0:0:
36,192,88127,128,0,88315:0:0:0:0:
256,192,88127,128,0,88221:0:0:0:0:
329,192,88221,128,0,88315:0:0:0:0:
182,192,88221,128,0,88315:0:0:0:0:
402,192,88315,128,0,88502:0:0:0:0:
256,192,88315,128,0,88596:0:0:0:0:
109,192,88315,1,0,0:0:0:0:
475,192,88315,1,0,0:0:0:0:
182,192,88408,128,0,88502:0:0:0:0:
329,192,88502,128,0,88690:0:0:0:0:
109,192,88502,128,0,88596:0:0:0:0:
36,192,88502,1,0,0:0:0:0:
182,192,88596,128,0,88690:0:0:0:0:
475,192,88596,128,0,88877:0:0:0:0:
256,192,88690,128,0,88783:0:0:0:0:
36,192,88690,128,0,88971:0:0:0:0:
109,192,88783,128,0,88971:0:0:0:0:
329,192,88783,128,0,88877:0:0:0:0:
182,192,88877,128,0,88971:0:0:0:0:
402,192,88877,128,0,88971:0:0:0:0:
256,192,88971,128,0,89252:0:0:0:0:
329,192,89065,128,0,89158:0:0:0:0:
182,192,89065,128,0,89346:0:0:0:0:
36,192,89065,128,0,89252:0:0:0:0:
475,192,89065,128,0,89346:0:0:0:0:
109,192,89252,128,0,89440:0:0:0:0:
402,192,89252,128,0,89440:0:0:0:0:
329,192,89346,128,0,89627:0:0:0:0:
256,192,89440,128,0,89533:0:0:0:0:
36,192,89440,128,0,89627:0:0:0:0:
475,192,89440,128,0,89533:0:0:0:0:
402,192,89533,128,0,89721:0:0:0:0:
109,192,89533,128,0,89721:0:0:0:0:
182,192,89627,128,0,89815:0:0:0:0:
475,192,89627,1,0,0:0:0:0:
256,192,89721,128,0,90096:0:0:0:0:
475,192,89815,128,0,90096:0:0:0:0:
36,192,89815,128,0,90096:0:0:0:0:
402,192,89815,1,0,0:0:0:0:
329,192,89815,128,0,89908:0:0:0:0:
182,192,89908,128,0,90002:0:0:0:0:
329,192,90002,128,0,90190:0:0:0:0:
109,192,90002,1,0,0:0:0:0:
402,192,90096,128,0,90283:0:0:0:0:
182,192,90096,1,0,0:0:0:0:
475,192,90190,128,0,90377:0:0:0:0:
256,192,90190,1,0,0:0:0:0:
109,192,90190,128,0,90283:0:0:0:0:
36,192,90190,1,0,0:0:0:0:
329,192,90283,1,0,0:0:0:0:
182,192,90283,128,0,90377:0:0:0:0:
256,192,90377,128,0,90471:0:0:0:0:
36,192,90377,128,0,90471:0:0:0:0:
402,192,90377,1,0,0:0:0:0:
329,192,90471,128,0,90658:0:0:0:0:
109,192,90471,128,0,90565:0:0:0:0:
475,192,90565,1,0,0:0:0:0:
256,192,90565,128,0,90752:0:0:0:0:
36,192,90565,128,0,90658:0:0:0:0:
402,192,90565,128,0,90752:0:0:0:0:
475,192,90752,128,0,90846:0:0:0:0:
329,192,90752,128,0,90940:0:0:0:0:
109,192,90752,128,0,90846:0:0:0:0:
36,192,90752,128,0,90846:0:0:0:0:
182,192,90752,1,0,0:0:0:0:
256,192,90846,128,0,91127:0:0:0:0:
182,192,90940,128,0,91033:0:0:0:0:
36,192,90940,128,0,91033:0:0:0:0:
475,192,90940,1,0,0:0:0:0:
402,192,90940,128,0,91033:0:0:0:0:
329,192,91033,128,0,91221:0:0:0:0:
182,192,91127,128,0,91315:0:0:0:0:
475,192,91127,128,0,91221:0:0:0:0:
109,192,91127,1,0,0:0:0:0:
36,192,91127,128,0,91315:0:0:0:0:
256,192,91221,128,0,91315:0:0:0:0:
329,192,91315,128,0,91408:0:0:0:0:
475,192,91315,128,0,91408:0:0:0:0:
109,192,91315,128,0,91408:0:0:0:0:
256,192,91408,128,0,91502:0:0:0:0:
36,192,91408,128,0,91502:0:0:0:0:
402,192,91408,128,0,91502:0:0:0:0:
182,192,91502,128,0,91596:0:0:0:0:
329,192,91502,128,0,91596:0:0:0:0:
475,192,91502,128,0,91596:0:0:0:0:
36,192,91596,128,0,91690:0:0:0:0:
109,192,91596,128,0,91877:0:0:0:0:
402,192,91596,128,0,91783:0:0:0:0:
256,192,91690,128,0,91971:0:0:0:0:
475,192,91690,128,0,91783:0:0:0:0:
329,192,91690,1,0,0:0:0:0:
182,192,91783,128,0,91877:0:0:0:0:
36,192,91783,128,0,91877:0:0:0:0:
329,192,91877,128,0,91971:0:0:0:0:
475,192,91877,128,0,91971:0:0:0:0:
182,192,91971,128,0,92065:0:0:0:0:
109,192,91971,128,0,92065:0:0:0:0:
36,192,91971,1,0,0:0:0:0:
475,192,92065,128,0,92252:0:0:0:0:
402,192,92065,1,0,0:0:0:0:
329,192,92065,128,0,92252:0:0:0:0:
182,192,92158,128,0,92346:0:0:0:0:
36,192,92158,128,0,92346:0:0:0:0:
109,192,92158,1,0,0:0:0:0:
256,192,92252,128,0,92533:0:0:0:0:
402,192,92252,128,0,92346:0:0:0:0:
109,192,92440,128,0,92533:0:0:0:0:
36,192,92440,128,0,92533:0:0:0:0:
329,192,92440,128,0,92627:0:0:0:0:
475,192,92440,128,0,92533:0:0:0:0:
402,192,92440,1,0,0:0:0:0:
182,192,92533,128,0,92815:0:0:0:0:
36,192,92627,128,0,92721:0:0:0:0:
402,192,92627,128,0,92721:0:0:0:0:
475,192,92627,1,0,0:0:0:0:
109,192,92627,1,0,0:0:0:0:
256,192,92721,128,0,93002:0:0:0:0:
329,192,92815,128,0,92908:0:0:0:0:
402,192,92815,1,0,0:0:0:0:
475,192,92815,128,0,92908:0:0:0:0:
109,192,92815,128,0,92908:0:0:0:0:
36,192,92815,1,0,0:0:0:0:
182,192,92908,128,0,93096:0:0:0:0:
329,192,93002,1,0,0:0:0:0:
36,192,93002,128,0,93283:0:0:0:0:
475,192,93002,128,0,93283:0:0:0:0:
109,192,93002,128,0,93190:0:0:0:0:
256,192,93096,1,0,0:0:0:0:
402,192,93096,128,0,93283:0:0:0:0:
329,192,93190,128,0,93377:0:0:0:0:
182,192,93190,128,0,93283:0:0:0:0:
256,192,93283,128,0,93471:0:0:0:0:
109,192,93283,128,0,93377:0:0:0:0:
475,192,93377,128,0,93565:0:0:0:0:
36,192,93377,128,0,93752:0:0:0:0:
182,192,93471,128,0,93565:0:0:0:0:
329,192,93471,128,0,93565:0:0:0:0:
402,192,93565,128,0,94033:0:0:0:0:
109,192,93565,128,0,93752:0:0:0:0:
256,192,93565,128,0,93658:0:0:0:0:
182,192,93658,128,0,93752:0:0:0:0:
329,192,93658,128,0,93752:0:0:0:0:
256,192,93752,128,0,93940:0:0:0:0:
475,192,93752,128,0,93846:0:0:0:0:
109,192,93846,128,0,93940:0:0:0:0:
329,192,93846,128,0,94033:0:0:0:0:
36,192,93940,128,0,94408:0:0:0:0:
182,192,93940,128,0,94033:0:0:0:0:
475,192,93940,128,0,94033:0:0:0:0:
109,192,94033,128,0,94127:0:0:0:0:
256,192,94033,128,0,94127:0:0:0:0:
182,192,94127,128,0,94315:0:0:0:0:
329,192,94127,128,0,94221:0:0:0:0:
475,192,94127,128,0,94221:0:0:0:0:
256,192,94221,128,0,94408:0:0:0:0:
402,192,94221,128,0,94315:0:0:0:0:
475,192,94315,128,0,94690:0:0:0:0:
109,192,94315,128,0,94408:0:0:0:0:
329,192,94315,128,0,94408:0:0:0:0:
182,192,94408,128,0,94502:0:0:0:0:
402,192,94408,128,0,94502:0:0:0:0:
329,192,94502,128,0,94783:0:0:0:0:
36,192,94502,128,0,94596:0:0:0:0:
256,192,94502,128,0,94596:0:0:0:0:
109,192,94596,128,0,94783:0:0:0:0:
402,192,94596,128,0,94690:0:0:0:0:
182,192,94690,128,0,95065:0:0:0:0:
256,192,94690,128,0,94783:0:0:0:0:
36,192,94690,128,0,94783:0:0:0:0:
402,192,94783,128,0,94877:0:0:0:0:
475,192,94783,128,0,94877:0:0:0:0:
36,192,94877,128,0,94971:0:0:0:0:
109,192,94877,128,0,94971:0:0:0:0:
329,192,94877,128,0,95065:0:0:0:0:
256,192,94971,128,0,95158:0:0:0:0:
402,192,94971,128,0,95065:0:0:0:0:
36,192,95065,128,0,95440:0:0:0:0:
475,192,95065,128,0,95440:0:0:0:0:
109,192,95065,128,0,95158:0:0:0:0:
329,192,95158,128,0,95252:0:0:0:0:
402,192,95158,128,0,95252:0:0:0:0:
182,192,95158,128,0,95252:0:0:0:0:
256,192,95252,128,0,95346:0:0:0:0:
109,192,95252,128,0,95346:0:0:0:0:
182,192,95346,128,0,95440:0:0:0:0:
329,192,95346,128,0,95440:0:0:0:0:
402,192,95440,128,0,95815:0:0:0:0:
109,192,95440,128,0,95815:0:0:0:0:
256,192,95440,128,0,95627:0:0:0:0:
36,192,95533,128,0,95627:0:0:0:0:
475,192,95533,128,0,95627:0:0:0:0:
182,192,95627,128,0,95721:0:0:0:0:
329,192,95627,128,0,95721:0:0:0:0:
36,192,95721,128,0,95815:0:0:0:0:
475,192,95721,128,0,95815:0:0:0:0:
256,192,95721,128,0,95815:0:0:0:0:
182,192,95815,128,0,96565:0:0:0:0:
329,192,95815,128,0,96565:0:0:0:0:
36,192,96565,1,0,0:0:0:0:
475,192,96565,128,0,97315:0:0:0:0:
256,192,96565,1,0,0:0:0:0:
109,192,97315,128,0,97690:0:0:0:0:
402,192,97315,128,0,98065:0:0:0:0:
36,192,97315,1,0,0:0:0:0:
256,192,97315,1,0,0:0:0:0:
256,192,97690,128,0,98065:0:0:0:0:
36,192,98065,128,0,98815:0:0:0:0:
329,192,98065,128,0,98440:0:0:0:0:
475,192,98065,1,0,0:0:0:0:
475,192,98440,128,0,98815:0:0:0:0:
182,192,98731,1,0,0:0:0:0:
256,192,98773,1,0,0:0:0:0:
329,192,98815,128,0,99565:0:0:0:0:
402,192,98815,1,0,0:0:0:0:
182,192,99190,128,0,99565:0:0:0:0:
109,192,99565,128,0,99940:0:0:0:0:
402,192,99565,128,0,100315:0:0:0:0:
256,192,99940,128,0,100315:0:0:0:0:
36,192,100221,1,0,0:0:0:0:
475,192,100315,128,0,101065:0:0:0:0:
182,192,100315,128,0,100690:0:0:0:0:
109,192,100315,1,0,0:0:0:0:
329,192,100690,128,0,101065:0:0:0:0:
36,192,100877,1,0,0:0:0:0:
109,192,100971,1,0,0:0:0:0:
182,192,101065,128,0,101252:0:0:0:0:
402,192,101065,128,0,101815:0:0:0:0:
256,192,101065,1,0,0:0:0:0:
36,192,101252,128,0,101440:0:0:0:0:
182,192,101440,128,0,101627:0:0:0:0:
329,192,101627,128,0,101815:0:0:0:0:
109,192,101815,128,0,102565:0:0:0:0:
256,192,101815,1,0,0:0:0:0:
36,192,101815,1,0,0:0:0:0:
475,192,101815,1,0,0:0:0:0:
329,192,102190,128,0,102565:0:0:0:0:
182,192,102565,128,0,103315:0:0:0:0:
36,192,102565,1,0,0:0:0:0:
475,192,102565,1,0,0:0:0:0:
402,192,103315,128,0,103877:0:0:0:0:
36,192,103315,1,0,0:0:0:0:
475,192,103315,1,0,0:0:0:0:
182,192,103690,128,0,104065:0:0:0:0:
475,192,104065,1,0,0:0:0:0:
329,192,104065,128,0,104440:0:0:0:0:
36,192,104065,1,0,0:0:0:0:
182,192,104440,128,0,104815:0:0:0:0:
109,192,104815,128,0,105565:0:0:0:0:
402,192,104815,128,0,105190:0:0:0:0:
36,192,104815,1,0,0:0:0:0:
475,192,104815,1,0,0:0:0:0:
256,192,105190,128,0,105565:0:0:0:0:
36,192,105565,128,0,106315:0:0:0:0:
475,192,105565,1,0,0:0:0:0:
402,192,105565,128,0,106315:0:0:0:0:
256,192,106315,1,0,0:0:0:0:
182,192,106315,128,0,107065:0:0:0:0:
475,192,106315,128,0,107065:0:0:0:0:
36,192,106690,128,0,107065:0:0:0:0:
329,192,106690,128,0,107065:0:0:0:0:
402,192,107065,128,0,107440:0:0:0:0:
109,192,107065,128,0,107440:0:0:0:0:
256,192,107440,128,0,107815:0:0:0:0:
475,192,107440,128,0,107815:0:0:0:0:
36,192,107731,1,0,0:0:0:0:
109,192,107773,1,0,0:0:0:0:
182,192,107815,128,0,108565:0:0:0:0:
402,192,107815,1,0,0:0:0:0:
475,192,108190,128,0,108565:0:0:0:0:
402,192,108565,128,0,108940:0:0:0:0:
36,192,108565,128,0,108940:0:0:0:0:
329,192,108940,128,0,109315:0:0:0:0:
475,192,109127,128,0,109315:0:0:0:0:
256,192,109315,128,0,109690:0:0:0:0:
402,192,109502,128,0,109690:0:0:0:0:
182,192,109690,128,0,110065:0:0:0:0:
329,192,109877,128,0,110065:0:0:0:0:
109,192,110065,128,0,110252:0:0:0:0:
256,192,110252,128,0,110440:0:0:0:0:
36,192,110440,128,0,110627:0:0:0:0:
182,192,110627,128,0,110815:0:0:0:0:
329,192,111002,1,0,0:0:0:0:
475,192,111190,1,0,0:0:0:0:
109,192,111190,1,0,0:0:0:0:
402,192,111377,1,0,0:0:0:0:
329,192,111565,1,0,0:0:0:0:
36,192,111565,1,0,0:0:0:0:
475,192,111752,1,0,0:0:0:0:
256,192,111940,1,0,0:0:0:0:
109,192,111940,1,0,0:0:0:0:
329,192,112127,1,0,0:0:0:0:
402,192,112315,1,0,0:0:0:0:
182,192,112315,1,0,0:0:0:0:
329,192,112502,1,0,0:0:0:0:
36,192,112690,1,0,0:0:0:0:
182,192,112690,1,0,0:0:0:0:
256,192,112877,1,0,0:0:0:0:
