osu file format v14

[General]
AudioFilename: M2U - HAPPY HALLOWEDDING.mp3
AudioLeadIn: 0
PreviewTime: 41718
Countdown: 0
SampleSet: Drum
StackLeniency: 0.7
Mode: 3
LetterboxInBreaks: 0
SpecialStyle: 0
WidescreenStoryboard: 1

[Editor]
DistanceSpacing: 1.5
BeatDivisor: 8
GridSize: 4
TimelineZoom: 1.8

[Metadata]
Title:M2U Pack
TitleUnicode:M2U Pack
Artist:M2U
ArtistUnicode:M2U
Creator:Kim_GodSSI
Version:HAPPY HALLOWEDDING 4K
Source:
Tags:arpia97 lami- buschan ezmmr micleak nabi- ruka takjun roasted chicken murumoo other nicode sherie 約束之歌 guriri 구리리 howling redeye red eye lucy egoist 最後の花弁 나래
BeatmapID:3843989
BeatmapSetID:1572720

[Difficulty]
HPDrainRate:8.5
CircleSize:4
OverallDifficulty:8
ApproachRate:5
SliderMultiplier:1.4
SliderTickRate:1

[Events]
//Background and Video events
0,0,"M2U - HAPPY HALLOWEDDING.jpg",0,0
//Break Periods
//Storyboard Layer 0 (Background)
//Storyboard Layer 1 (Fail)
//Storyboard Layer 2 (Pass)
//Storyboard Layer 3 (Foreground)
//Storyboard Layer 4 (Overlay)
//Storyboard Sound Samples

[TimingPoints]
468,468.75,4,3,0,0,1,0

[HitObjects]
192,192,468,5,0,0:0:0:0:
64,192,468,1,0,0:0:0:0:
448,192,468,1,0,0:0:0:0:
320,192,702,1,0,0:0:0:0:
192,192,702,1,0,0:0:0:0:
64,192,936,1,0,0:0:0:0:
320,192,936,1,0,0:0:0:0:
448,192,936,1,0,0:0:0:0:
64,192,1171,1,0,0:0:0:0:
320,192,1288,1,0,0:0:0:0:
448,192,1288,1,0,0:0:0:0:
64,192,1405,1,0,0:0:0:0:
320,192,1405,1,0,0:0:0:0:
192,192,1405,1,0,0:0:0:0:
448,192,1522,1,0,0:0:0:0:
64,192,1639,1,0,0:0:0:0:
320,192,1639,1,0,0:0:0:0:
192,192,1757,1,0,0:0:0:0:
448,192,1757,1,0,0:0:0:0:
64,192,1874,1,0,0:0:0:0:
448,192,1874,1,0,0:0:0:0:
192,192,1932,1,0,0:0:0:0:
320,192,1991,1,0,0:0:0:0:
192,192,2050,1,0,0:0:0:0:
64,192,2108,1,0,0:0:0:0:
448,192,2108,1,0,0:0:0:0:
320,192,2225,1,0,0:0:0:0:
448,192,2343,1,0,0:0:0:0:
64,192,2343,1,0,0:0:0:0:
192,192,2343,1,0,0:0:0:0:
192,192,2577,1,0,0:0:0:0:
320,192,2577,1,0,0:0:0:0:
64,192,2811,1,0,0:0:0:0:
448,192,2811,1,0,0:0:0:0:
320,192,2811,1,0,0:0:0:0:
64,192,3046,1,0,0:0:0:0:
192,192,3163,1,0,0:0:0:0:
320,192,3163,1,0,0:0:0:0:
448,192,3280,1,0,0:0:0:0:
64,192,3280,1,0,0:0:0:0:
320,192,3280,1,0,0:0:0:0:
192,192,3397,1,0,0:0:0:0:
64,192,3514,1,0,0:0:0:0:
448,192,3514,1,0,0:0:0:0:
320,192,3632,1,0,0:0:0:0:
192,192,3632,1,0,0:0:0:0:
64,192,3749,1,0,0:0:0:0:
448,192,3749,1,0,0:0:0:0:
192,192,3749,1,0,0:0:0:0:
320,192,3807,1,0,0:0:0:0:
64,192,3866,1,0,0:0:0:0:
192,192,3925,1,0,0:0:0:0:
320,192,3983,1,0,0:0:0:0:
448,192,3983,1,0,0:0:0:0:
64,192,4100,1,0,0:0:0:0:
192,192,4218,1,0,0:0:0:0:
320,192,4218,1,0,0:0:0:0:
448,192,4218,1,0,0:0:0:0:
64,192,4452,1,0,0:0:0:0:
192,192,4452,1,0,0:0:0:0:
320,192,4686,1,0,0:0:0:0:
448,192,4686,1,0,0:0:0:0:
64,192,4686,1,0,0:0:0:0:
448,192,4921,1,0,0:0:0:0:
192,192,5038,1,0,0:0:0:0:
64,192,5038,1,0,0:0:0:0:
192,192,5155,1,0,0:0:0:0:
320,192,5155,1,0,0:0:0:0:
448,192,5155,1,0,0:0:0:0:
64,192,5272,1,0,0:0:0:0:
320,192,5389,1,0,0:0:0:0:
448,192,5389,1,0,0:0:0:0:
64,192,5507,1,0,0:0:0:0:
192,192,5507,1,0,0:0:0:0:
64,192,5624,1,0,0:0:0:0:
448,192,5624,1,0,0:0:0:0:
192,192,5682,1,0,0:0:0:0:
320,192,5741,1,0,0:0:0:0:
448,192,5800,1,0,0:0:0:0:
320,192,5858,1,0,0:0:0:0:
64,192,5858,1,0,0:0:0:0:
192,192,5975,1,0,0:0:0:0:
64,192,6093,1,0,0:0:0:0:
448,192,6093,1,0,0:0:0:0:
320,192,6093,1,0,0:0:0:0:
192,192,6327,1,0,0:0:0:0:
64,192,6327,1,0,0:0:0:0:
192,192,6561,1,0,0:0:0:0:
448,192,6561,1,0,0:0:0:0:
320,192,6561,1,0,0:0:0:0:
64,192,6796,1,0,0:0:0:0:
320,192,6913,1,0,0:0:0:0:
448,192,6913,1,0,0:0:0:0:
64,192,7030,1,0,0:0:0:0:
192,192,7030,1,0,0:0:0:0:
448,192,7030,1,0,0:0:0:0:
320,192,7147,1,0,0:0:0:0:
64,192,7264,1,0,0:0:0:0:
448,192,7264,1,0,0:0:0:0:
192,192,7382,1,0,0:0:0:0:
320,192,7382,1,0,0:0:0:0:
320,192,7499,1,0,0:0:0:0:
448,192,7499,1,0,0:0:0:0:
64,192,7499,1,0,0:0:0:0:
192,192,7557,1,0,0:0:0:0:
448,192,7616,1,0,0:0:0:0:
320,192,7675,1,0,0:0:0:0:
192,192,7733,1,0,0:0:0:0:
64,192,7733,1,0,0:0:0:0:
320,192,7850,1,0,0:0:0:0:
64,192,7968,1,0,0:0:0:0:
320,192,7968,1,0,0:0:0:0:
448,192,7968,1,0,0:0:0:0:
192,192,8085,1,0,0:0:0:0:
448,192,8202,1,0,0:0:0:0:
320,192,8202,1,0,0:0:0:0:
192,192,8319,1,0,0:0:0:0:
320,192,8436,1,0,0:0:0:0:
64,192,8436,1,0,0:0:0:0:
448,192,8436,1,0,0:0:0:0:
192,192,8553,1,0,0:0:0:0:
320,192,8671,1,0,0:0:0:0:
448,192,8671,1,0,0:0:0:0:
64,192,8788,1,0,0:0:0:0:
320,192,8905,1,0,0:0:0:0:
192,192,8905,1,0,0:0:0:0:
64,192,8905,1,0,0:0:0:0:
448,192,9022,1,0,0:0:0:0:
64,192,9139,1,0,0:0:0:0:
320,192,9139,1,0,0:0:0:0:
192,192,9257,1,0,0:0:0:0:
64,192,9374,1,0,0:0:0:0:
320,192,9374,1,0,0:0:0:0:
448,192,9374,1,0,0:0:0:0:
192,192,9491,1,0,0:0:0:0:
320,192,9608,1,0,0:0:0:0:
448,192,9608,1,0,0:0:0:0:
64,192,9725,1,0,0:0:0:0:
448,192,9843,1,0,0:0:0:0:
320,192,9843,1,0,0:0:0:0:
192,192,9843,1,0,0:0:0:0:
64,192,9960,1,0,0:0:0:0:
320,192,10077,1,0,0:0:0:0:
448,192,10077,1,0,0:0:0:0:
64,192,10194,1,0,0:0:0:0:
192,192,10311,1,0,0:0:0:0:
448,192,10311,1,0,0:0:0:0:
320,192,10311,1,0,0:0:0:0:
64,192,10428,1,0,0:0:0:0:
192,192,10546,1,0,0:0:0:0:
448,192,10663,1,0,0:0:0:0:
64,192,10780,1,0,0:0:0:0:
448,192,10780,1,0,0:0:0:0:
192,192,10780,1,0,0:0:0:0:
320,192,10897,1,0,0:0:0:0:
192,192,11014,1,0,0:0:0:0:
64,192,11014,1,0,0:0:0:0:
448,192,11132,1,0,0:0:0:0:
64,192,11249,1,0,0:0:0:0:
320,192,11249,1,0,0:0:0:0:
192,192,11249,1,0,0:0:0:0:
448,192,11366,1,0,0:0:0:0:
192,192,11483,1,0,0:0:0:0:
64,192,11483,1,0,0:0:0:0:
320,192,11600,1,0,0:0:0:0:
64,192,11718,1,0,0:0:0:0:
448,192,11718,1,0,0:0:0:0:
192,192,11718,1,0,0:0:0:0:
320,192,11835,1,0,0:0:0:0:
64,192,11952,1,0,0:0:0:0:
192,192,11952,1,0,0:0:0:0:
448,192,12069,1,0,0:0:0:0:
64,192,12186,1,0,0:0:0:0:
320,192,12186,1,0,0:0:0:0:
448,192,12186,1,0,0:0:0:0:
192,192,12303,1,0,0:0:0:0:
448,192,12421,1,0,0:0:0:0:
64,192,12421,1,0,0:0:0:0:
320,192,12538,1,0,0:0:0:0:
320,192,12655,1,0,0:0:0:0:
64,192,12655,1,0,0:0:0:0:
448,192,12655,1,0,0:0:0:0:
192,192,12772,1,0,0:0:0:0:
448,192,12889,1,0,0:0:0:0:
320,192,12889,1,0,0:0:0:0:
64,192,13007,1,0,0:0:0:0:
64,192,13124,1,0,0:0:0:0:
320,192,13124,1,0,0:0:0:0:
448,192,13124,1,0,0:0:0:0:
192,192,13241,1,0,0:0:0:0:
64,192,13358,1,0,0:0:0:0:
448,192,13358,1,0,0:0:0:0:
320,192,13475,1,0,0:0:0:0:
448,192,13593,1,0,0:0:0:0:
64,192,13593,1,0,0:0:0:0:
320,192,13593,1,0,0:0:0:0:
192,192,13710,1,0,0:0:0:0:
448,192,13827,1,0,0:0:0:0:
320,192,13827,1,0,0:0:0:0:
64,192,13944,1,0,0:0:0:0:
192,192,13944,1,0,0:0:0:0:
448,192,14061,1,0,0:0:0:0:
320,192,14061,1,0,0:0:0:0:
64,192,14120,1,0,0:0:0:0:
192,192,14178,1,0,0:0:0:0:
320,192,14237,1,0,0:0:0:0:
64,192,14296,1,0,0:0:0:0:
448,192,14296,1,0,0:0:0:0:
192,192,14413,1,0,0:0:0:0:
64,192,14530,1,0,0:0:0:0:
448,192,14530,1,0,0:0:0:0:
320,192,14589,1,0,0:0:0:0:
192,192,14647,1,0,0:0:0:0:
64,192,14706,1,0,0:0:0:0:
448,192,14764,1,0,0:0:0:0:
320,192,14764,1,0,0:0:0:0:
192,192,14882,1,0,0:0:0:0:
64,192,14999,1,0,0:0:0:0:
320,192,14999,1,0,0:0:0:0:
448,192,14999,1,0,0:0:0:0:
192,192,14999,1,0,0:0:0:0:
64,192,15468,1,0,0:0:0:0:
192,192,15468,1,0,0:0:0:0:
320,192,15468,1,0,0:0:0:0:
192,192,15702,1,0,0:0:0:0:
320,192,15936,1,0,0:0:0:0:
448,192,15936,1,0,0:0:0:0:
192,192,15936,1,0,0:0:0:0:
448,192,16171,1,0,0:0:0:0:
192,192,16288,1,0,0:0:0:0:
64,192,16288,1,0,0:0:0:0:
448,192,16405,1,0,0:0:0:0:
64,192,16405,1,0,0:0:0:0:
320,192,16405,1,0,0:0:0:0:
192,192,16639,1,0,0:0:0:0:
64,192,16874,1,0,0:0:0:0:
192,192,16874,1,0,0:0:0:0:
448,192,16874,1,0,0:0:0:0:
320,192,17108,1,0,0:0:0:0:
192,192,17343,1,0,0:0:0:0:
64,192,17343,1,0,0:0:0:0:
320,192,17343,1,0,0:0:0:0:
192,192,17577,1,0,0:0:0:0:
64,192,17811,1,0,0:0:0:0:
320,192,17811,1,0,0:0:0:0:
448,192,17811,1,0,0:0:0:0:
64,192,18046,1,0,0:0:0:0:
320,192,18163,1,0,0:0:0:0:
192,192,18163,1,0,0:0:0:0:
320,192,18280,1,0,0:0:0:0:
64,192,18280,1,0,0:0:0:0:
448,192,18280,1,0,0:0:0:0:
64,192,18514,1,0,0:0:0:0:
192,192,18749,1,0,0:0:0:0:
320,192,18749,1,0,0:0:0:0:
448,192,18749,1,0,0:0:0:0:
320,192,18983,1,0,0:0:0:0:
64,192,19218,1,0,0:0:0:0:
448,192,19218,1,0,0:0:0:0:
192,192,19218,1,0,0:0:0:0:
64,192,19452,1,0,0:0:0:0:
192,192,19686,1,0,0:0:0:0:
320,192,19686,1,0,0:0:0:0:
448,192,19686,1,0,0:0:0:0:
64,192,19921,1,0,0:0:0:0:
192,192,20038,1,0,0:0:0:0:
320,192,20038,1,0,0:0:0:0:
320,192,20155,1,0,0:0:0:0:
448,192,20155,1,0,0:0:0:0:
64,192,20155,1,0,0:0:0:0:
448,192,20389,1,0,0:0:0:0:
448,192,20624,1,0,0:0:0:0:
64,192,20624,1,0,0:0:0:0:
320,192,20624,1,0,0:0:0:0:
448,192,20858,1,0,0:0:0:0:
192,192,20975,1,0,0:0:0:0:
320,192,20975,1,0,0:0:0:0:
192,192,21093,1,0,0:0:0:0:
64,192,21093,1,0,0:0:0:0:
448,192,21093,1,0,0:0:0:0:
192,192,21327,1,0,0:0:0:0:
192,192,21561,1,0,0:0:0:0:
64,192,21561,1,0,0:0:0:0:
320,192,21561,1,0,0:0:0:0:
64,192,21796,1,0,0:0:0:0:
192,192,21913,1,0,0:0:0:0:
320,192,21913,1,0,0:0:0:0:
320,192,22030,1,0,0:0:0:0:
448,192,22030,1,0,0:0:0:0:
64,192,22030,1,0,0:0:0:0:
320,192,22264,1,0,0:0:0:0:
64,192,22499,1,0,0:0:0:0:
320,192,22499,1,0,0:0:0:0:
448,192,22499,1,0,0:0:0:0:
448,192,22733,1,0,0:0:0:0:
64,192,22968,1,0,0:0:0:0:
192,192,22968,1,0,0:0:0:0:
320,192,22968,1,0,0:0:0:0:
192,192,23202,1,0,0:0:0:0:
192,192,23436,1,0,0:0:0:0:
320,192,23436,1,0,0:0:0:0:
448,192,23436,1,0,0:0:0:0:
448,192,23671,1,0,0:0:0:0:
64,192,23788,1,0,0:0:0:0:
192,192,23788,1,0,0:0:0:0:
64,192,23905,1,0,0:0:0:0:
448,192,23905,1,0,0:0:0:0:
320,192,23905,1,0,0:0:0:0:
320,192,24139,1,0,0:0:0:0:
320,192,24374,1,0,0:0:0:0:
64,192,24374,1,0,0:0:0:0:
192,192,24374,1,0,0:0:0:0:
448,192,24608,1,0,0:0:0:0:
192,192,24725,1,0,0:0:0:0:
192,192,24843,1,0,0:0:0:0:
64,192,24843,1,0,0:0:0:0:
448,192,24843,1,0,0:0:0:0:
320,192,25077,1,0,0:0:0:0:
192,192,25311,1,0,0:0:0:0:
320,192,25311,1,0,0:0:0:0:
448,192,25311,1,0,0:0:0:0:
448,192,25546,1,0,0:0:0:0:
320,192,25663,1,0,0:0:0:0:
192,192,25663,1,0,0:0:0:0:
192,192,25780,1,0,0:0:0:0:
64,192,25780,1,0,0:0:0:0:
448,192,25780,1,0,0:0:0:0:
64,192,26014,1,0,0:0:0:0:
192,192,26249,1,0,0:0:0:0:
320,192,26249,1,0,0:0:0:0:
448,192,26249,1,0,0:0:0:0:
448,192,26483,1,0,0:0:0:0:
320,192,26718,1,0,0:0:0:0:
192,192,26718,1,0,0:0:0:0:
64,192,26718,1,0,0:0:0:0:
192,192,26952,1,0,0:0:0:0:
192,192,27186,1,0,0:0:0:0:
320,192,27186,1,0,0:0:0:0:
448,192,27186,1,0,0:0:0:0:
64,192,27421,1,0,0:0:0:0:
320,192,27538,1,0,0:0:0:0:
192,192,27538,1,0,0:0:0:0:
320,192,27655,1,0,0:0:0:0:
64,192,27655,1,0,0:0:0:0:
448,192,27655,1,0,0:0:0:0:
448,192,27889,1,0,0:0:0:0:
320,192,28124,1,0,0:0:0:0:
448,192,28124,1,0,0:0:0:0:
192,192,28124,1,0,0:0:0:0:
448,192,28358,1,0,0:0:0:0:
192,192,28475,1,0,0:0:0:0:
320,192,28475,1,0,0:0:0:0:
192,192,28593,1,0,0:0:0:0:
64,192,28593,1,0,0:0:0:0:
448,192,28593,1,0,0:0:0:0:
192,192,28827,1,0,0:0:0:0:
448,192,29061,1,0,0:0:0:0:
320,192,29061,1,0,0:0:0:0:
192,192,29061,1,0,0:0:0:0:
64,192,29296,1,0,0:0:0:0:
448,192,29413,1,0,0:0:0:0:
320,192,29413,1,0,0:0:0:0:
64,192,29530,1,0,0:0:0:0:
320,192,29530,1,0,0:0:0:0:
192,192,29530,1,0,0:0:0:0:
192,192,29764,1,0,0:0:0:0:
320,192,29999,1,0,0:0:0:0:
448,192,29999,1,0,0:0:0:0:
64,192,29999,1,0,0:0:0:0:
192,192,29999,1,0,0:0:0:0:
192,192,30468,1,0,0:0:0:0:
448,192,30468,1,0,0:0:0:0:
64,192,30468,1,0,0:0:0:0:
320,192,30585,1,0,0:0:0:0:
64,192,30702,1,0,0:0:0:0:
448,192,30702,1,0,0:0:0:0:
192,192,30819,1,0,0:0:0:0:
320,192,30936,1,0,0:0:0:0:
448,192,30936,1,0,0:0:0:0:
64,192,31053,1,0,0:0:0:0:
448,192,31171,1,0,0:0:0:0:
192,192,31288,1,0,0:0:0:0:
192,192,31405,1,0,0:0:0:0:
64,192,31405,1,0,0:0:0:0:
448,192,31405,1,0,0:0:0:0:
320,192,31522,1,0,0:0:0:0:
64,192,31639,1,0,0:0:0:0:
192,192,31639,1,0,0:0:0:0:
448,192,31757,1,0,0:0:0:0:
64,192,31874,1,0,0:0:0:0:
192,192,31874,1,0,0:0:0:0:
448,192,31932,1,0,0:0:0:0:
320,192,31991,1,0,0:0:0:0:
64,192,32050,1,0,0:0:0:0:
192,192,32108,1,0,0:0:0:0:
320,192,32225,1,0,0:0:0:0:
64,192,32343,1,0,0:0:0:0:
192,192,32343,1,0,0:0:0:0:
448,192,32343,1,0,0:0:0:0:
320,192,32460,1,0,0:0:0:0:
64,192,32577,1,0,0:0:0:0:
448,192,32577,1,0,0:0:0:0:
192,192,32694,1,0,0:0:0:0:
320,192,32811,1,0,0:0:0:0:
64,192,32811,1,0,0:0:0:0:
448,192,32811,1,0,0:0:0:0:
192,192,32928,1,0,0:0:0:0:
448,192,33046,1,0,0:0:0:0:
320,192,33163,1,0,0:0:0:0:
192,192,33163,1,0,0:0:0:0:
64,192,33280,1,0,0:0:0:0:
192,192,33280,1,0,0:0:0:0:
448,192,33280,1,0,0:0:0:0:
320,192,33397,1,0,0:0:0:0:
64,192,33514,1,0,0:0:0:0:
448,192,33514,1,0,0:0:0:0:
192,192,33632,1,0,0:0:0:0:
320,192,33749,1,0,0:0:0:0:
448,192,33749,1,0,0:0:0:0:
64,192,33807,1,0,0:0:0:0:
192,192,33866,1,0,0:0:0:0:
448,192,33925,1,0,0:0:0:0:
320,192,33983,1,0,0:0:0:0:
192,192,34100,1,0,0:0:0:0:
64,192,34218,1,0,0:0:0:0:
320,192,34218,1,0,0:0:0:0:
448,192,34218,1,0,0:0:0:0:
192,192,34335,1,0,0:0:0:0:
448,192,34452,1,0,0:0:0:0:
64,192,34452,1,0,0:0:0:0:
320,192,34569,1,0,0:0:0:0:
192,192,34686,1,0,0:0:0:0:
64,192,34686,1,0,0:0:0:0:
448,192,34686,1,0,0:0:0:0:
320,192,34803,1,0,0:0:0:0:
64,192,34921,1,0,0:0:0:0:
320,192,35038,1,0,0:0:0:0:
192,192,35038,1,0,0:0:0:0:
64,192,35155,1,0,0:0:0:0:
320,192,35155,1,0,0:0:0:0:
448,192,35155,1,0,0:0:0:0:
192,192,35272,1,0,0:0:0:0:
448,192,35389,1,0,0:0:0:0:
320,192,35389,1,0,0:0:0:0:
64,192,35507,1,0,0:0:0:0:
320,192,35624,1,0,0:0:0:0:
448,192,35624,1,0,0:0:0:0:
192,192,35682,1,0,0:0:0:0:
64,192,35741,1,0,0:0:0:0:
448,192,35800,1,0,0:0:0:0:
320,192,35858,1,0,0:0:0:0:
192,192,35975,1,0,0:0:0:0:
64,192,36093,1,0,0:0:0:0:
448,192,36093,1,0,0:0:0:0:
192,192,36093,1,0,0:0:0:0:
320,192,36210,1,0,0:0:0:0:
64,192,36327,1,0,0:0:0:0:
192,192,36327,1,0,0:0:0:0:
448,192,36444,1,0,0:0:0:0:
320,192,36561,1,0,0:0:0:0:
192,192,36561,1,0,0:0:0:0:
64,192,36561,1,0,0:0:0:0:
448,192,36678,1,0,0:0:0:0:
64,192,36796,1,0,0:0:0:0:
192,192,36913,1,0,0:0:0:0:
320,192,36913,1,0,0:0:0:0:
320,192,37030,1,0,0:0:0:0:
64,192,37030,1,0,0:0:0:0:
448,192,37030,1,0,0:0:0:0:
192,192,37147,1,0,0:0:0:0:
448,192,37264,1,0,0:0:0:0:
320,192,37264,1,0,0:0:0:0:
64,192,37382,1,0,0:0:0:0:
320,192,37499,1,0,0:0:0:0:
448,192,37499,1,0,0:0:0:0:
192,192,37557,1,0,0:0:0:0:
64,192,37616,1,0,0:0:0:0:
320,192,37675,1,0,0:0:0:0:
448,192,37733,1,0,0:0:0:0:
192,192,37850,1,0,0:0:0:0:
192,192,37968,1,0,0:0:0:0:
64,192,37968,1,0,0:0:0:0:
448,192,37968,1,0,0:0:0:0:
448,192,38085,1,0,0:0:0:0:
320,192,38202,1,0,0:0:0:0:
192,192,38202,1,0,0:0:0:0:
64,192,38202,1,0,0:0:0:0:
320,192,38319,1,0,0:0:0:0:
192,192,38436,1,0,0:0:0:0:
64,192,38436,1,0,0:0:0:0:
448,192,38436,1,0,0:0:0:0:
64,192,38553,1,0,0:0:0:0:
448,192,38671,1,0,0:0:0:0:
192,192,38671,1,0,0:0:0:0:
320,192,38671,1,0,0:0:0:0:
192,192,38788,1,0,0:0:0:0:
320,192,38905,1,0,0:0:0:0:
448,192,38905,1,0,0:0:0:0:
64,192,38905,1,0,0:0:0:0:
320,192,39022,1,0,0:0:0:0:
192,192,39139,1,0,0:0:0:0:
64,192,39139,1,0,0:0:0:0:
448,192,39139,1,0,0:0:0:0:
64,192,39257,1,0,0:0:0:0:
192,192,39374,1,0,0:0:0:0:
320,192,39374,1,0,0:0:0:0:
448,192,39374,1,0,0:0:0:0:
448,192,39491,1,0,0:0:0:0:
320,192,39608,1,0,0:0:0:0:
192,192,39608,1,0,0:0:0:0:
64,192,39608,1,0,0:0:0:0:
192,192,39725,1,0,0:0:0:0:
64,192,39843,1,0,0:0:0:0:
320,192,39843,1,0,0:0:0:0:
448,192,39843,1,0,0:0:0:0:
448,192,39960,1,0,0:0:0:0:
320,192,40077,1,0,0:0:0:0:
64,192,40077,1,0,0:0:0:0:
192,192,40077,1,0,0:0:0:0:
64,192,40194,1,0,0:0:0:0:
192,192,40311,1,0,0:0:0:0:
320,192,40311,1,0,0:0:0:0:
448,192,40311,1,0,0:0:0:0:
320,192,40428,1,0,0:0:0:0:
192,192,40546,1,0,0:0:0:0:
64,192,40546,1,0,0:0:0:0:
448,192,40546,1,0,0:0:0:0:
192,192,40663,1,0,0:0:0:0:
320,192,40780,1,0,0:0:0:0:
64,192,40780,1,0,0:0:0:0:
448,192,40780,1,0,0:0:0:0:
448,192,40897,1,0,0:0:0:0:
320,192,41014,1,0,0:0:0:0:
192,192,41014,1,0,0:0:0:0:
64,192,41014,1,0,0:0:0:0:
64,192,41132,1,0,0:0:0:0:
192,192,41249,1,0,0:0:0:0:
320,192,41249,1,0,0:0:0:0:
448,192,41249,1,0,0:0:0:0:
320,192,41366,1,0,0:0:0:0:
192,192,41483,1,0,0:0:0:0:
64,192,41483,1,0,0:0:0:0:
448,192,41483,1,0,0:0:0:0:
192,192,41600,1,0,0:0:0:0:
320,192,41718,1,0,0:0:0:0:
448,192,41718,1,0,0:0:0:0:
64,192,41718,1,0,0:0:0:0:
320,192,41835,1,0,0:0:0:0:
448,192,41835,1,0,0:0:0:0:
192,192,41952,1,0,0:0:0:0:
320,192,42069,1,0,0:0:0:0:
64,192,42186,1,0,0:0:0:0:
320,192,42186,1,0,0:0:0:0:
448,192,42186,1,0,0:0:0:0:
192,192,42303,1,0,0:0:0:0:
64,192,42303,1,0,0:0:0:0:
448,192,42421,1,0,0:0:0:0:
192,192,42538,1,0,0:0:0:0:
192,192,42655,1,0,0:0:0:0:
64,192,42655,1,0,0:0:0:0:
448,192,42655,1,0,0:0:0:0:
320,192,42772,1,0,0:0:0:0:
192,192,42831,1,0,0:0:0:0:
448,192,42889,1,0,0:0:0:0:
320,192,42948,1,0,0:0:0:0:
64,192,43007,1,0,0:0:0:0:
192,192,43065,1,0,0:0:0:0:
320,192,43124,1,0,0:0:0:0:
448,192,43124,1,0,0:0:0:0:
64,192,43241,1,0,0:0:0:0:
192,192,43300,1,0,0:0:0:0:
320,192,43358,1,0,0:0:0:0:
64,192,43417,1,0,0:0:0:0:
448,192,43475,1,0,0:0:0:0:
320,192,43534,1,0,0:0:0:0:
64,192,43593,1,0,0:0:0:0:
192,192,43593,1,0,0:0:0:0:
192,192,43710,1,0,0:0:0:0:
64,192,43710,1,0,0:0:0:0:
448,192,43827,1,0,0:0:0:0:
192,192,43944,1,0,0:0:0:0:
448,192,44061,1,0,0:0:0:0:
64,192,44061,1,0,0:0:0:0:
192,192,44178,1,0,0:0:0:0:
320,192,44237,1,0,0:0:0:0:
448,192,44296,1,0,0:0:0:0:
64,192,44413,1,0,0:0:0:0:
448,192,44530,1,0,0:0:0:0:
64,192,44530,1,0,0:0:0:0:
320,192,44589,1,0,0:0:0:0:
192,192,44647,1,0,0:0:0:0:
64,192,44706,1,0,0:0:0:0:
448,192,44764,1,0,0:0:0:0:
320,192,44823,1,0,0:0:0:0:
192,192,44882,1,0,0:0:0:0:
64,192,44940,1,0,0:0:0:0:
320,192,44999,1,0,0:0:0:0:
448,192,44999,1,0,0:0:0:0:
64,192,45233,1,0,0:0:0:0:
192,192,45292,1,0,0:0:0:0:
320,192,45350,1,0,0:0:0:0:
448,192,45409,1,0,0:0:0:0:
192,192,45468,1,0,0:0:0:0:
64,192,45468,1,0,0:0:0:0:
320,192,45468,1,0,0:0:0:0:
192,192,45585,1,0,0:0:0:0:
64,192,45702,1,0,0:0:0:0:
448,192,45702,1,0,0:0:0:0:
320,192,45819,1,0,0:0:0:0:
320,192,45936,1,0,0:0:0:0:
64,192,45936,1,0,0:0:0:0:
448,192,45936,1,0,0:0:0:0:
192,192,46053,1,0,0:0:0:0:
64,192,46171,1,0,0:0:0:0:
192,192,46171,1,0,0:0:0:0:
448,192,46288,1,0,0:0:0:0:
64,192,46405,1,0,0:0:0:0:
448,192,46405,1,0,0:0:0:0:
192,192,46405,1,0,0:0:0:0:
320,192,46522,1,0,0:0:0:0:
64,192,46639,1,0,0:0:0:0:
448,192,46639,1,0,0:0:0:0:
192,192,46757,1,0,0:0:0:0:
320,192,46757,1,0,0:0:0:0:
64,192,46874,1,0,0:0:0:0:
448,192,46874,1,0,0:0:0:0:
192,192,46874,1,0,0:0:0:0:
64,192,46991,1,0,0:0:0:0:
448,192,47108,1,0,0:0:0:0:
320,192,47167,1,0,0:0:0:0:
192,192,47225,1,0,0:0:0:0:
64,192,47284,1,0,0:0:0:0:
320,192,47343,1,0,0:0:0:0:
448,192,47343,1,0,0:0:0:0:
320,192,47460,1,0,0:0:0:0:
64,192,47577,1,0,0:0:0:0:
448,192,47577,1,0,0:0:0:0:
192,192,47694,1,0,0:0:0:0:
192,192,47811,1,0,0:0:0:0:
64,192,47811,1,0,0:0:0:0:
320,192,47811,1,0,0:0:0:0:
320,192,47928,1,0,0:0:0:0:
448,192,47928,1,0,0:0:0:0:
192,192,48046,1,0,0:0:0:0:
64,192,48046,1,0,0:0:0:0:
448,192,48163,1,0,0:0:0:0:
320,192,48221,1,0,0:0:0:0:
192,192,48280,1,0,0:0:0:0:
64,192,48280,1,0,0:0:0:0:
320,192,48397,1,0,0:0:0:0:
192,192,48456,1,0,0:0:0:0:
448,192,48514,1,0,0:0:0:0:
64,192,48514,1,0,0:0:0:0:
320,192,48632,1,0,0:0:0:0:
64,192,48749,1,0,0:0:0:0:
320,192,48749,1,0,0:0:0:0:
448,192,48749,1,0,0:0:0:0:
192,192,48866,1,0,0:0:0:0:
192,192,48983,1,0,0:0:0:0:
448,192,48983,1,0,0:0:0:0:
64,192,49100,1,0,0:0:0:0:
64,192,49218,1,0,0:0:0:0:
320,192,49218,1,0,0:0:0:0:
448,192,49218,1,0,0:0:0:0:
192,192,49335,1,0,0:0:0:0:
64,192,49452,1,0,0:0:0:0:
448,192,49452,1,0,0:0:0:0:
448,192,49569,1,0,0:0:0:0:
192,192,49686,1,0,0:0:0:0:
64,192,49686,1,0,0:0:0:0:
320,192,49686,1,0,0:0:0:0:
320,192,49803,1,0,0:0:0:0:
448,192,49803,1,0,0:0:0:0:
192,192,49921,1,0,0:0:0:0:
64,192,49921,1,0,0:0:0:0:
448,192,50038,1,0,0:0:0:0:
64,192,50155,1,0,0:0:0:0:
320,192,50155,1,0,0:0:0:0:
448,192,50155,1,0,0:0:0:0:
192,192,50272,1,0,0:0:0:0:
320,192,50331,1,0,0:0:0:0:
448,192,50389,1,0,0:0:0:0:
64,192,50507,1,0,0:0:0:0:
320,192,50624,1,0,0:0:0:0:
448,192,50624,1,0,0:0:0:0:
64,192,50624,1,0,0:0:0:0:
320,192,50741,1,0,0:0:0:0:
192,192,50858,1,0,0:0:0:0:
448,192,50858,1,0,0:0:0:0:
192,192,50975,1,0,0:0:0:0:
64,192,51093,1,0,0:0:0:0:
448,192,51093,1,0,0:0:0:0:
320,192,51093,1,0,0:0:0:0:
64,192,51210,1,0,0:0:0:0:
320,192,51327,1,0,0:0:0:0:
192,192,51385,1,0,0:0:0:0:
64,192,51444,1,0,0:0:0:0:
64,192,51561,1,0,0:0:0:0:
192,192,51561,1,0,0:0:0:0:
448,192,51561,1,0,0:0:0:0:
320,192,51678,1,0,0:0:0:0:
192,192,51796,1,0,0:0:0:0:
64,192,51796,1,0,0:0:0:0:
192,192,51913,1,0,0:0:0:0:
320,192,51913,1,0,0:0:0:0:
64,192,52030,1,0,0:0:0:0:
320,192,52030,1,0,0:0:0:0:
448,192,52030,1,0,0:0:0:0:
192,192,52147,1,0,0:0:0:0:
320,192,52206,1,0,0:0:0:0:
448,192,52264,1,0,0:0:0:0:
320,192,52382,1,0,0:0:0:0:
64,192,52499,1,0,0:0:0:0:
320,192,52499,1,0,0:0:0:0:
448,192,52499,1,0,0:0:0:0:
64,192,52616,1,0,0:0:0:0:
448,192,52733,1,0,0:0:0:0:
192,192,52733,1,0,0:0:0:0:
192,192,52850,1,0,0:0:0:0:
64,192,52968,1,0,0:0:0:0:
448,192,52968,1,0,0:0:0:0:
320,192,53026,1,0,0:0:0:0:
192,192,53085,1,0,0:0:0:0:
192,192,53202,1,0,0:0:0:0:
64,192,53202,1,0,0:0:0:0:
448,192,53319,1,0,0:0:0:0:
64,192,53436,1,0,0:0:0:0:
320,192,53436,1,0,0:0:0:0:
192,192,53436,1,0,0:0:0:0:
320,192,53553,1,0,0:0:0:0:
64,192,53671,1,0,0:0:0:0:
320,192,53788,1,0,0:0:0:0:
448,192,53788,1,0,0:0:0:0:
64,192,53905,1,0,0:0:0:0:
192,192,53905,1,0,0:0:0:0:
448,192,53905,1,0,0:0:0:0:
320,192,54022,1,0,0:0:0:0:
64,192,54139,1,0,0:0:0:0:
448,192,54139,1,0,0:0:0:0:
192,192,54257,1,0,0:0:0:0:
448,192,54374,1,0,0:0:0:0:
192,192,54374,1,0,0:0:0:0:
64,192,54374,1,0,0:0:0:0:
448,192,54491,1,0,0:0:0:0:
320,192,54608,1,0,0:0:0:0:
64,192,54608,1,0,0:0:0:0:
64,192,54725,1,0,0:0:0:0:
192,192,54843,1,0,0:0:0:0:
320,192,54843,1,0,0:0:0:0:
448,192,54843,1,0,0:0:0:0:
64,192,54960,1,0,0:0:0:0:
320,192,55077,1,0,0:0:0:0:
448,192,55077,1,0,0:0:0:0:
192,192,55194,1,0,0:0:0:0:
192,192,55311,1,0,0:0:0:0:
64,192,55311,1,0,0:0:0:0:
448,192,55311,1,0,0:0:0:0:
448,192,55428,1,0,0:0:0:0:
192,192,55546,1,0,0:0:0:0:
64,192,55546,1,0,0:0:0:0:
320,192,55663,1,0,0:0:0:0:
64,192,55780,1,0,0:0:0:0:
320,192,55780,1,0,0:0:0:0:
448,192,55780,1,0,0:0:0:0:
192,192,55897,1,0,0:0:0:0:
320,192,55956,1,0,0:0:0:0:
448,192,56014,1,0,0:0:0:0:
320,192,56132,1,0,0:0:0:0:
64,192,56249,1,0,0:0:0:0:
192,192,56249,1,0,0:0:0:0:
448,192,56249,1,0,0:0:0:0:
192,192,56366,1,0,0:0:0:0:
448,192,56483,1,0,0:0:0:0:
64,192,56483,1,0,0:0:0:0:
320,192,56600,1,0,0:0:0:0:
192,192,56718,1,0,0:0:0:0:
64,192,56718,1,0,0:0:0:0:
448,192,56718,1,0,0:0:0:0:
320,192,56835,1,0,0:0:0:0:
320,192,56952,1,0,0:0:0:0:
64,192,56952,1,0,0:0:0:0:
192,192,57069,1,0,0:0:0:0:
64,192,57186,1,0,0:0:0:0:
448,192,57186,1,0,0:0:0:0:
320,192,57245,1,0,0:0:0:0:
192,192,57303,1,0,0:0:0:0:
448,192,57421,1,0,0:0:0:0:
64,192,57421,1,0,0:0:0:0:
320,192,57538,1,0,0:0:0:0:
64,192,57655,1,0,0:0:0:0:
192,192,57655,1,0,0:0:0:0:
320,192,57655,1,0,0:0:0:0:
448,192,57772,1,0,0:0:0:0:
320,192,57831,1,0,0:0:0:0:
192,192,57889,1,0,0:0:0:0:
448,192,58007,1,0,0:0:0:0:
64,192,58124,1,0,0:0:0:0:
320,192,58124,1,0,0:0:0:0:
448,192,58124,1,0,0:0:0:0:
192,192,58241,1,0,0:0:0:0:
192,192,58358,1,0,0:0:0:0:
320,192,58358,1,0,0:0:0:0:
320,192,58475,1,0,0:0:0:0:
192,192,58593,1,0,0:0:0:0:
448,192,58593,1,0,0:0:0:0:
64,192,58593,1,0,0:0:0:0:
448,192,58710,1,0,0:0:0:0:
192,192,58827,1,0,0:0:0:0:
64,192,58827,1,0,0:0:0:0:
192,192,58944,1,0,0:0:0:0:
64,192,59061,1,0,0:0:0:0:
320,192,59061,1,0,0:0:0:0:
448,192,59061,1,0,0:0:0:0:
320,192,59178,1,0,0:0:0:0:
64,192,59296,1,0,0:0:0:0:
448,192,59296,1,0,0:0:0:0:
192,192,59413,1,0,0:0:0:0:
192,192,59530,1,0,0:0:0:0:
64,192,59530,1,0,0:0:0:0:
448,192,59530,1,0,0:0:0:0:
320,192,59647,1,0,0:0:0:0:
192,192,59706,1,0,0:0:0:0:
64,192,59764,1,0,0:0:0:0:
320,192,59882,1,0,0:0:0:0:
64,192,59999,1,0,0:0:0:0:
448,192,59999,1,0,0:0:0:0:
320,192,59999,1,0,0:0:0:0:
192,192,60116,1,0,0:0:0:0:
64,192,60233,1,0,0:0:0:0:
192,192,60292,1,0,0:0:0:0:
320,192,60350,1,0,0:0:0:0:
448,192,60409,1,0,0:0:0:0:
64,192,60468,1,0,0:0:0:0:
192,192,60468,1,0,0:0:0:0:
448,192,60585,1,0,0:0:0:0:
192,192,60702,1,0,0:0:0:0:
64,192,60702,1,0,0:0:0:0:
320,192,60819,1,0,0:0:0:0:
448,192,60936,1,0,0:0:0:0:
64,192,60936,1,0,0:0:0:0:
320,192,60936,1,0,0:0:0:0:
64,192,61053,1,0,0:0:0:0:
320,192,61171,1,0,0:0:0:0:
448,192,61171,1,0,0:0:0:0:
192,192,61288,1,0,0:0:0:0:
192,192,61405,1,0,0:0:0:0:
64,192,61405,1,0,0:0:0:0:
448,192,61405,1,0,0:0:0:0:
448,192,61522,1,0,0:0:0:0:
64,192,61639,1,0,0:0:0:0:
192,192,61639,1,0,0:0:0:0:
320,192,61757,1,0,0:0:0:0:
64,192,61874,1,0,0:0:0:0:
320,192,61874,1,0,0:0:0:0:
448,192,61874,1,0,0:0:0:0:
64,192,61991,1,0,0:0:0:0:
320,192,62108,1,0,0:0:0:0:
448,192,62108,1,0,0:0:0:0:
192,192,62225,1,0,0:0:0:0:
448,192,62343,1,0,0:0:0:0:
192,192,62343,1,0,0:0:0:0:
64,192,62343,1,0,0:0:0:0:
320,192,62460,1,0,0:0:0:0:
448,192,62577,1,0,0:0:0:0:
320,192,62635,1,0,0:0:0:0:
192,192,62694,1,0,0:0:0:0:
64,192,62811,1,0,0:0:0:0:
448,192,62811,1,0,0:0:0:0:
192,192,62811,1,0,0:0:0:0:
320,192,62928,1,0,0:0:0:0:
192,192,63046,1,0,0:0:0:0:
64,192,63046,1,0,0:0:0:0:
448,192,63163,1,0,0:0:0:0:
64,192,63280,1,0,0:0:0:0:
320,192,63280,1,0,0:0:0:0:
448,192,63280,1,0,0:0:0:0:
192,192,63397,1,0,0:0:0:0:
320,192,63456,1,0,0:0:0:0:
448,192,63514,1,0,0:0:0:0:
64,192,63632,1,0,0:0:0:0:
192,192,63749,1,0,0:0:0:0:
64,192,63749,1,0,0:0:0:0:
448,192,63749,1,0,0:0:0:0:
448,192,63866,1,0,0:0:0:0:
320,192,63983,1,0,0:0:0:0:
192,192,63983,1,0,0:0:0:0:
192,192,64100,1,0,0:0:0:0:
64,192,64218,1,0,0:0:0:0:
320,192,64218,1,0,0:0:0:0:
448,192,64218,1,0,0:0:0:0:
448,192,64335,1,0,0:0:0:0:
192,192,64452,1,0,0:0:0:0:
64,192,64452,1,0,0:0:0:0:
64,192,64569,1,0,0:0:0:0:
192,192,64686,1,0,0:0:0:0:
320,192,64686,1,0,0:0:0:0:
448,192,64686,1,0,0:0:0:0:
448,192,64803,1,0,0:0:0:0:
320,192,64921,1,0,0:0:0:0:
64,192,64921,1,0,0:0:0:0:
192,192,65038,1,0,0:0:0:0:
64,192,65155,1,0,0:0:0:0:
448,192,65155,1,0,0:0:0:0:
192,192,65155,1,0,0:0:0:0:
320,192,65272,1,0,0:0:0:0:
192,192,65331,1,0,0:0:0:0:
64,192,65389,1,0,0:0:0:0:
320,192,65507,1,0,0:0:0:0:
448,192,65624,1,0,0:0:0:0:
320,192,65624,1,0,0:0:0:0:
64,192,65624,1,0,0:0:0:0:
192,192,65741,1,0,0:0:0:0:
320,192,65858,1,0,0:0:0:0:
448,192,65858,1,0,0:0:0:0:
192,192,65975,1,0,0:0:0:0:
320,192,66034,1,0,0:0:0:0:
448,192,66093,1,0,0:0:0:0:
64,192,66093,1,0,0:0:0:0:
192,192,66210,1,0,0:0:0:0:
448,192,66327,1,0,0:0:0:0:
320,192,66385,1,0,0:0:0:0:
192,192,66444,1,0,0:0:0:0:
192,192,66561,1,0,0:0:0:0:
64,192,66561,1,0,0:0:0:0:
448,192,66561,1,0,0:0:0:0:
448,192,66678,1,0,0:0:0:0:
192,192,66796,1,0,0:0:0:0:
64,192,66796,1,0,0:0:0:0:
192,192,66913,1,0,0:0:0:0:
320,192,66913,1,0,0:0:0:0:
64,192,67030,1,0,0:0:0:0:
320,192,67030,1,0,0:0:0:0:
448,192,67030,1,0,0:0:0:0:
192,192,67147,1,0,0:0:0:0:
320,192,67206,1,0,0:0:0:0:
448,192,67264,1,0,0:0:0:0:
192,192,67382,1,0,0:0:0:0:
192,192,67499,1,0,0:0:0:0:
64,192,67499,1,0,0:0:0:0:
448,192,67499,1,0,0:0:0:0:
448,192,67616,1,0,0:0:0:0:
192,192,67733,1,0,0:0:0:0:
64,192,67733,1,0,0:0:0:0:
192,192,67850,1,0,0:0:0:0:
64,192,67968,1,0,0:0:0:0:
448,192,67968,1,0,0:0:0:0:
320,192,68026,1,0,0:0:0:0:
192,192,68085,1,0,0:0:0:0:
64,192,68143,1,0,0:0:0:0:
320,192,68202,1,0,0:0:0:0:
448,192,68202,1,0,0:0:0:0:
192,192,68319,1,0,0:0:0:0:
192,192,68436,1,0,0:0:0:0:
64,192,68436,1,0,0:0:0:0:
448,192,68436,1,0,0:0:0:0:
448,192,68553,1,0,0:0:0:0:
64,192,68671,1,0,0:0:0:0:
320,192,68788,1,0,0:0:0:0:
448,192,68788,1,0,0:0:0:0:
192,192,68905,1,0,0:0:0:0:
320,192,68905,1,0,0:0:0:0:
64,192,68905,1,0,0:0:0:0:
448,192,69022,1,0,0:0:0:0:
192,192,69139,1,0,0:0:0:0:
64,192,69139,1,0,0:0:0:0:
320,192,69257,1,0,0:0:0:0:
64,192,69374,1,0,0:0:0:0:
448,192,69374,1,0,0:0:0:0:
320,192,69374,1,0,0:0:0:0:
192,192,69491,1,0,0:0:0:0:
320,192,69491,1,0,0:0:0:0:
192,192,69608,1,0,0:0:0:0:
64,192,69608,1,0,0:0:0:0:
448,192,69725,1,0,0:0:0:0:
320,192,69843,1,0,0:0:0:0:
448,192,69843,1,0,0:0:0:0:
64,192,69843,1,0,0:0:0:0:
192,192,69960,1,0,0:0:0:0:
320,192,70077,1,0,0:0:0:0:
448,192,70077,1,0,0:0:0:0:
192,192,70194,1,0,0:0:0:0:
64,192,70194,1,0,0:0:0:0:
448,192,70311,1,0,0:0:0:0:
192,192,70311,1,0,0:0:0:0:
320,192,70311,1,0,0:0:0:0:
64,192,70428,1,0,0:0:0:0:
320,192,70546,1,0,0:0:0:0:
448,192,70546,1,0,0:0:0:0:
192,192,70663,1,0,0:0:0:0:
64,192,70663,1,0,0:0:0:0:
64,192,70780,1,0,0:0:0:0:
192,192,70780,1,0,0:0:0:0:
320,192,70780,1,0,0:0:0:0:
448,192,70897,1,0,0:0:0:0:
320,192,70956,1,0,0:0:0:0:
192,192,71014,1,0,0:0:0:0:
448,192,71132,1,0,0:0:0:0:
448,192,71249,1,0,0:0:0:0:
192,192,71249,1,0,0:0:0:0:
64,192,71249,1,0,0:0:0:0:
320,192,71366,1,0,0:0:0:0:
448,192,71483,1,0,0:0:0:0:
64,192,71483,1,0,0:0:0:0:
192,192,71600,1,0,0:0:0:0:
320,192,71718,1,0,0:0:0:0:
192,192,71718,1,0,0:0:0:0:
64,192,71718,1,0,0:0:0:0:
448,192,71835,1,0,0:0:0:0:
64,192,71952,1,0,0:0:0:0:
192,192,71952,1,0,0:0:0:0:
320,192,72069,1,0,0:0:0:0:
64,192,72186,1,0,0:0:0:0:
320,192,72186,1,0,0:0:0:0:
448,192,72186,1,0,0:0:0:0:
192,192,72303,1,0,0:0:0:0:
320,192,72421,1,0,0:0:0:0:
448,192,72421,1,0,0:0:0:0:
192,192,72538,1,0,0:0:0:0:
64,192,72538,1,0,0:0:0:0:
64,192,72655,1,0,0:0:0:0:
320,192,72655,1,0,0:0:0:0:
448,192,72655,1,0,0:0:0:0:
448,192,72772,1,0,0:0:0:0:
64,192,72889,1,0,0:0:0:0:
192,192,72889,1,0,0:0:0:0:
64,192,73007,1,0,0:0:0:0:
192,192,73124,1,0,0:0:0:0:
320,192,73124,1,0,0:0:0:0:
448,192,73124,1,0,0:0:0:0:
320,192,73241,1,0,0:0:0:0:
64,192,73358,1,0,0:0:0:0:
448,192,73358,1,0,0:0:0:0:
192,192,73475,1,0,0:0:0:0:
192,192,73593,1,0,0:0:0:0:
64,192,73593,1,0,0:0:0:0:
320,192,73593,1,0,0:0:0:0:
448,192,73593,1,0,0:0:0:0:
192,192,74061,1,0,0:0:0:0:
320,192,74061,1,0,0:0:0:0:
448,192,74413,1,0,0:0:0:0:
320,192,74530,1,0,0:0:0:0:
192,192,74530,1,0,0:0:0:0:
64,192,74530,1,0,0:0:0:0:
448,192,74764,1,0,0:0:0:0:
320,192,74823,1,0,0:0:0:0:
192,192,74882,1,0,0:0:0:0:
448,192,74940,1,0,0:0:0:0:
320,192,74999,1,0,0:0:0:0:
64,192,74999,1,0,0:0:0:0:
320,192,75155,1,0,0:0:0:0:
448,192,75155,1,0,0:0:0:0:
192,192,75311,1,0,0:0:0:0:
64,192,75311,1,0,0:0:0:0:
64,192,75468,1,0,0:0:0:0:
320,192,75468,1,0,0:0:0:0:
448,192,75468,1,0,0:0:0:0:
320,192,75936,1,0,0:0:0:0:
448,192,75936,1,0,0:0:0:0:
320,192,76288,1,0,0:0:0:0:
448,192,76288,1,0,0:0:0:0:
320,192,76405,1,0,0:0:0:0:
192,192,76405,1,0,0:0:0:0:
64,192,76405,1,0,0:0:0:0:
320,192,76874,1,0,0:0:0:0:
192,192,76874,1,0,0:0:0:0:
64,192,77343,1,0,0:0:0:0:
448,192,77343,1,0,0:0:0:0:
192,192,77343,1,0,0:0:0:0:
320,192,77811,1,0,0:0:0:0:
448,192,77811,1,0,0:0:0:0:
320,192,78163,1,0,0:0:0:0:
192,192,78163,1,0,0:0:0:0:
448,192,78280,1,0,0:0:0:0:
192,192,78280,1,0,0:0:0:0:
64,192,78280,1,0,0:0:0:0:
320,192,78749,1,0,0:0:0:0:
64,192,78749,1,0,0:0:0:0:
192,192,78749,1,0,0:0:0:0:
448,192,79218,1,0,0:0:0:0:
64,192,79218,1,0,0:0:0:0:
320,192,79218,1,0,0:0:0:0:
192,192,79686,1,0,0:0:0:0:
64,192,79686,1,0,0:0:0:0:
320,192,80038,1,0,0:0:0:0:
192,192,80038,1,0,0:0:0:0:
320,192,80155,1,0,0:0:0:0:
448,192,80155,1,0,0:0:0:0:
64,192,80155,1,0,0:0:0:0:
64,192,80624,1,0,0:0:0:0:
320,192,80624,1,0,0:0:0:0:
448,192,80624,1,0,0:0:0:0:
192,192,80975,1,0,0:0:0:0:
320,192,80975,1,0,0:0:0:0:
192,192,81093,1,0,0:0:0:0:
64,192,81093,1,0,0:0:0:0:
448,192,81093,1,0,0:0:0:0:
64,192,81561,1,0,0:0:0:0:
448,192,81561,1,0,0:0:0:0:
192,192,81561,1,0,0:0:0:0:
192,192,81913,1,0,0:0:0:0:
320,192,81913,1,0,0:0:0:0:
320,192,82030,1,0,0:0:0:0:
64,192,82030,1,0,0:0:0:0:
448,192,82030,1,0,0:0:0:0:
448,192,82264,1,0,0:0:0:0:
320,192,82323,1,0,0:0:0:0:
192,192,82382,1,0,0:0:0:0:
64,192,82440,1,0,0:0:0:0:
320,192,82499,1,0,0:0:0:0:
448,192,82499,1,0,0:0:0:0:
192,192,82655,1,0,0:0:0:0:
320,192,82655,1,0,0:0:0:0:
192,192,82811,1,0,0:0:0:0:
64,192,82811,1,0,0:0:0:0:
64,192,82968,1,0,0:0:0:0:
448,192,82968,1,0,0:0:0:0:
320,192,82968,1,0,0:0:0:0:
320,192,83436,1,0,0:0:0:0:
448,192,83436,1,0,0:0:0:0:
320,192,83788,1,0,0:0:0:0:
448,192,83788,1,0,0:0:0:0:
320,192,83905,1,0,0:0:0:0:
192,192,83905,1,0,0:0:0:0:
64,192,83905,1,0,0:0:0:0:
64,192,84374,1,0,0:0:0:0:
320,192,84374,1,0,0:0:0:0:
448,192,84374,1,0,0:0:0:0:
320,192,84725,1,0,0:0:0:0:
192,192,84725,1,0,0:0:0:0:
64,192,84843,1,0,0:0:0:0:
448,192,84843,1,0,0:0:0:0:
192,192,84843,1,0,0:0:0:0:
320,192,85311,1,0,0:0:0:0:
448,192,85311,1,0,0:0:0:0:
64,192,85663,1,0,0:0:0:0:
192,192,85663,1,0,0:0:0:0:
192,192,85780,1,0,0:0:0:0:
320,192,85780,1,0,0:0:0:0:
448,192,85780,1,0,0:0:0:0:
64,192,86249,1,0,0:0:0:0:
320,192,86249,1,0,0:0:0:0:
448,192,86249,1,0,0:0:0:0:
192,192,86718,1,0,0:0:0:0:
64,192,86718,1,0,0:0:0:0:
448,192,86718,1,0,0:0:0:0:
320,192,87186,1,0,0:0:0:0:
192,192,87186,1,0,0:0:0:0:
64,192,87538,1,0,0:0:0:0:
192,192,87538,1,0,0:0:0:0:
192,192,87655,1,0,0:0:0:0:
320,192,87655,1,0,0:0:0:0:
448,192,87655,1,0,0:0:0:0:
448,192,88124,1,0,0:0:0:0:
320,192,88124,1,0,0:0:0:0:
320,192,88475,1,0,0:0:0:0:
448,192,88475,1,0,0:0:0:0:
192,192,88593,1,0,0:0:0:0:
64,192,88593,1,0,0:0:0:0:
320,192,88593,1,0,0:0:0:0:
448,192,89061,1,0,0:0:0:0:
320,192,89061,1,0,0:0:0:0:
64,192,89061,1,0,0:0:0:0:
448,192,89413,1,0,0:0:0:0:
320,192,89413,1,0,0:0:0:0:
64,192,89530,1,0,0:0:0:0:
192,192,89530,1,0,0:0:0:0:
448,192,89530,1,0,0:0:0:0:
320,192,89764,1,0,0:0:0:0:
192,192,89823,1,0,0:0:0:0:
448,192,89882,1,0,0:0:0:0:
320,192,89940,1,0,0:0:0:0:
192,192,89999,1,0,0:0:0:0:
64,192,89999,1,0,0:0:0:0:
448,192,89999,1,0,0:0:0:0:
192,192,90350,1,0,0:0:0:0:
320,192,90350,1,0,0:0:0:0:
320,192,90468,1,0,0:0:0:0:
192,192,90468,1,0,0:0:0:0:
64,192,90468,1,0,0:0:0:0:
448,192,90468,1,0,0:0:0:0:
448,192,90936,1,0,0:0:0:0:
192,192,90936,1,0,0:0:0:0:
320,192,90936,1,0,0:0:0:0:
64,192,91288,1,0,0:0:0:0:
320,192,91288,1,0,0:0:0:0:
192,192,91288,1,0,0:0:0:0:
192,192,91405,1,0,0:0:0:0:
320,192,91405,1,0,0:0:0:0:
448,192,91405,1,0,0:0:0:0:
64,192,91874,1,0,0:0:0:0:
448,192,91874,1,0,0:0:0:0:
320,192,92343,1,0,0:0:0:0:
192,192,92343,1,0,0:0:0:0:
64,192,92343,1,0,0:0:0:0:
192,192,92811,1,0,0:0:0:0:
320,192,92811,1,0,0:0:0:0:
448,192,92811,1,0,0:0:0:0:
320,192,93163,1,0,0:0:0:0:
192,192,93163,1,0,0:0:0:0:
64,192,93163,1,0,0:0:0:0:
192,192,93280,1,0,0:0:0:0:
320,192,93280,1,0,0:0:0:0:
448,192,93280,1,0,0:0:0:0:
448,192,93749,1,0,0:0:0:0:
64,192,93749,1,0,0:0:0:0:
192,192,93749,1,0,0:0:0:0:
64,192,94218,1,0,0:0:0:0:
320,192,94218,1,0,0:0:0:0:
192,192,94218,1,0,0:0:0:0:
64,192,94686,1,0,0:0:0:0:
320,192,94686,1,0,0:0:0:0:
448,192,94686,1,0,0:0:0:0:
64,192,95038,1,0,0:0:0:0:
320,192,95038,1,0,0:0:0:0:
192,192,95038,1,0,0:0:0:0:
192,192,95155,1,0,0:0:0:0:
320,192,95155,1,0,0:0:0:0:
448,192,95155,1,0,0:0:0:0:
192,192,95624,1,0,0:0:0:0:
64,192,95624,1,0,0:0:0:0:
448,192,95624,1,0,0:0:0:0:
448,192,95975,1,0,0:0:0:0:
192,192,95975,1,0,0:0:0:0:
320,192,95975,1,0,0:0:0:0:
320,192,96093,1,0,0:0:0:0:
192,192,96093,1,0,0:0:0:0:
64,192,96093,1,0,0:0:0:0:
64,192,96561,1,0,0:0:0:0:
192,192,96561,1,0,0:0:0:0:
320,192,96561,1,0,0:0:0:0:
192,192,96913,1,0,0:0:0:0:
320,192,96913,1,0,0:0:0:0:
64,192,96913,1,0,0:0:0:0:
192,192,97030,1,0,0:0:0:0:
320,192,97030,1,0,0:0:0:0:
448,192,97030,1,0,0:0:0:0:
192,192,97264,1,0,0:0:0:0:
320,192,97323,1,0,0:0:0:0:
64,192,97382,1,0,0:0:0:0:
192,192,97440,1,0,0:0:0:0:
320,192,97499,1,0,0:0:0:0:
448,192,97499,1,0,0:0:0:0:
64,192,97499,1,0,0:0:0:0:
192,192,97655,1,0,0:0:0:0:
320,192,97655,1,0,0:0:0:0:
192,192,97811,1,0,0:0:0:0:
64,192,97811,1,0,0:0:0:0:
64,192,97968,1,0,0:0:0:0:
448,192,97968,1,0,0:0:0:0:
320,192,97968,1,0,0:0:0:0:
448,192,98436,1,0,0:0:0:0:
320,192,98436,1,0,0:0:0:0:
192,192,98436,1,0,0:0:0:0:
192,192,98788,1,0,0:0:0:0:
64,192,98788,1,0,0:0:0:0:
320,192,98788,1,0,0:0:0:0:
192,192,98905,1,0,0:0:0:0:
320,192,98905,1,0,0:0:0:0:
448,192,98905,1,0,0:0:0:0:
448,192,99374,1,0,0:0:0:0:
320,192,99374,1,0,0:0:0:0:
64,192,99374,1,0,0:0:0:0:
192,192,99725,1,0,0:0:0:0:
320,192,99725,1,0,0:0:0:0:
448,192,99725,1,0,0:0:0:0:
320,192,99843,1,0,0:0:0:0:
192,192,99843,1,0,0:0:0:0:
64,192,99843,1,0,0:0:0:0:
64,192,100311,1,0,0:0:0:0:
320,192,100311,1,0,0:0:0:0:
448,192,100311,1,0,0:0:0:0:
320,192,100663,1,0,0:0:0:0:
192,192,100663,1,0,0:0:0:0:
64,192,100663,1,0,0:0:0:0:
320,192,100780,1,0,0:0:0:0:
448,192,100780,1,0,0:0:0:0:
192,192,100780,1,0,0:0:0:0:
64,192,101249,1,0,0:0:0:0:
192,192,101249,1,0,0:0:0:0:
448,192,101249,1,0,0:0:0:0:
192,192,101718,1,0,0:0:0:0:
64,192,101718,1,0,0:0:0:0:
320,192,101718,1,0,0:0:0:0:
192,192,102186,1,0,0:0:0:0:
64,192,102186,1,0,0:0:0:0:
448,192,102186,1,0,0:0:0:0:
192,192,102538,1,0,0:0:0:0:
64,192,102538,1,0,0:0:0:0:
320,192,102538,1,0,0:0:0:0:
320,192,102655,1,0,0:0:0:0:
192,192,102655,1,0,0:0:0:0:
448,192,102655,1,0,0:0:0:0:
64,192,103124,1,0,0:0:0:0:
320,192,103124,1,0,0:0:0:0:
448,192,103124,1,0,0:0:0:0:
192,192,103475,1,0,0:0:0:0:
320,192,103475,1,0,0:0:0:0:
448,192,103475,1,0,0:0:0:0:
320,192,103593,1,0,0:0:0:0:
192,192,103593,1,0,0:0:0:0:
64,192,103593,1,0,0:0:0:0:
320,192,104061,1,0,0:0:0:0:
192,192,104120,1,0,0:0:0:0:
320,192,104178,1,0,0:0:0:0:
192,192,104237,1,0,0:0:0:0:
64,192,104296,1,0,0:0:0:0:
448,192,104296,1,0,0:0:0:0:
192,192,104530,1,0,0:0:0:0:
320,192,104530,1,0,0:0:0:0:
448,192,104530,1,0,0:0:0:0:
64,192,104764,1,0,0:0:0:0:
320,192,104764,1,0,0:0:0:0:
192,192,104764,1,0,0:0:0:0:
320,192,104999,1,0,0:0:0:0:
192,192,104999,1,0,0:0:0:0:
64,192,104999,1,0,0:0:0:0:
448,192,104999,1,0,0:0:0:0:
