osu file format v14

[General]
AudioFilename: M2U - HOWling.mp3
AudioLeadIn: 0
PreviewTime: 42133
Countdown: 0
SampleSet: Drum
StackLeniency: 0.7
Mode: 3
LetterboxInBreaks: 0
SpecialStyle: 0
WidescreenStoryboard: 1

[Editor]
DistanceSpacing: 1.5
BeatDivisor: 4
GridSize: 4
TimelineZoom: 2.7

[Metadata]
Title:M2U Pack
TitleUnicode:M2U Pack
Artist:M2U
ArtistUnicode:M2U
Creator:Kim_GodSSI
Version:H.O.W.ling 4K
Source:
Tags:arpia97 lami- buschan ezmmr micleak nabi- ruka takjun roasted chicken murumoo other nicode sherie 約束之歌 guriri 구리리 howling redeye red eye lucy egoist 最後の花弁 나래
BeatmapID:3846585
BeatmapSetID:1572720

[Difficulty]
HPDrainRate:8.5
CircleSize:4
OverallDifficulty:8
ApproachRate:5
SliderMultiplier:1.4
SliderTickRate:1

[Events]
//Background and Video events
0,0,"M2U - HOWling.jpg",0,0
//Break Periods
//Storyboard Layer 0 (Background)
//Storyboard Layer 1 (Fail)
//Storyboard Layer 2 (Pass)
//Storyboard Layer 3 (Foreground)
//Storyboard Layer 4 (Overlay)
//Storyboard Sound Samples

[TimingPoints]
1633,375,4,3,0,0,1,0

[HitObjects]
448,192,1633,5,0,0:0:0:0:
64,192,1633,1,0,0:0:0:0:
192,192,1633,1,0,0:0:0:0:
320,192,1726,1,0,0:0:0:0:
192,192,1820,1,0,0:0:0:0:
64,192,1820,1,0,0:0:0:0:
448,192,1914,1,0,0:0:0:0:
320,192,2008,1,0,0:0:0:0:
192,192,2008,1,0,0:0:0:0:
64,192,2008,1,0,0:0:0:0:
64,192,2195,1,0,0:0:0:0:
320,192,2195,1,0,0:0:0:0:
448,192,2195,1,0,0:0:0:0:
192,192,2289,1,0,0:0:0:0:
320,192,2383,1,0,0:0:0:0:
448,192,2383,1,0,0:0:0:0:
64,192,2476,1,0,0:0:0:0:
192,192,2570,1,0,0:0:0:0:
320,192,2570,1,0,0:0:0:0:
448,192,2570,1,0,0:0:0:0:
448,192,2758,1,0,0:0:0:0:
320,192,2758,1,0,0:0:0:0:
192,192,2758,1,0,0:0:0:0:
64,192,2851,1,0,0:0:0:0:
320,192,2945,1,0,0:0:0:0:
448,192,2945,1,0,0:0:0:0:
192,192,3039,1,0,0:0:0:0:
320,192,3133,1,0,0:0:0:0:
448,192,3133,1,0,0:0:0:0:
64,192,3133,1,0,0:0:0:0:
64,192,3320,1,0,0:0:0:0:
192,192,3320,1,0,0:0:0:0:
448,192,3320,1,0,0:0:0:0:
320,192,3414,1,0,0:0:0:0:
64,192,3508,1,0,0:0:0:0:
192,192,3508,1,0,0:0:0:0:
448,192,3601,1,0,0:0:0:0:
64,192,3695,1,0,0:0:0:0:
320,192,3695,1,0,0:0:0:0:
192,192,3695,1,0,0:0:0:0:
64,192,3883,1,0,0:0:0:0:
320,192,3883,1,0,0:0:0:0:
448,192,3883,1,0,0:0:0:0:
192,192,3883,1,0,0:0:0:0:
64,192,4070,1,0,0:0:0:0:
448,192,4070,1,0,0:0:0:0:
192,192,4164,1,0,0:0:0:0:
320,192,4258,1,0,0:0:0:0:
448,192,4258,1,0,0:0:0:0:
64,192,4258,1,0,0:0:0:0:
192,192,4351,1,0,0:0:0:0:
448,192,4445,1,0,0:0:0:0:
320,192,4539,1,0,0:0:0:0:
192,192,4633,1,0,0:0:0:0:
448,192,4633,1,0,0:0:0:0:
64,192,4633,1,0,0:0:0:0:
320,192,4726,1,0,0:0:0:0:
192,192,4820,1,0,0:0:0:0:
64,192,4820,1,0,0:0:0:0:
448,192,4914,1,0,0:0:0:0:
320,192,5008,1,0,0:0:0:0:
192,192,5008,1,0,0:0:0:0:
64,192,5008,1,0,0:0:0:0:
64,192,5195,1,0,0:0:0:0:
320,192,5195,1,0,0:0:0:0:
448,192,5195,1,0,0:0:0:0:
192,192,5289,1,0,0:0:0:0:
320,192,5383,1,0,0:0:0:0:
448,192,5383,1,0,0:0:0:0:
64,192,5476,1,0,0:0:0:0:
320,192,5570,1,0,0:0:0:0:
448,192,5570,1,0,0:0:0:0:
192,192,5570,1,0,0:0:0:0:
192,192,5758,1,0,0:0:0:0:
64,192,5758,1,0,0:0:0:0:
320,192,5758,1,0,0:0:0:0:
448,192,5851,1,0,0:0:0:0:
192,192,5945,1,0,0:0:0:0:
64,192,5945,1,0,0:0:0:0:
320,192,6039,1,0,0:0:0:0:
192,192,6133,1,0,0:0:0:0:
64,192,6133,1,0,0:0:0:0:
448,192,6133,1,0,0:0:0:0:
448,192,6320,1,0,0:0:0:0:
64,192,6320,1,0,0:0:0:0:
320,192,6320,1,0,0:0:0:0:
192,192,6414,1,0,0:0:0:0:
448,192,6508,1,0,0:0:0:0:
320,192,6508,1,0,0:0:0:0:
64,192,6601,1,0,0:0:0:0:
192,192,6695,1,0,0:0:0:0:
320,192,6695,1,0,0:0:0:0:
448,192,6695,1,0,0:0:0:0:
192,192,6883,1,0,0:0:0:0:
64,192,6883,1,0,0:0:0:0:
320,192,6883,1,0,0:0:0:0:
448,192,6883,1,0,0:0:0:0:
192,192,7070,1,0,0:0:0:0:
320,192,7164,1,0,0:0:0:0:
64,192,7258,1,0,0:0:0:0:
192,192,7258,1,0,0:0:0:0:
448,192,7258,1,0,0:0:0:0:
320,192,7351,1,0,0:0:0:0:
64,192,7445,1,0,0:0:0:0:
448,192,7539,1,0,0:0:0:0:
320,192,7633,1,0,0:0:0:0:
192,192,7633,1,0,0:0:0:0:
64,192,7633,1,0,0:0:0:0:
448,192,7726,1,0,0:0:0:0:
192,192,7820,1,0,0:0:0:0:
64,192,7820,1,0,0:0:0:0:
448,192,7914,1,0,0:0:0:0:
320,192,7914,1,0,0:0:0:0:
192,192,8008,1,0,0:0:0:0:
64,192,8008,1,0,0:0:0:0:
448,192,8195,1,0,0:0:0:0:
192,192,8195,1,0,0:0:0:0:
320,192,8195,1,0,0:0:0:0:
64,192,8289,1,0,0:0:0:0:
320,192,8383,1,0,0:0:0:0:
448,192,8383,1,0,0:0:0:0:
192,192,8476,1,0,0:0:0:0:
64,192,8476,1,0,0:0:0:0:
320,192,8570,1,0,0:0:0:0:
448,192,8570,1,0,0:0:0:0:
448,192,8758,1,0,0:0:0:0:
192,192,8758,1,0,0:0:0:0:
64,192,8758,1,0,0:0:0:0:
320,192,8851,1,0,0:0:0:0:
64,192,8945,1,0,0:0:0:0:
448,192,8945,1,0,0:0:0:0:
320,192,9039,1,0,0:0:0:0:
192,192,9039,1,0,0:0:0:0:
448,192,9133,1,0,0:0:0:0:
64,192,9133,1,0,0:0:0:0:
320,192,9320,1,0,0:0:0:0:
64,192,9320,1,0,0:0:0:0:
448,192,9320,1,0,0:0:0:0:
192,192,9414,1,0,0:0:0:0:
64,192,9508,1,0,0:0:0:0:
448,192,9508,1,0,0:0:0:0:
320,192,9601,1,0,0:0:0:0:
192,192,9601,1,0,0:0:0:0:
448,192,9695,1,0,0:0:0:0:
64,192,9695,1,0,0:0:0:0:
64,192,9883,1,0,0:0:0:0:
320,192,9883,1,0,0:0:0:0:
192,192,9883,1,0,0:0:0:0:
448,192,10070,1,0,0:0:0:0:
320,192,10164,1,0,0:0:0:0:
192,192,10258,1,0,0:0:0:0:
64,192,10258,1,0,0:0:0:0:
320,192,10351,1,0,0:0:0:0:
448,192,10445,1,0,0:0:0:0:
64,192,10445,1,0,0:0:0:0:
192,192,10508,1,0,0:0:0:0:
320,192,10570,1,0,0:0:0:0:
64,192,10633,1,0,0:0:0:0:
448,192,10633,1,0,0:0:0:0:
192,192,10633,1,0,0:0:0:0:
320,192,10726,1,0,0:0:0:0:
448,192,10820,1,0,0:0:0:0:
64,192,10820,1,0,0:0:0:0:
192,192,10914,1,0,0:0:0:0:
320,192,11008,1,0,0:0:0:0:
448,192,11008,1,0,0:0:0:0:
64,192,11008,1,0,0:0:0:0:
448,192,11195,1,0,0:0:0:0:
192,192,11195,1,0,0:0:0:0:
64,192,11195,1,0,0:0:0:0:
320,192,11289,1,0,0:0:0:0:
64,192,11383,1,0,0:0:0:0:
448,192,11383,1,0,0:0:0:0:
192,192,11476,1,0,0:0:0:0:
320,192,11570,1,0,0:0:0:0:
448,192,11570,1,0,0:0:0:0:
64,192,11570,1,0,0:0:0:0:
192,192,11758,1,0,0:0:0:0:
64,192,11758,1,0,0:0:0:0:
320,192,11758,1,0,0:0:0:0:
448,192,11851,1,0,0:0:0:0:
192,192,11945,1,0,0:0:0:0:
64,192,11945,1,0,0:0:0:0:
448,192,12039,1,0,0:0:0:0:
320,192,12133,1,0,0:0:0:0:
64,192,12133,1,0,0:0:0:0:
192,192,12133,1,0,0:0:0:0:
64,192,12320,1,0,0:0:0:0:
320,192,12320,1,0,0:0:0:0:
448,192,12320,1,0,0:0:0:0:
192,192,12414,1,0,0:0:0:0:
320,192,12508,1,0,0:0:0:0:
448,192,12601,1,0,0:0:0:0:
320,192,12695,1,0,0:0:0:0:
192,192,12789,1,0,0:0:0:0:
64,192,12883,1,0,0:0:0:0:
320,192,12883,1,0,0:0:0:0:
448,192,12883,1,0,0:0:0:0:
192,192,12976,1,0,0:0:0:0:
64,192,13070,1,0,0:0:0:0:
320,192,13164,1,0,0:0:0:0:
192,192,13258,1,0,0:0:0:0:
64,192,13258,1,0,0:0:0:0:
448,192,13351,1,0,0:0:0:0:
320,192,13445,1,0,0:0:0:0:
192,192,13539,1,0,0:0:0:0:
64,192,13633,1,0,0:0:0:0:
448,192,13633,1,0,0:0:0:0:
448,192,13820,1,0,0:0:0:0:
320,192,14008,1,0,0:0:0:0:
64,192,14008,1,0,0:0:0:0:
320,192,14195,1,0,0:0:0:0:
64,192,14359,1,0,0:0:0:0:
192,192,14383,1,0,0:0:0:0:
320,192,14383,1,0,0:0:0:0:
192,192,14570,1,0,0:0:0:0:
448,192,14758,1,0,0:0:0:0:
192,192,14758,1,0,0:0:0:0:
320,192,14945,1,0,0:0:0:0:
192,192,15039,1,0,0:0:0:0:
64,192,15133,1,0,0:0:0:0:
448,192,15133,1,0,0:0:0:0:
64,192,15320,1,0,0:0:0:0:
192,192,15508,1,0,0:0:0:0:
448,192,15508,1,0,0:0:0:0:
448,192,15695,1,0,0:0:0:0:
320,192,15789,1,0,0:0:0:0:
448,192,15883,1,0,0:0:0:0:
64,192,15883,1,0,0:0:0:0:
192,192,16070,1,0,0:0:0:0:
64,192,16258,1,0,0:0:0:0:
320,192,16258,1,0,0:0:0:0:
192,192,16445,1,0,0:0:0:0:
448,192,16445,1,0,0:0:0:0:
320,192,16633,1,0,0:0:0:0:
448,192,16633,1,0,0:0:0:0:
64,192,16820,1,0,0:0:0:0:
192,192,17008,1,0,0:0:0:0:
320,192,17008,1,0,0:0:0:0:
448,192,17195,1,0,0:0:0:0:
320,192,17289,1,0,0:0:0:0:
192,192,17383,1,0,0:0:0:0:
64,192,17383,1,0,0:0:0:0:
320,192,17570,1,0,0:0:0:0:
64,192,17758,1,0,0:0:0:0:
448,192,17851,1,0,0:0:0:0:
192,192,17945,1,0,0:0:0:0:
320,192,18039,1,0,0:0:0:0:
64,192,18133,1,0,0:0:0:0:
192,192,18133,1,0,0:0:0:0:
320,192,18414,1,0,0:0:0:0:
64,192,18508,1,0,0:0:0:0:
192,192,18601,1,0,0:0:0:0:
320,192,18695,1,0,0:0:0:0:
448,192,18789,1,0,0:0:0:0:
192,192,18883,1,0,0:0:0:0:
64,192,18883,1,0,0:0:0:0:
448,192,19070,1,0,0:0:0:0:
320,192,19258,1,0,0:0:0:0:
192,192,19258,1,0,0:0:0:0:
320,192,19445,1,0,0:0:0:0:
64,192,19633,1,0,0:0:0:0:
448,192,19633,1,0,0:0:0:0:
64,192,19820,1,0,0:0:0:0:
320,192,20008,1,0,0:0:0:0:
448,192,20008,1,0,0:0:0:0:
320,192,20195,1,0,0:0:0:0:
64,192,20383,1,0,0:0:0:0:
448,192,20383,1,0,0:0:0:0:
192,192,20383,1,0,0:0:0:0:
448,192,20570,1,0,0:0:0:0:
64,192,20758,1,0,0:0:0:0:
192,192,20758,1,0,0:0:0:0:
448,192,20945,1,0,0:0:0:0:
320,192,21039,1,0,0:0:0:0:
192,192,21133,1,0,0:0:0:0:
64,192,21133,1,0,0:0:0:0:
448,192,21320,1,0,0:0:0:0:
320,192,21508,1,0,0:0:0:0:
64,192,21695,1,0,0:0:0:0:
192,192,21789,1,0,0:0:0:0:
320,192,21883,1,0,0:0:0:0:
448,192,21883,1,0,0:0:0:0:
192,192,22070,1,0,0:0:0:0:
192,192,22258,1,0,0:0:0:0:
448,192,22258,1,0,0:0:0:0:
64,192,22258,1,0,0:0:0:0:
448,192,22445,1,0,0:0:0:0:
64,192,22633,1,0,0:0:0:0:
192,192,22633,1,0,0:0:0:0:
448,192,22633,1,0,0:0:0:0:
192,192,22820,1,0,0:0:0:0:
64,192,23008,1,0,0:0:0:0:
448,192,23008,1,0,0:0:0:0:
192,192,23101,1,0,0:0:0:0:
320,192,23195,1,0,0:0:0:0:
192,192,23289,1,0,0:0:0:0:
448,192,23383,1,0,0:0:0:0:
64,192,23383,1,0,0:0:0:0:
320,192,23383,1,0,0:0:0:0:
320,192,23570,1,0,0:0:0:0:
192,192,23664,1,0,0:0:0:0:
64,192,23758,1,0,0:0:0:0:
320,192,23758,1,0,0:0:0:0:
448,192,23758,1,0,0:0:0:0:
192,192,23945,1,0,0:0:0:0:
448,192,23945,1,0,0:0:0:0:
64,192,24133,1,0,0:0:0:0:
192,192,24133,1,0,0:0:0:0:
320,192,24226,1,0,0:0:0:0:
64,192,24320,1,0,0:0:0:0:
192,192,24320,1,0,0:0:0:0:
448,192,24414,1,0,0:0:0:0:
64,192,24508,1,0,0:0:0:0:
320,192,24508,1,0,0:0:0:0:
192,192,24508,1,0,0:0:0:0:
320,192,24695,1,0,0:0:0:0:
448,192,24695,1,0,0:0:0:0:
192,192,24789,1,0,0:0:0:0:
320,192,24883,1,0,0:0:0:0:
448,192,24883,1,0,0:0:0:0:
64,192,24976,1,0,0:0:0:0:
192,192,25070,1,0,0:0:0:0:
320,192,25070,1,0,0:0:0:0:
448,192,25070,1,0,0:0:0:0:
192,192,25258,1,0,0:0:0:0:
64,192,25258,1,0,0:0:0:0:
448,192,25351,1,0,0:0:0:0:
192,192,25445,1,0,0:0:0:0:
320,192,25445,1,0,0:0:0:0:
448,192,25539,1,0,0:0:0:0:
320,192,25633,1,0,0:0:0:0:
192,192,25633,1,0,0:0:0:0:
64,192,25633,1,0,0:0:0:0:
64,192,25820,1,0,0:0:0:0:
320,192,25820,1,0,0:0:0:0:
448,192,25820,1,0,0:0:0:0:
192,192,25914,1,0,0:0:0:0:
448,192,26008,1,0,0:0:0:0:
320,192,26101,1,0,0:0:0:0:
64,192,26195,1,0,0:0:0:0:
448,192,26195,1,0,0:0:0:0:
192,192,26195,1,0,0:0:0:0:
320,192,26383,1,0,0:0:0:0:
448,192,26429,1,0,0:0:0:0:
64,192,26570,1,0,0:0:0:0:
192,192,26570,1,0,0:0:0:0:
64,192,26758,1,0,0:0:0:0:
320,192,26758,1,0,0:0:0:0:
448,192,26758,1,0,0:0:0:0:
320,192,26945,1,0,0:0:0:0:
448,192,26945,1,0,0:0:0:0:
64,192,27086,1,0,0:0:0:0:
192,192,27109,1,0,0:0:0:0:
320,192,27133,1,0,0:0:0:0:
448,192,27133,1,0,0:0:0:0:
64,192,27226,1,0,0:0:0:0:
320,192,27320,1,0,0:0:0:0:
448,192,27320,1,0,0:0:0:0:
192,192,27414,1,0,0:0:0:0:
64,192,27508,1,0,0:0:0:0:
320,192,27508,1,0,0:0:0:0:
448,192,27508,1,0,0:0:0:0:
320,192,27695,1,0,0:0:0:0:
192,192,27695,1,0,0:0:0:0:
448,192,27789,1,0,0:0:0:0:
192,192,27883,1,0,0:0:0:0:
64,192,27883,1,0,0:0:0:0:
448,192,27976,1,0,0:0:0:0:
192,192,28070,1,0,0:0:0:0:
64,192,28070,1,0,0:0:0:0:
320,192,28070,1,0,0:0:0:0:
192,192,28258,1,0,0:0:0:0:
320,192,28258,1,0,0:0:0:0:
64,192,28351,1,0,0:0:0:0:
320,192,28445,1,0,0:0:0:0:
448,192,28445,1,0,0:0:0:0:
64,192,28539,1,0,0:0:0:0:
192,192,28633,1,0,0:0:0:0:
320,192,28633,1,0,0:0:0:0:
448,192,28633,1,0,0:0:0:0:
64,192,28820,1,0,0:0:0:0:
448,192,28820,1,0,0:0:0:0:
320,192,28914,1,0,0:0:0:0:
192,192,29008,1,0,0:0:0:0:
448,192,29101,1,0,0:0:0:0:
320,192,29195,1,0,0:0:0:0:
192,192,29289,1,0,0:0:0:0:
64,192,29383,1,0,0:0:0:0:
448,192,29383,1,0,0:0:0:0:
320,192,29445,1,0,0:0:0:0:
192,192,29508,1,0,0:0:0:0:
320,192,29570,1,0,0:0:0:0:
448,192,29633,1,0,0:0:0:0:
320,192,29695,1,0,0:0:0:0:
192,192,29758,1,0,0:0:0:0:
64,192,29820,1,0,0:0:0:0:
192,192,29883,1,0,0:0:0:0:
320,192,29945,1,0,0:0:0:0:
448,192,30008,1,0,0:0:0:0:
320,192,30070,1,0,0:0:0:0:
192,192,30133,1,0,0:0:0:0:
64,192,30133,1,0,0:0:0:0:
64,192,30320,1,0,0:0:0:0:
192,192,30414,1,0,0:0:0:0:
320,192,30508,1,0,0:0:0:0:
448,192,30508,1,0,0:0:0:0:
64,192,30601,1,0,0:0:0:0:
448,192,30695,1,0,0:0:0:0:
192,192,30789,1,0,0:0:0:0:
448,192,30883,1,0,0:0:0:0:
64,192,30883,1,0,0:0:0:0:
320,192,30976,1,0,0:0:0:0:
192,192,31070,1,0,0:0:0:0:
64,192,31164,1,0,0:0:0:0:
448,192,31258,1,0,0:0:0:0:
320,192,31351,1,0,0:0:0:0:
192,192,31445,1,0,0:0:0:0:
64,192,31539,1,0,0:0:0:0:
320,192,31633,1,0,0:0:0:0:
448,192,31633,1,0,0:0:0:0:
64,192,31820,1,0,0:0:0:0:
320,192,31914,1,0,0:0:0:0:
192,192,32008,1,0,0:0:0:0:
448,192,32101,1,0,0:0:0:0:
64,192,32195,1,0,0:0:0:0:
192,192,32289,1,0,0:0:0:0:
64,192,32383,1,0,0:0:0:0:
448,192,32383,1,0,0:0:0:0:
320,192,32476,1,0,0:0:0:0:
192,192,32570,1,0,0:0:0:0:
64,192,32664,1,0,0:0:0:0:
448,192,32758,1,0,0:0:0:0:
320,192,32851,1,0,0:0:0:0:
192,192,32945,1,0,0:0:0:0:
64,192,33039,1,0,0:0:0:0:
192,192,33133,1,0,0:0:0:0:
448,192,33133,1,0,0:0:0:0:
64,192,33320,1,0,0:0:0:0:
192,192,33414,1,0,0:0:0:0:
320,192,33508,1,0,0:0:0:0:
448,192,33508,1,0,0:0:0:0:
64,192,33601,1,0,0:0:0:0:
320,192,33695,1,0,0:0:0:0:
192,192,33789,1,0,0:0:0:0:
448,192,33883,1,0,0:0:0:0:
64,192,33883,1,0,0:0:0:0:
320,192,33976,1,0,0:0:0:0:
192,192,34070,1,0,0:0:0:0:
64,192,34164,1,0,0:0:0:0:
448,192,34258,1,0,0:0:0:0:
320,192,34351,1,0,0:0:0:0:
192,192,34445,1,0,0:0:0:0:
64,192,34539,1,0,0:0:0:0:
320,192,34633,1,0,0:0:0:0:
448,192,34633,1,0,0:0:0:0:
64,192,34726,1,0,0:0:0:0:
192,192,34820,1,0,0:0:0:0:
64,192,34914,1,0,0:0:0:0:
448,192,35008,1,0,0:0:0:0:
320,192,35008,1,0,0:0:0:0:
320,192,35195,1,0,0:0:0:0:
192,192,35195,1,0,0:0:0:0:
64,192,35195,1,0,0:0:0:0:
64,192,35383,1,0,0:0:0:0:
192,192,35383,1,0,0:0:0:0:
448,192,35383,1,0,0:0:0:0:
320,192,35570,1,0,0:0:0:0:
448,192,35664,1,0,0:0:0:0:
192,192,35758,1,0,0:0:0:0:
64,192,35758,1,0,0:0:0:0:
320,192,35851,1,0,0:0:0:0:
448,192,35945,1,0,0:0:0:0:
192,192,36039,1,0,0:0:0:0:
320,192,36133,1,0,0:0:0:0:
64,192,36133,1,0,0:0:0:0:
448,192,36133,1,0,0:0:0:0:
192,192,36320,1,0,0:0:0:0:
320,192,36414,1,0,0:0:0:0:
448,192,36508,1,0,0:0:0:0:
64,192,36508,1,0,0:0:0:0:
192,192,36601,1,0,0:0:0:0:
320,192,36695,1,0,0:0:0:0:
448,192,36789,1,0,0:0:0:0:
192,192,36883,1,0,0:0:0:0:
64,192,36883,1,0,0:0:0:0:
448,192,36976,1,0,0:0:0:0:
320,192,37070,1,0,0:0:0:0:
192,192,37164,1,0,0:0:0:0:
64,192,37258,1,0,0:0:0:0:
448,192,37258,1,0,0:0:0:0:
320,192,37351,1,0,0:0:0:0:
192,192,37445,1,0,0:0:0:0:
64,192,37539,1,0,0:0:0:0:
192,192,37633,1,0,0:0:0:0:
320,192,37633,1,0,0:0:0:0:
448,192,37633,1,0,0:0:0:0:
64,192,37820,1,0,0:0:0:0:
192,192,37914,1,0,0:0:0:0:
448,192,38008,1,0,0:0:0:0:
64,192,38008,1,0,0:0:0:0:
320,192,38101,1,0,0:0:0:0:
192,192,38195,1,0,0:0:0:0:
320,192,38289,1,0,0:0:0:0:
192,192,38383,1,0,0:0:0:0:
64,192,38383,1,0,0:0:0:0:
448,192,38476,1,0,0:0:0:0:
320,192,38570,1,0,0:0:0:0:
192,192,38664,1,0,0:0:0:0:
64,192,38758,1,0,0:0:0:0:
448,192,38758,1,0,0:0:0:0:
320,192,38851,1,0,0:0:0:0:
192,192,38945,1,0,0:0:0:0:
64,192,39039,1,0,0:0:0:0:
320,192,39133,1,0,0:0:0:0:
448,192,39133,1,0,0:0:0:0:
192,192,39133,1,0,0:0:0:0:
192,192,39320,1,0,0:0:0:0:
320,192,39414,1,0,0:0:0:0:
64,192,39508,1,0,0:0:0:0:
448,192,39508,1,0,0:0:0:0:
192,192,39601,1,0,0:0:0:0:
448,192,39695,1,0,0:0:0:0:
320,192,39789,1,0,0:0:0:0:
64,192,39883,1,0,0:0:0:0:
448,192,39883,1,0,0:0:0:0:
192,192,39976,1,0,0:0:0:0:
320,192,40070,1,0,0:0:0:0:
448,192,40164,1,0,0:0:0:0:
64,192,40258,1,0,0:0:0:0:
192,192,40258,1,0,0:0:0:0:
448,192,40351,1,0,0:0:0:0:
320,192,40445,1,0,0:0:0:0:
192,192,40539,1,0,0:0:0:0:
320,192,40633,1,0,0:0:0:0:
64,192,40633,1,0,0:0:0:0:
448,192,40633,1,0,0:0:0:0:
192,192,40726,1,0,0:0:0:0:
448,192,40820,1,0,0:0:0:0:
64,192,40914,1,0,0:0:0:0:
448,192,41008,1,0,0:0:0:0:
320,192,41008,1,0,0:0:0:0:
192,192,41195,1,0,0:0:0:0:
64,192,41195,1,0,0:0:0:0:
64,192,41383,1,0,0:0:0:0:
192,192,41383,1,0,0:0:0:0:
448,192,41383,1,0,0:0:0:0:
320,192,41476,1,0,0:0:0:0:
192,192,41570,1,0,0:0:0:0:
448,192,41664,1,0,0:0:0:0:
192,192,41758,1,0,0:0:0:0:
64,192,41758,1,0,0:0:0:0:
448,192,41851,1,0,0:0:0:0:
192,192,41945,1,0,0:0:0:0:
320,192,41945,1,0,0:0:0:0:
448,192,42039,1,0,0:0:0:0:
192,192,42133,1,0,0:0:0:0:
64,192,42133,1,0,0:0:0:0:
320,192,42133,1,0,0:0:0:0:
448,192,42226,1,0,0:0:0:0:
192,192,42320,1,0,0:0:0:0:
320,192,42414,1,0,0:0:0:0:
64,192,42508,1,0,0:0:0:0:
448,192,42508,1,0,0:0:0:0:
192,192,42508,1,0,0:0:0:0:
320,192,42601,1,0,0:0:0:0:
192,192,42695,1,0,0:0:0:0:
448,192,42789,1,0,0:0:0:0:
192,192,42883,1,0,0:0:0:0:
320,192,42883,1,0,0:0:0:0:
64,192,42883,1,0,0:0:0:0:
448,192,42976,1,0,0:0:0:0:
64,192,43070,1,0,0:0:0:0:
320,192,43164,1,0,0:0:0:0:
192,192,43258,1,0,0:0:0:0:
448,192,43258,1,0,0:0:0:0:
64,192,43258,1,0,0:0:0:0:
320,192,43351,1,0,0:0:0:0:
192,192,43445,1,0,0:0:0:0:
64,192,43539,1,0,0:0:0:0:
448,192,43633,1,0,0:0:0:0:
192,192,43633,1,0,0:0:0:0:
320,192,43633,1,0,0:0:0:0:
64,192,43726,1,0,0:0:0:0:
320,192,43820,1,0,0:0:0:0:
448,192,43914,1,0,0:0:0:0:
320,192,44008,1,0,0:0:0:0:
192,192,44008,1,0,0:0:0:0:
64,192,44008,1,0,0:0:0:0:
448,192,44101,1,0,0:0:0:0:
64,192,44195,1,0,0:0:0:0:
192,192,44289,1,0,0:0:0:0:
448,192,44383,1,0,0:0:0:0:
320,192,44383,1,0,0:0:0:0:
64,192,44383,1,0,0:0:0:0:
192,192,44476,1,0,0:0:0:0:
320,192,44570,1,0,0:0:0:0:
448,192,44664,1,0,0:0:0:0:
64,192,44758,1,0,0:0:0:0:
320,192,44758,1,0,0:0:0:0:
192,192,44758,1,0,0:0:0:0:
448,192,44851,1,0,0:0:0:0:
320,192,44945,1,0,0:0:0:0:
192,192,45039,1,0,0:0:0:0:
64,192,45133,1,0,0:0:0:0:
448,192,45133,1,0,0:0:0:0:
320,192,45133,1,0,0:0:0:0:
448,192,45320,1,0,0:0:0:0:
320,192,45414,1,0,0:0:0:0:
192,192,45508,1,0,0:0:0:0:
64,192,45508,1,0,0:0:0:0:
448,192,45508,1,0,0:0:0:0:
320,192,45601,1,0,0:0:0:0:
64,192,45695,1,0,0:0:0:0:
192,192,45789,1,0,0:0:0:0:
320,192,45883,1,0,0:0:0:0:
64,192,45883,1,0,0:0:0:0:
448,192,45883,1,0,0:0:0:0:
192,192,45976,1,0,0:0:0:0:
448,192,46070,1,0,0:0:0:0:
64,192,46164,1,0,0:0:0:0:
320,192,46258,1,0,0:0:0:0:
192,192,46258,1,0,0:0:0:0:
448,192,46258,1,0,0:0:0:0:
64,192,46351,1,0,0:0:0:0:
448,192,46445,1,0,0:0:0:0:
192,192,46539,1,0,0:0:0:0:
64,192,46633,1,0,0:0:0:0:
320,192,46633,1,0,0:0:0:0:
448,192,46633,1,0,0:0:0:0:
192,192,46726,1,0,0:0:0:0:
320,192,46820,1,0,0:0:0:0:
448,192,46914,1,0,0:0:0:0:
192,192,47008,1,0,0:0:0:0:
320,192,47008,1,0,0:0:0:0:
64,192,47008,1,0,0:0:0:0:
448,192,47101,1,0,0:0:0:0:
192,192,47195,1,0,0:0:0:0:
320,192,47289,1,0,0:0:0:0:
448,192,47383,1,0,0:0:0:0:
192,192,47383,1,0,0:0:0:0:
64,192,47383,1,0,0:0:0:0:
320,192,47476,1,0,0:0:0:0:
192,192,47570,1,0,0:0:0:0:
64,192,47570,1,0,0:0:0:0:
448,192,47664,1,0,0:0:0:0:
320,192,47758,1,0,0:0:0:0:
192,192,47758,1,0,0:0:0:0:
64,192,47758,1,0,0:0:0:0:
192,192,47945,1,0,0:0:0:0:
320,192,47945,1,0,0:0:0:0:
320,192,48133,1,0,0:0:0:0:
192,192,48133,1,0,0:0:0:0:
64,192,48133,1,0,0:0:0:0:
448,192,48133,1,0,0:0:0:0:
448,192,48320,1,0,0:0:0:0:
320,192,48414,1,0,0:0:0:0:
64,192,48508,1,0,0:0:0:0:
448,192,48508,1,0,0:0:0:0:
192,192,48508,1,0,0:0:0:0:
320,192,48601,1,0,0:0:0:0:
192,192,48695,1,0,0:0:0:0:
64,192,48789,1,0,0:0:0:0:
192,192,48883,1,0,0:0:0:0:
320,192,48883,1,0,0:0:0:0:
448,192,48883,1,0,0:0:0:0:
64,192,48976,1,0,0:0:0:0:
448,192,49070,1,0,0:0:0:0:
320,192,49164,1,0,0:0:0:0:
64,192,49258,1,0,0:0:0:0:
192,192,49258,1,0,0:0:0:0:
448,192,49258,1,0,0:0:0:0:
320,192,49351,1,0,0:0:0:0:
64,192,49445,1,0,0:0:0:0:
192,192,49539,1,0,0:0:0:0:
320,192,49633,1,0,0:0:0:0:
64,192,49633,1,0,0:0:0:0:
448,192,49633,1,0,0:0:0:0:
192,192,49726,1,0,0:0:0:0:
448,192,49820,1,0,0:0:0:0:
192,192,49914,1,0,0:0:0:0:
64,192,50008,1,0,0:0:0:0:
448,192,50008,1,0,0:0:0:0:
320,192,50101,1,0,0:0:0:0:
64,192,50195,1,0,0:0:0:0:
320,192,50289,1,0,0:0:0:0:
64,192,50383,1,0,0:0:0:0:
448,192,50383,1,0,0:0:0:0:
192,192,50383,1,0,0:0:0:0:
320,192,50476,1,0,0:0:0:0:
192,192,50570,1,0,0:0:0:0:
448,192,50664,1,0,0:0:0:0:
192,192,50758,1,0,0:0:0:0:
64,192,50758,1,0,0:0:0:0:
320,192,50758,1,0,0:0:0:0:
448,192,50851,1,0,0:0:0:0:
64,192,50945,1,0,0:0:0:0:
192,192,51039,1,0,0:0:0:0:
320,192,51133,1,0,0:0:0:0:
64,192,51133,1,0,0:0:0:0:
448,192,51133,1,0,0:0:0:0:
64,192,51320,1,0,0:0:0:0:
192,192,51383,1,0,0:0:0:0:
320,192,51445,1,0,0:0:0:0:
448,192,51508,1,0,0:0:0:0:
64,192,51508,1,0,0:0:0:0:
192,192,51508,1,0,0:0:0:0:
320,192,51601,1,0,0:0:0:0:
64,192,51695,1,0,0:0:0:0:
192,192,51789,1,0,0:0:0:0:
320,192,51883,1,0,0:0:0:0:
448,192,51883,1,0,0:0:0:0:
64,192,51883,1,0,0:0:0:0:
192,192,51976,1,0,0:0:0:0:
448,192,52070,1,0,0:0:0:0:
320,192,52164,1,0,0:0:0:0:
448,192,52258,1,0,0:0:0:0:
192,192,52258,1,0,0:0:0:0:
64,192,52258,1,0,0:0:0:0:
320,192,52351,1,0,0:0:0:0:
192,192,52445,1,0,0:0:0:0:
64,192,52539,1,0,0:0:0:0:
320,192,52633,1,0,0:0:0:0:
448,192,52633,1,0,0:0:0:0:
192,192,52726,1,0,0:0:0:0:
64,192,52820,1,0,0:0:0:0:
448,192,52914,1,0,0:0:0:0:
64,192,53008,1,0,0:0:0:0:
320,192,53008,1,0,0:0:0:0:
192,192,53008,1,0,0:0:0:0:
448,192,53101,1,0,0:0:0:0:
64,192,53195,1,0,0:0:0:0:
192,192,53289,1,0,0:0:0:0:
64,192,53383,1,0,0:0:0:0:
320,192,53383,1,0,0:0:0:0:
448,192,53383,1,0,0:0:0:0:
448,192,53570,1,0,0:0:0:0:
64,192,53570,1,0,0:0:0:0:
320,192,53664,1,0,0:0:0:0:
192,192,53758,1,0,0:0:0:0:
64,192,53758,1,0,0:0:0:0:
448,192,53758,1,0,0:0:0:0:
64,192,53945,1,0,0:0:0:0:
320,192,53945,1,0,0:0:0:0:
448,192,53945,1,0,0:0:0:0:
192,192,54133,1,0,0:0:0:0:
64,192,54133,1,0,0:0:0:0:
320,192,54133,1,0,0:0:0:0:
448,192,54133,1,0,0:0:0:0:
448,192,54226,1,0,0:0:0:0:
192,192,54320,1,0,0:0:0:0:
64,192,54320,1,0,0:0:0:0:
320,192,54414,1,0,0:0:0:0:
64,192,54508,1,0,0:0:0:0:
320,192,54508,1,0,0:0:0:0:
448,192,54508,1,0,0:0:0:0:
192,192,54508,1,0,0:0:0:0:
192,192,54695,1,0,0:0:0:0:
64,192,54695,1,0,0:0:0:0:
448,192,54695,1,0,0:0:0:0:
448,192,54883,1,0,0:0:0:0:
192,192,54883,1,0,0:0:0:0:
320,192,54883,1,0,0:0:0:0:
64,192,54883,1,0,0:0:0:0:
64,192,54976,1,0,0:0:0:0:
320,192,55070,1,0,0:0:0:0:
448,192,55070,1,0,0:0:0:0:
192,192,55164,1,0,0:0:0:0:
64,192,55258,1,0,0:0:0:0:
448,192,55258,1,0,0:0:0:0:
192,192,55258,1,0,0:0:0:0:
320,192,55258,1,0,0:0:0:0:
320,192,55445,1,0,0:0:0:0:
448,192,55445,1,0,0:0:0:0:
64,192,55445,1,0,0:0:0:0:
64,192,55633,1,0,0:0:0:0:
448,192,55633,1,0,0:0:0:0:
320,192,55633,1,0,0:0:0:0:
192,192,55633,1,0,0:0:0:0:
320,192,55726,1,0,0:0:0:0:
64,192,55820,1,0,0:0:0:0:
448,192,55820,1,0,0:0:0:0:
192,192,55914,1,0,0:0:0:0:
64,192,56008,1,0,0:0:0:0:
192,192,56008,1,0,0:0:0:0:
320,192,56008,1,0,0:0:0:0:
448,192,56008,1,0,0:0:0:0:
64,192,56195,1,0,0:0:0:0:
320,192,56195,1,0,0:0:0:0:
448,192,56195,1,0,0:0:0:0:
448,192,56383,1,0,0:0:0:0:
64,192,56383,1,0,0:0:0:0:
192,192,56383,1,0,0:0:0:0:
320,192,56383,1,0,0:0:0:0:
192,192,56476,1,0,0:0:0:0:
448,192,56570,1,0,0:0:0:0:
64,192,56570,1,0,0:0:0:0:
320,192,56664,1,0,0:0:0:0:
320,192,56758,1,0,0:0:0:0:
448,192,56758,1,0,0:0:0:0:
64,192,56758,1,0,0:0:0:0:
192,192,56758,1,0,0:0:0:0:
320,192,56945,1,0,0:0:0:0:
192,192,56945,1,0,0:0:0:0:
64,192,56945,1,0,0:0:0:0:
192,192,57133,1,0,0:0:0:0:
64,192,57133,1,0,0:0:0:0:
320,192,57133,1,0,0:0:0:0:
448,192,57133,1,0,0:0:0:0:
320,192,57320,1,0,0:0:0:0:
448,192,57320,1,0,0:0:0:0:
192,192,57320,1,0,0:0:0:0:
64,192,57508,1,0,0:0:0:0:
192,192,57508,1,0,0:0:0:0:
448,192,57508,1,0,0:0:0:0:
320,192,57508,1,0,0:0:0:0:
320,192,57695,1,0,0:0:0:0:
64,192,57695,1,0,0:0:0:0:
192,192,57695,1,0,0:0:0:0:
64,192,57883,1,0,0:0:0:0:
320,192,57883,1,0,0:0:0:0:
448,192,57883,1,0,0:0:0:0:
192,192,57883,1,0,0:0:0:0:
448,192,57976,1,0,0:0:0:0:
320,192,57976,1,0,0:0:0:0:
64,192,58070,1,0,0:0:0:0:
192,192,58070,1,0,0:0:0:0:
320,192,58164,1,0,0:0:0:0:
64,192,58258,1,0,0:0:0:0:
448,192,58258,1,0,0:0:0:0:
192,192,58258,1,0,0:0:0:0:
192,192,58351,1,0,0:0:0:0:
64,192,58351,1,0,0:0:0:0:
320,192,58445,1,0,0:0:0:0:
448,192,58445,1,0,0:0:0:0:
192,192,58539,1,0,0:0:0:0:
320,192,58633,1,0,0:0:0:0:
448,192,58633,1,0,0:0:0:0:
64,192,58633,1,0,0:0:0:0:
448,192,58820,1,0,0:0:0:0:
320,192,59008,1,0,0:0:0:0:
448,192,59008,1,0,0:0:0:0:
192,192,59008,1,0,0:0:0:0:
320,192,59195,1,0,0:0:0:0:
320,192,59383,1,0,0:0:0:0:
192,192,59383,1,0,0:0:0:0:
64,192,59383,1,0,0:0:0:0:
192,192,59570,1,0,0:0:0:0:
192,192,59758,1,0,0:0:0:0:
64,192,59758,1,0,0:0:0:0:
320,192,59820,1,0,0:0:0:0:
448,192,59883,1,0,0:0:0:0:
64,192,59945,1,0,0:0:0:0:
192,192,60008,1,0,0:0:0:0:
320,192,60070,1,0,0:0:0:0:
448,192,60133,1,0,0:0:0:0:
192,192,60133,1,0,0:0:0:0:
64,192,60133,1,0,0:0:0:0:
320,192,60320,1,0,0:0:0:0:
192,192,60320,1,0,0:0:0:0:
64,192,60320,1,0,0:0:0:0:
192,192,60508,1,0,0:0:0:0:
320,192,60508,1,0,0:0:0:0:
448,192,60508,1,0,0:0:0:0:
320,192,60695,1,0,0:0:0:0:
192,192,60695,1,0,0:0:0:0:
64,192,60695,1,0,0:0:0:0:
192,192,60883,1,0,0:0:0:0:
64,192,60883,1,0,0:0:0:0:
320,192,60883,1,0,0:0:0:0:
448,192,60883,1,0,0:0:0:0:
320,192,61070,1,0,0:0:0:0:
448,192,61164,1,0,0:0:0:0:
192,192,61258,1,0,0:0:0:0:
320,192,61351,1,0,0:0:0:0:
64,192,61445,1,0,0:0:0:0:
192,192,61539,1,0,0:0:0:0:
320,192,61633,1,0,0:0:0:0:
64,192,61726,1,0,0:0:0:0:
320,192,61820,1,0,0:0:0:0:
448,192,61820,1,0,0:0:0:0:
192,192,61914,1,0,0:0:0:0:
448,192,62008,1,0,0:0:0:0:
64,192,62008,1,0,0:0:0:0:
320,192,62101,1,0,0:0:0:0:
192,192,62195,1,0,0:0:0:0:
320,192,62289,1,0,0:0:0:0:
448,192,62383,1,0,0:0:0:0:
320,192,62383,1,0,0:0:0:0:
64,192,62383,1,0,0:0:0:0:
192,192,62383,1,0,0:0:0:0:
64,192,62570,1,0,0:0:0:0:
192,192,62570,1,0,0:0:0:0:
192,192,62664,1,0,0:0:0:0:
320,192,62664,1,0,0:0:0:0:
320,192,62758,1,0,0:0:0:0:
448,192,62758,1,0,0:0:0:0:
64,192,62758,1,0,0:0:0:0:
64,192,62945,1,0,0:0:0:0:
192,192,62945,1,0,0:0:0:0:
448,192,62945,1,0,0:0:0:0:
320,192,62945,1,0,0:0:0:0:
64,192,63133,1,0,0:0:0:0:
192,192,63133,1,0,0:0:0:0:
448,192,63133,1,0,0:0:0:0:
192,192,63320,1,0,0:0:0:0:
64,192,63320,1,0,0:0:0:0:
320,192,63320,1,0,0:0:0:0:
192,192,63508,1,0,0:0:0:0:
448,192,63508,1,0,0:0:0:0:
320,192,63508,1,0,0:0:0:0:
448,192,63695,1,0,0:0:0:0:
64,192,63695,1,0,0:0:0:0:
320,192,63695,1,0,0:0:0:0:
192,192,63883,1,0,0:0:0:0:
64,192,63883,1,0,0:0:0:0:
320,192,63945,1,0,0:0:0:0:
448,192,64008,1,0,0:0:0:0:
320,192,64070,1,0,0:0:0:0:
192,192,64133,1,0,0:0:0:0:
64,192,64195,1,0,0:0:0:0:
192,192,64258,1,0,0:0:0:0:
320,192,64320,1,0,0:0:0:0:
448,192,64383,1,0,0:0:0:0:
320,192,64445,1,0,0:0:0:0:
192,192,64508,1,0,0:0:0:0:
320,192,64570,1,0,0:0:0:0:
64,192,64633,1,0,0:0:0:0:
192,192,64695,1,0,0:0:0:0:
320,192,64758,1,0,0:0:0:0:
64,192,64820,1,0,0:0:0:0:
448,192,64820,1,0,0:0:0:0:
192,192,64883,1,0,0:0:0:0:
320,192,64945,1,0,0:0:0:0:
448,192,65008,1,0,0:0:0:0:
320,192,65070,1,0,0:0:0:0:
192,192,65133,1,0,0:0:0:0:
64,192,65195,1,0,0:0:0:0:
448,192,65195,1,0,0:0:0:0:
320,192,65258,1,0,0:0:0:0:
192,192,65320,1,0,0:0:0:0:
64,192,65383,1,0,0:0:0:0:
320,192,65383,1,0,0:0:0:0:
448,192,65383,1,0,0:0:0:0:
320,192,65570,1,0,0:0:0:0:
448,192,65570,1,0,0:0:0:0:
320,192,65664,1,0,0:0:0:0:
192,192,65664,1,0,0:0:0:0:
192,192,65758,1,0,0:0:0:0:
64,192,65758,1,0,0:0:0:0:
448,192,65758,1,0,0:0:0:0:
320,192,65945,1,0,0:0:0:0:
192,192,65945,1,0,0:0:0:0:
64,192,65945,1,0,0:0:0:0:
448,192,65945,1,0,0:0:0:0:
64,192,66133,1,0,0:0:0:0:
192,192,66133,1,0,0:0:0:0:
448,192,66133,1,0,0:0:0:0:
192,192,66320,1,0,0:0:0:0:
64,192,66320,1,0,0:0:0:0:
192,192,66414,1,0,0:0:0:0:
320,192,66414,1,0,0:0:0:0:
448,192,66414,1,0,0:0:0:0:
320,192,66601,1,0,0:0:0:0:
448,192,66601,1,0,0:0:0:0:
320,192,66695,1,0,0:0:0:0:
192,192,66695,1,0,0:0:0:0:
64,192,66695,1,0,0:0:0:0:
320,192,66883,1,0,0:0:0:0:
448,192,66883,1,0,0:0:0:0:
192,192,66883,1,0,0:0:0:0:
64,192,66883,1,0,0:0:0:0:
192,192,67070,1,0,0:0:0:0:
448,192,67070,1,0,0:0:0:0:
320,192,67164,1,0,0:0:0:0:
192,192,67164,1,0,0:0:0:0:
64,192,67164,1,0,0:0:0:0:
320,192,67351,1,0,0:0:0:0:
64,192,67351,1,0,0:0:0:0:
192,192,67445,1,0,0:0:0:0:
320,192,67445,1,0,0:0:0:0:
448,192,67445,1,0,0:0:0:0:
64,192,67445,1,0,0:0:0:0:
320,192,67726,1,0,0:0:0:0:
448,192,67726,1,0,0:0:0:0:
64,192,67726,1,0,0:0:0:0:
320,192,67914,1,0,0:0:0:0:
192,192,67914,1,0,0:0:0:0:
64,192,68008,1,0,0:0:0:0:
192,192,68008,1,0,0:0:0:0:
448,192,68008,1,0,0:0:0:0:
320,192,68101,1,0,0:0:0:0:
192,192,68195,1,0,0:0:0:0:
64,192,68195,1,0,0:0:0:0:
320,192,68289,1,0,0:0:0:0:
448,192,68383,1,0,0:0:0:0:
64,192,68383,1,0,0:0:0:0:
320,192,68383,1,0,0:0:0:0:
192,192,68570,1,0,0:0:0:0:
64,192,68570,1,0,0:0:0:0:
192,192,68664,1,0,0:0:0:0:
320,192,68664,1,0,0:0:0:0:
320,192,68758,1,0,0:0:0:0:
64,192,68758,1,0,0:0:0:0:
448,192,68758,1,0,0:0:0:0:
192,192,68945,1,0,0:0:0:0:
64,192,68945,1,0,0:0:0:0:
320,192,68945,1,0,0:0:0:0:
448,192,68945,1,0,0:0:0:0:
320,192,69133,1,0,0:0:0:0:
448,192,69133,1,0,0:0:0:0:
64,192,69133,1,0,0:0:0:0:
448,192,69320,1,0,0:0:0:0:
192,192,69320,1,0,0:0:0:0:
64,192,69320,1,0,0:0:0:0:
448,192,69508,1,0,0:0:0:0:
320,192,69508,1,0,0:0:0:0:
192,192,69508,1,0,0:0:0:0:
64,192,69695,1,0,0:0:0:0:
448,192,69695,1,0,0:0:0:0:
192,192,69758,1,0,0:0:0:0:
320,192,69820,1,0,0:0:0:0:
64,192,69883,1,0,0:0:0:0:
448,192,69883,1,0,0:0:0:0:
192,192,69883,1,0,0:0:0:0:
320,192,69976,1,0,0:0:0:0:
448,192,69976,1,0,0:0:0:0:
64,192,70070,1,0,0:0:0:0:
192,192,70070,1,0,0:0:0:0:
192,192,70164,1,0,0:0:0:0:
320,192,70164,1,0,0:0:0:0:
64,192,70258,1,0,0:0:0:0:
320,192,70258,1,0,0:0:0:0:
448,192,70258,1,0,0:0:0:0:
192,192,70351,1,0,0:0:0:0:
64,192,70351,1,0,0:0:0:0:
320,192,70445,1,0,0:0:0:0:
448,192,70445,1,0,0:0:0:0:
192,192,70539,1,0,0:0:0:0:
320,192,70539,1,0,0:0:0:0:
64,192,70633,1,0,0:0:0:0:
448,192,70633,1,0,0:0:0:0:
320,192,70695,1,0,0:0:0:0:
192,192,70758,1,0,0:0:0:0:
64,192,70820,1,0,0:0:0:0:
192,192,70883,1,0,0:0:0:0:
320,192,70945,1,0,0:0:0:0:
448,192,71008,1,0,0:0:0:0:
320,192,71070,1,0,0:0:0:0:
192,192,71133,1,0,0:0:0:0:
64,192,71195,1,0,0:0:0:0:
448,192,71195,1,0,0:0:0:0:
320,192,71258,1,0,0:0:0:0:
192,192,71320,1,0,0:0:0:0:
64,192,71383,1,0,0:0:0:0:
320,192,71383,1,0,0:0:0:0:
448,192,71383,1,0,0:0:0:0:
192,192,71570,1,0,0:0:0:0:
64,192,71570,1,0,0:0:0:0:
320,192,71570,1,0,0:0:0:0:
64,192,71758,1,0,0:0:0:0:
192,192,71758,1,0,0:0:0:0:
320,192,71758,1,0,0:0:0:0:
448,192,71758,1,0,0:0:0:0:
64,192,72133,1,0,0:0:0:0:
320,192,72133,1,0,0:0:0:0:
448,192,72133,1,0,0:0:0:0:
64,192,72320,1,0,0:0:0:0:
192,192,72320,1,0,0:0:0:0:
448,192,72320,1,0,0:0:0:0:
448,192,72508,1,0,0:0:0:0:
320,192,72508,1,0,0:0:0:0:
192,192,72508,1,0,0:0:0:0:
192,192,72695,1,0,0:0:0:0:
320,192,72695,1,0,0:0:0:0:
64,192,72695,1,0,0:0:0:0:
320,192,72883,1,0,0:0:0:0:
448,192,72883,1,0,0:0:0:0:
192,192,72883,1,0,0:0:0:0:
64,192,72883,1,0,0:0:0:0:
192,192,73070,1,0,0:0:0:0:
64,192,73164,1,0,0:0:0:0:
320,192,73258,1,0,0:0:0:0:
192,192,73351,1,0,0:0:0:0:
448,192,73445,1,0,0:0:0:0:
320,192,73539,1,0,0:0:0:0:
192,192,73633,1,0,0:0:0:0:
448,192,73726,1,0,0:0:0:0:
192,192,73820,1,0,0:0:0:0:
64,192,73820,1,0,0:0:0:0:
320,192,73914,1,0,0:0:0:0:
64,192,74008,1,0,0:0:0:0:
448,192,74008,1,0,0:0:0:0:
192,192,74101,1,0,0:0:0:0:
320,192,74195,1,0,0:0:0:0:
192,192,74289,1,0,0:0:0:0:
64,192,74383,1,0,0:0:0:0:
192,192,74383,1,0,0:0:0:0:
448,192,74383,1,0,0:0:0:0:
320,192,74383,1,0,0:0:0:0:
448,192,74570,1,0,0:0:0:0:
320,192,74570,1,0,0:0:0:0:
320,192,74664,1,0,0:0:0:0:
192,192,74664,1,0,0:0:0:0:
192,192,74758,1,0,0:0:0:0:
64,192,74758,1,0,0:0:0:0:
448,192,74758,1,0,0:0:0:0:
320,192,74945,1,0,0:0:0:0:
448,192,74945,1,0,0:0:0:0:
192,192,74945,1,0,0:0:0:0:
64,192,74945,1,0,0:0:0:0:
448,192,75133,1,0,0:0:0:0:
320,192,75133,1,0,0:0:0:0:
64,192,75133,1,0,0:0:0:0:
448,192,75320,1,0,0:0:0:0:
192,192,75320,1,0,0:0:0:0:
320,192,75320,1,0,0:0:0:0:
192,192,75508,1,0,0:0:0:0:
320,192,75508,1,0,0:0:0:0:
64,192,75508,1,0,0:0:0:0:
448,192,75695,1,0,0:0:0:0:
192,192,75695,1,0,0:0:0:0:
64,192,75695,1,0,0:0:0:0:
320,192,75883,1,0,0:0:0:0:
448,192,75883,1,0,0:0:0:0:
192,192,75945,1,0,0:0:0:0:
64,192,76008,1,0,0:0:0:0:
192,192,76070,1,0,0:0:0:0:
320,192,76133,1,0,0:0:0:0:
448,192,76195,1,0,0:0:0:0:
320,192,76258,1,0,0:0:0:0:
192,192,76320,1,0,0:0:0:0:
64,192,76383,1,0,0:0:0:0:
192,192,76445,1,0,0:0:0:0:
320,192,76508,1,0,0:0:0:0:
192,192,76570,1,0,0:0:0:0:
448,192,76633,1,0,0:0:0:0:
320,192,76695,1,0,0:0:0:0:
192,192,76758,1,0,0:0:0:0:
448,192,76820,1,0,0:0:0:0:
64,192,76820,1,0,0:0:0:0:
320,192,76883,1,0,0:0:0:0:
192,192,76945,1,0,0:0:0:0:
64,192,77008,1,0,0:0:0:0:
192,192,77070,1,0,0:0:0:0:
320,192,77133,1,0,0:0:0:0:
448,192,77195,1,0,0:0:0:0:
64,192,77195,1,0,0:0:0:0:
192,192,77258,1,0,0:0:0:0:
320,192,77320,1,0,0:0:0:0:
448,192,77383,1,0,0:0:0:0:
192,192,77383,1,0,0:0:0:0:
64,192,77383,1,0,0:0:0:0:
192,192,77570,1,0,0:0:0:0:
64,192,77570,1,0,0:0:0:0:
192,192,77664,1,0,0:0:0:0:
320,192,77664,1,0,0:0:0:0:
320,192,77758,1,0,0:0:0:0:
448,192,77758,1,0,0:0:0:0:
64,192,77758,1,0,0:0:0:0:
192,192,77945,1,0,0:0:0:0:
320,192,77945,1,0,0:0:0:0:
448,192,77945,1,0,0:0:0:0:
64,192,77945,1,0,0:0:0:0:
448,192,78133,1,0,0:0:0:0:
320,192,78133,1,0,0:0:0:0:
64,192,78133,1,0,0:0:0:0:
320,192,78320,1,0,0:0:0:0:
448,192,78320,1,0,0:0:0:0:
64,192,78414,1,0,0:0:0:0:
320,192,78414,1,0,0:0:0:0:
192,192,78414,1,0,0:0:0:0:
192,192,78601,1,0,0:0:0:0:
64,192,78601,1,0,0:0:0:0:
192,192,78695,1,0,0:0:0:0:
320,192,78695,1,0,0:0:0:0:
448,192,78695,1,0,0:0:0:0:
320,192,78883,1,0,0:0:0:0:
448,192,78883,1,0,0:0:0:0:
192,192,78883,1,0,0:0:0:0:
64,192,78883,1,0,0:0:0:0:
320,192,79070,1,0,0:0:0:0:
64,192,79070,1,0,0:0:0:0:
320,192,79164,1,0,0:0:0:0:
448,192,79164,1,0,0:0:0:0:
192,192,79164,1,0,0:0:0:0:
192,192,79351,1,0,0:0:0:0:
448,192,79351,1,0,0:0:0:0:
320,192,79445,1,0,0:0:0:0:
192,192,79445,1,0,0:0:0:0:
64,192,79445,1,0,0:0:0:0:
448,192,79445,1,0,0:0:0:0:
192,192,79726,1,0,0:0:0:0:
64,192,79726,1,0,0:0:0:0:
448,192,79726,1,0,0:0:0:0:
192,192,79914,1,0,0:0:0:0:
320,192,79914,1,0,0:0:0:0:
448,192,80008,1,0,0:0:0:0:
320,192,80008,1,0,0:0:0:0:
64,192,80008,1,0,0:0:0:0:
192,192,80101,1,0,0:0:0:0:
320,192,80195,1,0,0:0:0:0:
448,192,80195,1,0,0:0:0:0:
192,192,80289,1,0,0:0:0:0:
64,192,80383,1,0,0:0:0:0:
448,192,80383,1,0,0:0:0:0:
192,192,80383,1,0,0:0:0:0:
320,192,80570,1,0,0:0:0:0:
448,192,80570,1,0,0:0:0:0:
320,192,80664,1,0,0:0:0:0:
192,192,80664,1,0,0:0:0:0:
64,192,80758,1,0,0:0:0:0:
192,192,80758,1,0,0:0:0:0:
448,192,80758,1,0,0:0:0:0:
320,192,80945,1,0,0:0:0:0:
448,192,80945,1,0,0:0:0:0:
192,192,80945,1,0,0:0:0:0:
64,192,80945,1,0,0:0:0:0:
192,192,81133,1,0,0:0:0:0:
64,192,81133,1,0,0:0:0:0:
448,192,81133,1,0,0:0:0:0:
64,192,81320,1,0,0:0:0:0:
320,192,81320,1,0,0:0:0:0:
448,192,81320,1,0,0:0:0:0:
320,192,81508,1,0,0:0:0:0:
64,192,81508,1,0,0:0:0:0:
192,192,81508,1,0,0:0:0:0:
448,192,81695,1,0,0:0:0:0:
64,192,81695,1,0,0:0:0:0:
320,192,81758,1,0,0:0:0:0:
192,192,81820,1,0,0:0:0:0:
448,192,81883,1,0,0:0:0:0:
64,192,81883,1,0,0:0:0:0:
320,192,81883,1,0,0:0:0:0:
192,192,81976,1,0,0:0:0:0:
64,192,81976,1,0,0:0:0:0:
448,192,82070,1,0,0:0:0:0:
320,192,82070,1,0,0:0:0:0:
320,192,82164,1,0,0:0:0:0:
192,192,82164,1,0,0:0:0:0:
448,192,82258,1,0,0:0:0:0:
192,192,82258,1,0,0:0:0:0:
64,192,82258,1,0,0:0:0:0:
320,192,82351,1,0,0:0:0:0:
448,192,82351,1,0,0:0:0:0:
192,192,82445,1,0,0:0:0:0:
64,192,82445,1,0,0:0:0:0:
320,192,82539,1,0,0:0:0:0:
192,192,82539,1,0,0:0:0:0:
448,192,82633,1,0,0:0:0:0:
64,192,82633,1,0,0:0:0:0:
192,192,82695,1,0,0:0:0:0:
320,192,82758,1,0,0:0:0:0:
448,192,82820,1,0,0:0:0:0:
320,192,82883,1,0,0:0:0:0:
192,192,82945,1,0,0:0:0:0:
64,192,83008,1,0,0:0:0:0:
192,192,83070,1,0,0:0:0:0:
320,192,83133,1,0,0:0:0:0:
448,192,83195,1,0,0:0:0:0:
64,192,83195,1,0,0:0:0:0:
192,192,83258,1,0,0:0:0:0:
320,192,83320,1,0,0:0:0:0:
448,192,83383,1,0,0:0:0:0:
192,192,83383,1,0,0:0:0:0:
64,192,83383,1,0,0:0:0:0:
320,192,83570,1,0,0:0:0:0:
448,192,83758,1,0,0:0:0:0:
320,192,83758,1,0,0:0:0:0:
192,192,83758,1,0,0:0:0:0:
64,192,83758,1,0,0:0:0:0:
192,192,83945,1,0,0:0:0:0:
64,192,84133,1,0,0:0:0:0:
320,192,84133,1,0,0:0:0:0:
448,192,84133,1,0,0:0:0:0:
192,192,84226,1,0,0:0:0:0:
64,192,84320,1,0,0:0:0:0:
448,192,84320,1,0,0:0:0:0:
320,192,84414,1,0,0:0:0:0:
192,192,84508,1,0,0:0:0:0:
448,192,84508,1,0,0:0:0:0:
64,192,84508,1,0,0:0:0:0:
64,192,84695,1,0,0:0:0:0:
192,192,84695,1,0,0:0:0:0:
448,192,84695,1,0,0:0:0:0:
320,192,84789,1,0,0:0:0:0:
448,192,84883,1,0,0:0:0:0:
64,192,84883,1,0,0:0:0:0:
192,192,84976,1,0,0:0:0:0:
320,192,85070,1,0,0:0:0:0:
64,192,85070,1,0,0:0:0:0:
448,192,85070,1,0,0:0:0:0:
448,192,85258,1,0,0:0:0:0:
192,192,85258,1,0,0:0:0:0:
64,192,85258,1,0,0:0:0:0:
320,192,85351,1,0,0:0:0:0:
192,192,85445,1,0,0:0:0:0:
64,192,85445,1,0,0:0:0:0:
320,192,85539,1,0,0:0:0:0:
192,192,85633,1,0,0:0:0:0:
448,192,85633,1,0,0:0:0:0:
64,192,85633,1,0,0:0:0:0:
320,192,85820,1,0,0:0:0:0:
448,192,85820,1,0,0:0:0:0:
64,192,85820,1,0,0:0:0:0:
192,192,85914,1,0,0:0:0:0:
448,192,86008,1,0,0:0:0:0:
320,192,86008,1,0,0:0:0:0:
192,192,86101,1,0,0:0:0:0:
64,192,86195,1,0,0:0:0:0:
448,192,86195,1,0,0:0:0:0:
320,192,86242,1,0,0:0:0:0:
64,192,86383,1,0,0:0:0:0:
192,192,86383,1,0,0:0:0:0:
448,192,86429,1,0,0:0:0:0:
320,192,86570,1,0,0:0:0:0:
192,192,86570,1,0,0:0:0:0:
64,192,86758,1,0,0:0:0:0:
320,192,86758,1,0,0:0:0:0:
448,192,86758,1,0,0:0:0:0:
192,192,86851,1,0,0:0:0:0:
64,192,86945,1,0,0:0:0:0:
320,192,87039,1,0,0:0:0:0:
192,192,87133,1,0,0:0:0:0:
64,192,87133,1,0,0:0:0:0:
448,192,87133,1,0,0:0:0:0:
320,192,87226,1,0,0:0:0:0:
64,192,87320,1,0,0:0:0:0:
448,192,87320,1,0,0:0:0:0:
192,192,87414,1,0,0:0:0:0:
320,192,87508,1,0,0:0:0:0:
448,192,87508,1,0,0:0:0:0:
64,192,87508,1,0,0:0:0:0:
448,192,87695,1,0,0:0:0:0:
320,192,87695,1,0,0:0:0:0:
64,192,87695,1,0,0:0:0:0:
192,192,87789,1,0,0:0:0:0:
448,192,87883,1,0,0:0:0:0:
64,192,87883,1,0,0:0:0:0:
320,192,87976,1,0,0:0:0:0:
192,192,88070,1,0,0:0:0:0:
448,192,88070,1,0,0:0:0:0:
64,192,88070,1,0,0:0:0:0:
64,192,88258,1,0,0:0:0:0:
192,192,88258,1,0,0:0:0:0:
448,192,88351,1,0,0:0:0:0:
192,192,88445,1,0,0:0:0:0:
320,192,88445,1,0,0:0:0:0:
448,192,88539,1,0,0:0:0:0:
320,192,88633,1,0,0:0:0:0:
192,192,88633,1,0,0:0:0:0:
64,192,88633,1,0,0:0:0:0:
64,192,88820,1,0,0:0:0:0:
448,192,88820,1,0,0:0:0:0:
192,192,88820,1,0,0:0:0:0:
320,192,88914,1,0,0:0:0:0:
192,192,89008,1,0,0:0:0:0:
64,192,89101,1,0,0:0:0:0:
192,192,89195,1,0,0:0:0:0:
320,192,89289,1,0,0:0:0:0:
448,192,89383,1,0,0:0:0:0:
192,192,89383,1,0,0:0:0:0:
64,192,89383,1,0,0:0:0:0:
320,192,89445,1,0,0:0:0:0:
192,192,89508,1,0,0:0:0:0:
64,192,89570,1,0,0:0:0:0:
192,192,89633,1,0,0:0:0:0:
320,192,89695,1,0,0:0:0:0:
448,192,89758,1,0,0:0:0:0:
320,192,89820,1,0,0:0:0:0:
192,192,89883,1,0,0:0:0:0:
64,192,89945,1,0,0:0:0:0:
192,192,90008,1,0,0:0:0:0:
320,192,90070,1,0,0:0:0:0:
64,192,90133,1,0,0:0:0:0:
448,192,90133,1,0,0:0:0:0:
192,192,90320,1,0,0:0:0:0:
320,192,90414,1,0,0:0:0:0:
448,192,90508,1,0,0:0:0:0:
64,192,90508,1,0,0:0:0:0:
192,192,90601,1,0,0:0:0:0:
320,192,90695,1,0,0:0:0:0:
448,192,90789,1,0,0:0:0:0:
192,192,90883,1,0,0:0:0:0:
64,192,90883,1,0,0:0:0:0:
448,192,90976,1,0,0:0:0:0:
320,192,91070,1,0,0:0:0:0:
192,192,91164,1,0,0:0:0:0:
448,192,91258,1,0,0:0:0:0:
64,192,91258,1,0,0:0:0:0:
320,192,91351,1,0,0:0:0:0:
192,192,91445,1,0,0:0:0:0:
64,192,91539,1,0,0:0:0:0:
320,192,91633,1,0,0:0:0:0:
448,192,91633,1,0,0:0:0:0:
64,192,91820,1,0,0:0:0:0:
320,192,91914,1,0,0:0:0:0:
192,192,92008,1,0,0:0:0:0:
448,192,92101,1,0,0:0:0:0:
64,192,92195,1,0,0:0:0:0:
192,192,92289,1,0,0:0:0:0:
64,192,92383,1,0,0:0:0:0:
448,192,92383,1,0,0:0:0:0:
320,192,92476,1,0,0:0:0:0:
192,192,92570,1,0,0:0:0:0:
64,192,92664,1,0,0:0:0:0:
448,192,92758,1,0,0:0:0:0:
320,192,92851,1,0,0:0:0:0:
192,192,92945,1,0,0:0:0:0:
64,192,93039,1,0,0:0:0:0:
192,192,93133,1,0,0:0:0:0:
448,192,93133,1,0,0:0:0:0:
64,192,93320,1,0,0:0:0:0:
192,192,93414,1,0,0:0:0:0:
320,192,93508,1,0,0:0:0:0:
448,192,93508,1,0,0:0:0:0:
64,192,93601,1,0,0:0:0:0:
320,192,93695,1,0,0:0:0:0:
192,192,93789,1,0,0:0:0:0:
448,192,93883,1,0,0:0:0:0:
64,192,93883,1,0,0:0:0:0:
320,192,93976,1,0,0:0:0:0:
192,192,94070,1,0,0:0:0:0:
64,192,94164,1,0,0:0:0:0:
448,192,94258,1,0,0:0:0:0:
320,192,94351,1,0,0:0:0:0:
192,192,94445,1,0,0:0:0:0:
64,192,94539,1,0,0:0:0:0:
320,192,94633,1,0,0:0:0:0:
448,192,94633,1,0,0:0:0:0:
192,192,94726,1,0,0:0:0:0:
448,192,94820,1,0,0:0:0:0:
64,192,94914,1,0,0:0:0:0:
448,192,95008,1,0,0:0:0:0:
320,192,95008,1,0,0:0:0:0:
320,192,95195,1,0,0:0:0:0:
192,192,95195,1,0,0:0:0:0:
64,192,95195,1,0,0:0:0:0:
64,192,95383,1,0,0:0:0:0:
192,192,95383,1,0,0:0:0:0:
448,192,95383,1,0,0:0:0:0:
320,192,95570,1,0,0:0:0:0:
192,192,95664,1,0,0:0:0:0:
448,192,95758,1,0,0:0:0:0:
64,192,95758,1,0,0:0:0:0:
192,192,95851,1,0,0:0:0:0:
448,192,95945,1,0,0:0:0:0:
320,192,96039,1,0,0:0:0:0:
192,192,96133,1,0,0:0:0:0:
64,192,96133,1,0,0:0:0:0:
448,192,96133,1,0,0:0:0:0:
192,192,96320,1,0,0:0:0:0:
320,192,96414,1,0,0:0:0:0:
448,192,96508,1,0,0:0:0:0:
64,192,96508,1,0,0:0:0:0:
192,192,96601,1,0,0:0:0:0:
320,192,96695,1,0,0:0:0:0:
448,192,96789,1,0,0:0:0:0:
192,192,96883,1,0,0:0:0:0:
64,192,96883,1,0,0:0:0:0:
448,192,96976,1,0,0:0:0:0:
320,192,97070,1,0,0:0:0:0:
192,192,97164,1,0,0:0:0:0:
64,192,97258,1,0,0:0:0:0:
448,192,97258,1,0,0:0:0:0:
320,192,97351,1,0,0:0:0:0:
192,192,97445,1,0,0:0:0:0:
64,192,97539,1,0,0:0:0:0:
192,192,97633,1,0,0:0:0:0:
320,192,97633,1,0,0:0:0:0:
448,192,97633,1,0,0:0:0:0:
64,192,97820,1,0,0:0:0:0:
192,192,97914,1,0,0:0:0:0:
448,192,98008,1,0,0:0:0:0:
64,192,98008,1,0,0:0:0:0:
320,192,98101,1,0,0:0:0:0:
192,192,98195,1,0,0:0:0:0:
320,192,98289,1,0,0:0:0:0:
192,192,98383,1,0,0:0:0:0:
64,192,98383,1,0,0:0:0:0:
448,192,98476,1,0,0:0:0:0:
320,192,98570,1,0,0:0:0:0:
192,192,98664,1,0,0:0:0:0:
64,192,98758,1,0,0:0:0:0:
448,192,98758,1,0,0:0:0:0:
320,192,98851,1,0,0:0:0:0:
192,192,98945,1,0,0:0:0:0:
64,192,99039,1,0,0:0:0:0:
192,192,99133,1,0,0:0:0:0:
320,192,99133,1,0,0:0:0:0:
448,192,99133,1,0,0:0:0:0:
192,192,99320,1,0,0:0:0:0:
320,192,99414,1,0,0:0:0:0:
64,192,99508,1,0,0:0:0:0:
448,192,99508,1,0,0:0:0:0:
192,192,99601,1,0,0:0:0:0:
448,192,99695,1,0,0:0:0:0:
320,192,99789,1,0,0:0:0:0:
64,192,99883,1,0,0:0:0:0:
448,192,99883,1,0,0:0:0:0:
192,192,99976,1,0,0:0:0:0:
320,192,100070,1,0,0:0:0:0:
448,192,100164,1,0,0:0:0:0:
64,192,100258,1,0,0:0:0:0:
192,192,100258,1,0,0:0:0:0:
448,192,100351,1,0,0:0:0:0:
320,192,100445,1,0,0:0:0:0:
192,192,100539,1,0,0:0:0:0:
320,192,100633,1,0,0:0:0:0:
64,192,100633,1,0,0:0:0:0:
448,192,100633,1,0,0:0:0:0:
192,192,100726,1,0,0:0:0:0:
448,192,100820,1,0,0:0:0:0:
64,192,100914,1,0,0:0:0:0:
448,192,101008,1,0,0:0:0:0:
320,192,101008,1,0,0:0:0:0:
192,192,101195,1,0,0:0:0:0:
64,192,101195,1,0,0:0:0:0:
64,192,101383,1,0,0:0:0:0:
192,192,101383,1,0,0:0:0:0:
448,192,101383,1,0,0:0:0:0:
320,192,101476,1,0,0:0:0:0:
192,192,101570,1,0,0:0:0:0:
448,192,101664,1,0,0:0:0:0:
192,192,101758,1,0,0:0:0:0:
64,192,101758,1,0,0:0:0:0:
448,192,101851,1,0,0:0:0:0:
64,192,101945,1,0,0:0:0:0:
320,192,102039,1,0,0:0:0:0:
192,192,102133,1,0,0:0:0:0:
64,192,102133,1,0,0:0:0:0:
448,192,102133,1,0,0:0:0:0:
192,192,102226,1,0,0:0:0:0:
64,192,102320,1,0,0:0:0:0:
320,192,102414,1,0,0:0:0:0:
64,192,102508,1,0,0:0:0:0:
448,192,102508,1,0,0:0:0:0:
192,192,102508,1,0,0:0:0:0:
320,192,102601,1,0,0:0:0:0:
192,192,102695,1,0,0:0:0:0:
448,192,102789,1,0,0:0:0:0:
320,192,102883,1,0,0:0:0:0:
64,192,102883,1,0,0:0:0:0:
192,192,102883,1,0,0:0:0:0:
320,192,102976,1,0,0:0:0:0:
64,192,103070,1,0,0:0:0:0:
192,192,103164,1,0,0:0:0:0:
320,192,103258,1,0,0:0:0:0:
448,192,103258,1,0,0:0:0:0:
64,192,103258,1,0,0:0:0:0:
192,192,103351,1,0,0:0:0:0:
448,192,103445,1,0,0:0:0:0:
64,192,103539,1,0,0:0:0:0:
448,192,103633,1,0,0:0:0:0:
192,192,103633,1,0,0:0:0:0:
320,192,103633,1,0,0:0:0:0:
448,192,103726,1,0,0:0:0:0:
64,192,103820,1,0,0:0:0:0:
448,192,103914,1,0,0:0:0:0:
320,192,104008,1,0,0:0:0:0:
192,192,104008,1,0,0:0:0:0:
64,192,104008,1,0,0:0:0:0:
448,192,104101,1,0,0:0:0:0:
64,192,104195,1,0,0:0:0:0:
320,192,104289,1,0,0:0:0:0:
448,192,104383,1,0,0:0:0:0:
192,192,104383,1,0,0:0:0:0:
64,192,104383,1,0,0:0:0:0:
64,192,104476,1,0,0:0:0:0:
192,192,104570,1,0,0:0:0:0:
448,192,104664,1,0,0:0:0:0:
64,192,104758,1,0,0:0:0:0:
320,192,104758,1,0,0:0:0:0:
192,192,104758,1,0,0:0:0:0:
448,192,104851,1,0,0:0:0:0:
320,192,104945,1,0,0:0:0:0:
192,192,105039,1,0,0:0:0:0:
64,192,105133,1,0,0:0:0:0:
448,192,105133,1,0,0:0:0:0:
320,192,105133,1,0,0:0:0:0:
320,192,105226,1,0,0:0:0:0:
64,192,105320,1,0,0:0:0:0:
320,192,105414,1,0,0:0:0:0:
192,192,105508,1,0,0:0:0:0:
64,192,105508,1,0,0:0:0:0:
448,192,105508,1,0,0:0:0:0:
320,192,105601,1,0,0:0:0:0:
64,192,105695,1,0,0:0:0:0:
448,192,105789,1,0,0:0:0:0:
192,192,105883,1,0,0:0:0:0:
64,192,105883,1,0,0:0:0:0:
320,192,105883,1,0,0:0:0:0:
192,192,105976,1,0,0:0:0:0:
320,192,106070,1,0,0:0:0:0:
64,192,106164,1,0,0:0:0:0:
320,192,106258,1,0,0:0:0:0:
192,192,106258,1,0,0:0:0:0:
448,192,106258,1,0,0:0:0:0:
64,192,106351,1,0,0:0:0:0:
448,192,106445,1,0,0:0:0:0:
192,192,106539,1,0,0:0:0:0:
448,192,106633,1,0,0:0:0:0:
64,192,106633,1,0,0:0:0:0:
320,192,106633,1,0,0:0:0:0:
320,192,106726,1,0,0:0:0:0:
64,192,106820,1,0,0:0:0:0:
192,192,106914,1,0,0:0:0:0:
448,192,107008,1,0,0:0:0:0:
320,192,107008,1,0,0:0:0:0:
64,192,107008,1,0,0:0:0:0:
192,192,107101,1,0,0:0:0:0:
448,192,107195,1,0,0:0:0:0:
320,192,107289,1,0,0:0:0:0:
448,192,107383,1,0,0:0:0:0:
192,192,107383,1,0,0:0:0:0:
64,192,107383,1,0,0:0:0:0:
64,192,107476,1,0,0:0:0:0:
320,192,107570,1,0,0:0:0:0:
448,192,107664,1,0,0:0:0:0:
320,192,107758,1,0,0:0:0:0:
192,192,107758,1,0,0:0:0:0:
64,192,107758,1,0,0:0:0:0:
192,192,107945,1,0,0:0:0:0:
320,192,107945,1,0,0:0:0:0:
320,192,108133,1,0,0:0:0:0:
192,192,108133,1,0,0:0:0:0:
64,192,108133,1,0,0:0:0:0:
448,192,108133,1,0,0:0:0:0:
448,192,108320,1,0,0:0:0:0:
320,192,108414,1,0,0:0:0:0:
64,192,108508,1,0,0:0:0:0:
448,192,108508,1,0,0:0:0:0:
192,192,108508,1,0,0:0:0:0:
192,192,108601,1,0,0:0:0:0:
448,192,108695,1,0,0:0:0:0:
192,192,108789,1,0,0:0:0:0:
64,192,108883,1,0,0:0:0:0:
320,192,108883,1,0,0:0:0:0:
448,192,108883,1,0,0:0:0:0:
448,192,108976,1,0,0:0:0:0:
192,192,109070,1,0,0:0:0:0:
320,192,109164,1,0,0:0:0:0:
192,192,109258,1,0,0:0:0:0:
448,192,109258,1,0,0:0:0:0:
64,192,109258,1,0,0:0:0:0:
192,192,109351,1,0,0:0:0:0:
448,192,109445,1,0,0:0:0:0:
192,192,109539,1,0,0:0:0:0:
320,192,109633,1,0,0:0:0:0:
64,192,109633,1,0,0:0:0:0:
448,192,109633,1,0,0:0:0:0:
320,192,109726,1,0,0:0:0:0:
448,192,109820,1,0,0:0:0:0:
192,192,109914,1,0,0:0:0:0:
320,192,110008,1,0,0:0:0:0:
448,192,110008,1,0,0:0:0:0:
64,192,110008,1,0,0:0:0:0:
64,192,110101,1,0,0:0:0:0:
448,192,110195,1,0,0:0:0:0:
320,192,110289,1,0,0:0:0:0:
192,192,110383,1,0,0:0:0:0:
64,192,110383,1,0,0:0:0:0:
448,192,110383,1,0,0:0:0:0:
192,192,110476,1,0,0:0:0:0:
64,192,110570,1,0,0:0:0:0:
448,192,110664,1,0,0:0:0:0:
192,192,110758,1,0,0:0:0:0:
64,192,110758,1,0,0:0:0:0:
320,192,110758,1,0,0:0:0:0:
320,192,110851,1,0,0:0:0:0:
64,192,110945,1,0,0:0:0:0:
192,192,111039,1,0,0:0:0:0:
192,192,111133,1,0,0:0:0:0:
64,192,111133,1,0,0:0:0:0:
448,192,111133,1,0,0:0:0:0:
320,192,111133,1,0,0:0:0:0:
64,192,111320,1,0,0:0:0:0:
448,192,111320,1,0,0:0:0:0:
192,192,111383,1,0,0:0:0:0:
320,192,111445,1,0,0:0:0:0:
448,192,111508,1,0,0:0:0:0:
64,192,111508,1,0,0:0:0:0:
192,192,111508,1,0,0:0:0:0:
448,192,111601,1,0,0:0:0:0:
64,192,111695,1,0,0:0:0:0:
192,192,111789,1,0,0:0:0:0:
448,192,111883,1,0,0:0:0:0:
64,192,111883,1,0,0:0:0:0:
320,192,111883,1,0,0:0:0:0:
64,192,111976,1,0,0:0:0:0:
192,192,112070,1,0,0:0:0:0:
448,192,112164,1,0,0:0:0:0:
192,192,112258,1,0,0:0:0:0:
320,192,112258,1,0,0:0:0:0:
64,192,112258,1,0,0:0:0:0:
320,192,112351,1,0,0:0:0:0:
448,192,112445,1,0,0:0:0:0:
192,192,112539,1,0,0:0:0:0:
320,192,112633,1,0,0:0:0:0:
448,192,112633,1,0,0:0:0:0:
64,192,112633,1,0,0:0:0:0:
64,192,112726,1,0,0:0:0:0:
320,192,112820,1,0,0:0:0:0:
192,192,112914,1,0,0:0:0:0:
448,192,113008,1,0,0:0:0:0:
320,192,113008,1,0,0:0:0:0:
64,192,113008,1,0,0:0:0:0:
320,192,113101,1,0,0:0:0:0:
64,192,113195,1,0,0:0:0:0:
448,192,113289,1,0,0:0:0:0:
320,192,113383,1,0,0:0:0:0:
64,192,113383,1,0,0:0:0:0:
192,192,113383,1,0,0:0:0:0:
192,192,113476,1,0,0:0:0:0:
448,192,113570,1,0,0:0:0:0:
64,192,113570,1,0,0:0:0:0:
320,192,113664,1,0,0:0:0:0:
320,192,113758,1,0,0:0:0:0:
64,192,113758,1,0,0:0:0:0:
448,192,113758,1,0,0:0:0:0:
192,192,113758,1,0,0:0:0:0:
320,192,113945,1,0,0:0:0:0:
192,192,113945,1,0,0:0:0:0:
192,192,114133,1,0,0:0:0:0:
64,192,114133,1,0,0:0:0:0:
320,192,114133,1,0,0:0:0:0:
448,192,114133,1,0,0:0:0:0:
448,192,114226,1,0,0:0:0:0:
192,192,114320,1,0,0:0:0:0:
64,192,114320,1,0,0:0:0:0:
320,192,114414,1,0,0:0:0:0:
64,192,114508,1,0,0:0:0:0:
320,192,114508,1,0,0:0:0:0:
448,192,114508,1,0,0:0:0:0:
192,192,114508,1,0,0:0:0:0:
192,192,114695,1,0,0:0:0:0:
64,192,114695,1,0,0:0:0:0:
448,192,114695,1,0,0:0:0:0:
192,192,114883,1,0,0:0:0:0:
320,192,114883,1,0,0:0:0:0:
448,192,114883,1,0,0:0:0:0:
64,192,114883,1,0,0:0:0:0:
64,192,114976,1,0,0:0:0:0:
320,192,115070,1,0,0:0:0:0:
448,192,115070,1,0,0:0:0:0:
192,192,115164,1,0,0:0:0:0:
64,192,115258,1,0,0:0:0:0:
448,192,115258,1,0,0:0:0:0:
192,192,115258,1,0,0:0:0:0:
320,192,115258,1,0,0:0:0:0:
320,192,115445,1,0,0:0:0:0:
448,192,115445,1,0,0:0:0:0:
64,192,115445,1,0,0:0:0:0:
448,192,115633,1,0,0:0:0:0:
64,192,115633,1,0,0:0:0:0:
192,192,115633,1,0,0:0:0:0:
320,192,115633,1,0,0:0:0:0:
320,192,115726,1,0,0:0:0:0:
64,192,115820,1,0,0:0:0:0:
448,192,115820,1,0,0:0:0:0:
192,192,115914,1,0,0:0:0:0:
192,192,116008,1,0,0:0:0:0:
64,192,116008,1,0,0:0:0:0:
448,192,116008,1,0,0:0:0:0:
320,192,116008,1,0,0:0:0:0:
320,192,116195,1,0,0:0:0:0:
448,192,116195,1,0,0:0:0:0:
64,192,116195,1,0,0:0:0:0:
448,192,116383,1,0,0:0:0:0:
64,192,116383,1,0,0:0:0:0:
192,192,116383,1,0,0:0:0:0:
320,192,116383,1,0,0:0:0:0:
192,192,116476,1,0,0:0:0:0:
448,192,116570,1,0,0:0:0:0:
64,192,116570,1,0,0:0:0:0:
320,192,116664,1,0,0:0:0:0:
320,192,116758,1,0,0:0:0:0:
448,192,116758,1,0,0:0:0:0:
64,192,116758,1,0,0:0:0:0:
192,192,116758,1,0,0:0:0:0:
320,192,116945,1,0,0:0:0:0:
192,192,116945,1,0,0:0:0:0:
64,192,116945,1,0,0:0:0:0:
192,192,117133,1,0,0:0:0:0:
64,192,117133,1,0,0:0:0:0:
320,192,117133,1,0,0:0:0:0:
448,192,117133,1,0,0:0:0:0:
64,192,117226,1,0,0:0:0:0:
320,192,117320,1,0,0:0:0:0:
448,192,117320,1,0,0:0:0:0:
192,192,117320,1,0,0:0:0:0:
64,192,117414,1,0,0:0:0:0:
192,192,117508,1,0,0:0:0:0:
64,192,117508,1,0,0:0:0:0:
320,192,117508,1,0,0:0:0:0:
448,192,117508,1,0,0:0:0:0:
448,192,117601,1,0,0:0:0:0:
320,192,117695,1,0,0:0:0:0:
64,192,117695,1,0,0:0:0:0:
192,192,117695,1,0,0:0:0:0:
448,192,117789,1,0,0:0:0:0:
64,192,117883,1,0,0:0:0:0:
320,192,117883,1,0,0:0:0:0:
448,192,117883,1,0,0:0:0:0:
192,192,117883,1,0,0:0:0:0:
64,192,117976,1,0,0:0:0:0:
192,192,117976,1,0,0:0:0:0:
448,192,118070,1,0,0:0:0:0:
320,192,118070,1,0,0:0:0:0:
192,192,118164,1,0,0:0:0:0:
64,192,118164,1,0,0:0:0:0:
64,192,118258,1,0,0:0:0:0:
320,192,118258,1,0,0:0:0:0:
448,192,118258,1,0,0:0:0:0:
320,192,118351,1,0,0:0:0:0:
448,192,118351,1,0,0:0:0:0:
192,192,118445,1,0,0:0:0:0:
64,192,118445,1,0,0:0:0:0:
320,192,118539,1,0,0:0:0:0:
448,192,118539,1,0,0:0:0:0:
192,192,118633,1,0,0:0:0:0:
64,192,118633,1,0,0:0:0:0:
448,192,118633,1,0,0:0:0:0:
64,192,119383,1,0,0:0:0:0:
320,192,119383,1,0,0:0:0:0:
448,192,119383,1,0,0:0:0:0:
64,192,120320,128,0,123070:0:0:0:0:
192,192,123070,1,0,0:0:0:0:
320,192,123070,1,0,0:0:0:0:
448,192,123070,1,0,0:0:0:0:
