osu file format v14

[General]
AudioFilename: Lune.mp3
AudioLeadIn: 0
PreviewTime: 75953
Countdown: 0
SampleSet: Soft
StackLeniency: 0.5
Mode: 2
LetterboxInBreaks: 0
WidescreenStoryboard: 1

[Editor]
Bookmarks: 16703,33953,64703,65453,69953,86453,113453
DistanceSpacing: 1.3
BeatDivisor: 4
GridSize: 16
TimelineZoom: 2.1

[Metadata]
Title:Lune
TitleUnicode:Lune
Artist:M2U
ArtistUnicode:M2U
Creator:Nanachii
Version:Rain
Source:Deemo
Tags:nicode rayark hans diversity. best album
BeatmapID:1650768
BeatmapSetID:786372

[Difficulty]
HPDrainRate:6
CircleSize:4
OverallDifficulty:9
ApproachRate:9
SliderMultiplier:1.8
SliderTickRate:2

[Events]
//Background and Video events
0,0,"ih1ttta.png",0,0
//Break Periods
//Storyboard Layer 0 (Background)
//Storyboard Layer 1 (Fail)
//Storyboard Layer 2 (Pass)
//Storyboard Layer 3 (Foreground)
//Storyboard Sound Samples

[TimingPoints]
953,375,4,2,1,40,1,0
44453,-100,4,2,1,40,0,1
46703,-100,4,2,1,40,0,0
47078,-100,4,2,1,40,0,1
50453,-100,4,2,1,40,0,0
75953,-100,4,2,1,40,0,1
78203,-100,4,2,1,40,0,0
78953,-100,4,2,1,40,0,1
81953,-100,4,2,1,40,0,0
93953,-100,4,2,1,40,0,1
96203,-100,4,2,1,40,0,0

[Colours]
Combo1 : 170,193,255
Combo2 : 50,28,255
Combo3 : 244,226,4

[HitObjects]
96,96,953,6,0,P|96:208|321:243,2,360
286,100,3203,1,0,0:0:0:0:
445,91,3578,1,0,0:0:0:0:
196,106,3953,6,0,P|117:192|292:266,1,360
359,95,5359,1,0,0:0:0:0:
403,118,5453,2,0,P|432:210|267:273,1,270
261,296,6109,1,0,0:0:0:0:
143,275,6203,5,0,0:0:0:0:
212,225,6390,1,0,0:0:0:0:
174,138,6578,1,0,0:0:0:0:
80,101,6765,1,0,0:0:0:0:
240,105,6953,2,0,P|349:119|233:242,2,360
146,128,9203,5,0,0:0:0:0:
320,128,9578,1,0,0:0:0:0:
114,131,9953,1,0,0:0:0:0:
260,127,10328,1,0,0:0:0:0:
110,125,10703,2,0,L|28:302,1,180
266,193,11453,5,0,0:0:0:0:
58,191,11828,1,0,0:0:0:0:
226,205,12203,1,0,0:0:0:0:
31,194,12578,1,0,0:0:0:0:
287,233,12859,1,0,0:0:0:0:
315,215,12953,6,0,P|385:132|202:95,1,360
54,121,14078,1,0,0:0:0:0:
181,122,14265,1,0,0:0:0:0:
437,118,14453,6,0,P|485:188|416:256,1,180
183,267,15203,6,0,P|109:178|205:82,1,270
29,52,15953,2,0,L|243:37,1,180
412,38,16703,1,0,0:0:0:0:
232,122,17078,1,0,0:0:0:0:
454,200,17453,1,0,0:0:0:0:
269,209,17828,5,0,0:0:0:0:
142,237,18203,2,0,P|68:199|144:71,1,270
2,55,18953,6,0,L|217:37,1,180
88,92,19515,1,0,0:0:0:0:
249,155,19703,2,0,L|366:163,1,90
166,212,20078,2,0,L|62:221,1,90
254,263,20453,6,0,L|345:252,3,90
89,224,21203,2,0,L|-22:202,1,90
55,167,21484,1,0,0:0:0:0:
120,127,21578,2,0,L|2:111,1,90
285,125,21953,6,0,L|341:237,1,90
146,237,22328,1,0,0:0:0:0:
102,235,22421,1,0,0:0:0:0:
71,204,22515,1,0,0:0:0:0:
73,160,22609,1,0,0:0:0:0:
245,158,22703,6,0,L|276:92,1,45
94,113,22890,2,0,L|69:166,1,45
244,168,23078,2,0,L|341:157,1,90
157,236,23453,6,0,L|274:222,2,90
46,235,24015,2,0,B|-3:234|-2:234,1,45
174,233,24203,2,0,L|183:106,1,90
350,138,24578,2,0,L|250:145,1,90
12,178,24953,6,0,L|40:267,1,90
157,263,25328,5,0,0:0:0:0:
195,242,25421,1,0,0:0:0:0:
196,199,25515,1,0,0:0:0:0:
161,175,25609,1,0,0:0:0:0:
110,159,25703,1,0,0:0:0:0:
165,141,25796,1,0,0:0:0:0:
164,82,25890,1,0,0:0:0:0:
109,60,25984,1,0,0:0:0:0:
56,78,26078,1,0,0:0:0:0:
26,110,26171,1,0,0:0:0:0:
27,154,26265,1,0,0:0:0:0:
59,184,26359,1,0,0:0:0:0:
224,193,26453,5,0,0:0:0:0:
268,193,26546,1,0,0:0:0:0:
313,193,26640,1,0,0:0:0:0:
174,261,26828,1,0,0:0:0:0:
219,261,26921,1,0,0:0:0:0:
264,261,27015,1,0,0:0:0:0:
510,190,27203,5,0,0:0:0:0:
465,190,27296,1,0,0:0:0:0:
420,190,27390,1,0,0:0:0:0:
160,192,27578,2,0,P|113:115|154:102,1,135
311,57,27953,1,0,0:0:0:0:
180,151,28140,5,0,0:0:0:0:
127,147,28233,1,0,0:0:0:0:
169,105,28327,1,0,0:0:0:0:
111,103,28421,1,0,0:0:0:0:
53,98,28515,1,0,0:0:0:0:
108,76,28609,1,0,0:0:0:0:
293,73,28703,5,0,0:0:0:0:
335,81,28796,1,0,0:0:0:0:
351,121,28890,1,0,0:0:0:0:
325,156,28984,1,0,0:0:0:0:
166,174,29078,6,0,L|136:232,1,45
232,221,29265,2,0,L|265:271,1,45
430,252,29453,1,0,0:0:0:0:
279,273,29640,5,0,0:0:0:0:
235,260,29733,1,0,0:0:0:0:
192,248,29827,1,0,0:0:0:0:
235,232,29921,1,0,0:0:0:0:
277,218,30015,1,0,0:0:0:0:
217,203,30109,1,0,0:0:0:0:
63,149,30203,5,0,0:0:0:0:
107,146,30296,1,0,0:0:0:0:
152,144,30390,1,0,0:0:0:0:
197,142,30484,1,0,0:0:0:0:
154,101,30578,5,0,0:0:0:0:
107,106,30671,1,0,0:0:0:0:
153,100,30765,1,0,0:0:0:0:
211,92,30859,1,0,0:0:0:0:
403,82,30953,1,0,0:0:0:0:
274,87,31140,5,0,0:0:0:0:
248,123,31233,1,0,0:0:0:0:
239,150,31327,1,0,0:0:0:0:
284,146,31421,1,0,0:0:0:0:
329,141,31515,1,0,0:0:0:0:
374,137,31608,1,0,0:0:0:0:
188,126,31703,6,0,L|174:68,1,45
263,87,31891,2,0,L|303:31,1,45
118,95,32078,5,0,0:0:0:0:
59,93,32171,1,0,0:0:0:0:
0,95,32265,1,0,0:0:0:0:
54,74,32359,1,0,0:0:0:0:
229,81,32453,5,0,0:0:0:0:
114,228,32640,1,0,0:0:0:0:
58,210,32733,1,0,0:0:0:0:
15,169,32827,1,0,0:0:0:0:
17,110,32921,1,0,0:0:0:0:
64,75,33015,1,0,0:0:0:0:
121,65,33108,1,0,0:0:0:0:
282,161,33203,6,0,L|102:162,1,180
334,245,33953,6,0,L|323:117,1,90
173,160,34328,2,0,L|161:41,1,90
321,61,34703,2,0,P|370:147|314:180,1,180
158,168,35265,1,0,0:0:0:0:
338,186,35453,6,0,L|152:168,1,180
297,182,36109,1,0,0:0:0:0:
339,148,36203,2,0,L|216:132,1,90
107,181,36578,5,0,0:0:0:0:
68,159,36671,1,0,0:0:0:0:
57,117,36765,1,0,0:0:0:0:
80,80,36859,1,0,0:0:0:0:
246,89,36953,6,0,L|275:201,1,90
113,173,37328,2,0,L|139:272,1,90
298,238,37703,2,0,L|193:237,1,90
361,299,38078,2,0,L|258:294,1,90
456,293,38453,5,0,0:0:0:0:
304,288,38640,2,0,L|392:306,2,90
439,284,39203,2,0,L|430:168,1,90
289,172,39578,2,0,L|277:58,1,90
25,81,39953,5,0,0:0:0:0:
180,82,40140,1,0,0:0:0:0:
224,82,40233,1,0,0:0:0:0:
258,109,40327,1,0,0:0:0:0:
267,153,40421,1,0,0:0:0:0:
245,191,40515,1,0,0:0:0:0:
204,207,40608,1,0,0:0:0:0:
16,201,40703,6,0,L|131:203,1,90
248,206,41078,2,0,L|356:209,1,90
90,207,41453,2,0,B|-27:205,1,90
155,261,41828,2,0,L|42:263,1,90
330,253,42203,6,0,L|453:250,2,90
210,256,42765,1,0,0:0:0:0:
470,248,42953,1,0,0:0:0:0:
348,243,43140,5,0,0:0:0:0:
288,243,43233,1,0,0:0:0:0:
238,212,43327,1,0,0:0:0:0:
225,154,43421,1,0,0:0:0:0:
262,109,43515,1,0,0:0:0:0:
315,87,43608,1,0,0:0:0:0:
512,89,43703,6,0,L|393:90,1,90
260,52,44078,1,0,0:0:0:0:
426,52,44265,1,0,0:0:0:0:
157,74,44453,6,0,L|37:69,1,90
337,80,44828,1,0,0:0:0:0:
380,83,44921,1,0,0:0:0:0:
404,119,45015,1,0,0:0:0:0:
391,160,45109,1,0,0:0:0:0:
198,178,45203,6,0,L|94:180,1,90
270,179,45578,2,0,L|391:175,1,90
98,168,45953,2,0,L|206:156,2,90
262,185,46515,2,0,L|358:184,2,90
209,190,46984,1,0,0:0:0:0:
38,229,47078,2,0,L|149:234,1,90
392,243,47453,6,0,L|488:236,1,90
323,246,47828,1,0,0:0:0:0:
270,221,47921,1,0,0:0:0:0:
267,162,48015,1,0,0:0:0:0:
321,139,48109,1,0,0:0:0:0:
512,140,48203,5,0,0:0:0:0:
468,129,48296,1,0,0:0:0:0:
424,118,48390,1,0,0:0:0:0:
380,107,48484,1,0,0:0:0:0:
221,162,48578,5,0,0:0:0:0:
168,137,48671,1,0,0:0:0:0:
165,78,48765,1,0,0:0:0:0:
219,55,48859,1,0,0:0:0:0:
397,60,48953,6,0,L|494:55,1,90
323,27,49328,2,0,L|440:19,1,90
157,77,49703,2,0,L|60:71,1,90
115,113,49984,1,0,0:0:0:0:
284,119,50078,6,0,L|317:180,1,45
242,162,50265,2,0,L|219:215,1,45
398,190,50453,6,0,L|528:181,1,90
447,157,50734,1,0,0:0:0:0:
394,158,50827,1,0,0:0:0:0:
358,122,50921,1,0,0:0:0:0:
360,70,51015,1,0,0:0:0:0:
400,37,51109,1,0,0:0:0:0:
233,70,51203,6,0,L|125:77,2,90
395,128,51765,1,0,0:0:0:0:
140,184,51953,6,0,L|36:174,1,90
94,155,52234,1,0,0:0:0:0:
136,161,52327,1,0,0:0:0:0:
169,133,52421,1,0,0:0:0:0:
167,89,52515,1,0,0:0:0:0:
132,63,52609,1,0,0:0:0:0:
295,71,52703,6,0,L|399:76,2,90
134,72,53265,1,0,0:0:0:0:
380,77,53453,6,0,L|470:87,1,90
413,151,53734,1,0,0:0:0:0:
355,138,53828,1,0,0:0:0:0:
297,133,53921,1,0,0:0:0:0:
351,121,54015,1,0,0:0:0:0:
408,108,54109,1,0,0:0:0:0:
457,173,54203,5,0,0:0:0:0:
511,152,54296,1,0,0:0:0:0:
507,93,54390,1,0,0:0:0:0:
454,66,54484,1,0,0:0:0:0:
395,68,54578,5,0,0:0:0:0:
342,95,54672,1,0,0:0:0:0:
338,154,54766,1,0,0:0:0:0:
392,175,54859,1,0,0:0:0:0:
222,207,54953,6,0,L|101:200,2,90
368,205,55515,1,0,0:0:0:0:
113,210,55703,2,0,L|42:137,1,90
299,137,56078,2,0,L|401:138,1,90
131,132,56453,5,0,0:0:0:0:
238,135,56640,5,0,0:0:0:0:
287,135,56733,1,0,0:0:0:0:
329,160,56827,1,0,0:0:0:0:
329,209,56921,1,0,0:0:0:0:
287,236,57015,1,0,0:0:0:0:
238,239,57108,1,0,0:0:0:0:
296,235,57203,5,0,0:0:0:0:
355,235,57296,1,0,0:0:0:0:
296,235,57390,1,0,0:0:0:0:
238,239,57484,1,0,0:0:0:0:
296,235,57578,5,0,0:0:0:0:
355,235,57671,1,0,0:0:0:0:
296,235,57765,1,0,0:0:0:0:
238,239,57859,1,0,0:0:0:0:
180,309,57953,5,0,0:0:0:0:
121,309,58046,1,0,0:0:0:0:
62,308,58140,1,0,0:0:0:0:
121,309,58234,1,0,0:0:0:0:
180,309,58328,5,0,0:0:0:0:
122,309,58421,1,0,0:0:0:0:
180,309,58515,1,0,0:0:0:0:
239,309,58609,1,0,0:0:0:0:
396,305,58703,6,0,L|507:304,1,90
197,248,59078,2,0,L|108:247,1,90
419,185,59453,5,0,0:0:0:0:
452,217,59546,1,0,0:0:0:0:
448,260,59640,1,0,0:0:0:0:
413,286,59734,1,0,0:0:0:0:
364,289,59828,5,0,0:0:0:0:
328,285,59922,1,0,0:0:0:0:
289,283,60016,1,0,0:0:0:0:
334,245,60109,1,0,0:0:0:0:
383,244,60203,5,0,0:0:0:0:
419,240,60297,1,0,0:0:0:0:
458,238,60391,1,0,0:0:0:0:
413,200,60484,1,0,0:0:0:0:
460,185,60578,5,0,0:0:0:0:
420,189,60671,1,0,0:0:0:0:
376,189,60764,1,0,0:0:0:0:
331,189,60858,1,0,0:0:0:0:
376,130,60953,5,0,0:0:0:0:
330,124,61046,1,0,0:0:0:0:
285,124,61139,1,0,0:0:0:0:
240,125,61233,1,0,0:0:0:0:
293,73,61328,5,0,0:0:0:0:
338,73,61421,1,0,0:0:0:0:
383,73,61515,1,0,0:0:0:0:
335,42,61609,1,0,0:0:0:0:
149,43,61703,1,0,0:0:0:0:
324,57,62078,6,0,L|326:152,1,90
166,165,62453,1,0,0:0:0:0:
325,225,62640,2,0,L|447:225,2,90
156,291,63203,1,0,0:0:0:0:
359,290,63390,2,0,L|467:289,2,90
179,259,63953,5,0,0:0:0:0:
337,210,64140,2,0,L|443:208,2,90
169,213,64703,2,0,L|95:141,1,90
275,120,65078,1,0,0:0:0:0:
103,252,65453,6,0,L|114:124,1,90
264,167,65828,2,0,L|276:48,1,90
116,68,66203,2,0,P|67:154|123:187,1,180
280,130,66765,1,0,0:0:0:0:
100,148,66953,6,0,L|286:130,1,180
141,144,67609,1,0,0:0:0:0:
99,110,67703,2,0,L|222:94,1,90
327,96,68078,5,0,0:0:0:0:
350,133,68172,1,0,0:0:0:0:
339,175,68266,1,0,0:0:0:0:
300,197,68359,1,0,0:0:0:0:
136,224,68453,6,0,L|165:336,1,90
328,299,68828,2,0,L|306:211,1,90
148,232,69203,2,0,L|41:229,1,90
230,289,69578,2,0,L|120:289,1,90
305,284,69953,5,0,0:0:0:0:
147,289,70140,2,0,L|23:280,2,90
298,282,70703,2,0,L|289:166,1,90
133,172,71078,2,0,L|121:58,1,90
384,56,71453,5,0,0:0:0:0:
241,67,71640,1,0,0:0:0:0:
197,67,71733,1,0,0:0:0:0:
163,94,71827,1,0,0:0:0:0:
154,138,71921,1,0,0:0:0:0:
176,176,72015,1,0,0:0:0:0:
217,192,72108,1,0,0:0:0:0:
405,186,72203,6,0,L|290:188,1,90
173,191,72578,2,0,L|65:194,1,90
331,192,72953,2,0,B|448:190,1,90
281,250,73328,2,0,L|407:250,1,90
103,250,73703,6,0,L|-20:247,2,90
261,253,74265,1,0,0:0:0:0:
0,243,74453,1,0,0:0:0:0:
123,223,74640,5,0,0:0:0:0:
181,239,74733,1,0,0:0:0:0:
238,223,74827,1,0,0:0:0:0:
266,171,74921,1,0,0:0:0:0:
243,117,75015,1,0,0:0:0:0:
199,81,75108,1,0,0:0:0:0:
14,95,75203,6,0,L|133:96,1,90
253,51,75578,1,0,0:0:0:0:
87,51,75765,1,0,0:0:0:0:
373,83,75953,6,0,L|476:80,1,90
193,86,76328,1,0,0:0:0:0:
150,89,76421,1,0,0:0:0:0:
122,128,76515,1,0,0:0:0:0:
139,166,76609,1,0,0:0:0:0:
326,179,76703,6,0,L|430:181,1,90
254,207,77078,2,0,L|127:205,1,90
422,199,77453,2,0,L|313:184,2,90
260,215,78015,2,0,L|147:198,2,90
314,222,78484,1,0,0:0:0:0:
491,262,78578,2,0,L|430:331,1,90
172,237,78953,6,0,L|94:158,1,90
255,249,79328,1,0,0:0:0:0:
308,224,79421,1,0,0:0:0:0:
311,165,79515,1,0,0:0:0:0:
257,142,79609,1,0,0:0:0:0:
66,143,79703,5,0,0:0:0:0:
110,132,79796,1,0,0:0:0:0:
154,121,79890,1,0,0:0:0:0:
198,110,79984,1,0,0:0:0:0:
357,165,80078,5,0,0:0:0:0:
410,140,80171,1,0,0:0:0:0:
413,81,80265,1,0,0:0:0:0:
359,58,80359,1,0,0:0:0:0:
173,63,80453,6,0,L|76:58,1,90
247,36,80828,2,0,L|130:28,1,90
413,81,81203,2,0,L|478:167,1,90
402,145,81484,1,0,0:0:0:0:
233,151,81578,6,0,L|215:217,1,45
275,194,81765,2,0,L|298:247,1,45
115,226,81953,6,0,L|38:122,1,90
124,159,82234,1,0,0:0:0:0:
168,160,82327,1,0,0:0:0:0:
199,130,82421,1,0,0:0:0:0:
197,86,82515,1,0,0:0:0:0:
163,58,82609,1,0,0:0:0:0:
331,70,82703,6,0,L|431:34,2,90
177,121,83265,1,0,0:0:0:0:
430,172,83453,6,0,L|534:162,1,90
476,143,83734,1,0,0:0:0:0:
434,149,83827,1,0,0:0:0:0:
401,121,83921,1,0,0:0:0:0:
403,77,84015,1,0,0:0:0:0:
438,51,84109,1,0,0:0:0:0:
275,59,84203,6,0,L|171:64,2,90
411,56,84765,1,0,0:0:0:0:
154,159,84953,2,0,L|46:167,1,90
116,136,85234,1,0,0:0:0:0:
174,123,85328,1,0,0:0:0:0:
232,118,85421,1,0,0:0:0:0:
178,106,85515,1,0,0:0:0:0:
121,93,85609,1,0,0:0:0:0:
72,158,85703,5,0,0:0:0:0:
18,137,85796,1,0,0:0:0:0:
22,78,85890,1,0,0:0:0:0:
75,51,85984,1,0,0:0:0:0:
134,53,86078,5,0,0:0:0:0:
187,80,86172,1,0,0:0:0:0:
191,139,86266,1,0,0:0:0:0:
137,160,86359,1,0,0:0:0:0:
306,166,86453,6,0,L|414:166,1,90
246,175,86828,2,0,L|220:219,1,45
276,222,87015,2,0,L|299:274,1,45
116,271,87203,2,0,L|51:192,1,90
322,169,87578,2,0,L|361:84,1,90
101,94,87953,6,0,L|-7:96,1,90
69,121,88234,1,0,0:0:0:0:
113,119,88327,1,0,0:0:0:0:
146,148,88421,1,0,0:0:0:0:
150,191,88515,1,0,0:0:0:0:
123,226,88609,1,0,0:0:0:0:
293,229,88703,6,0,L|400:222,1,90
220,281,89078,2,0,L|102:294,1,90
387,144,89453,6,0,L|495:146,1,90
419,171,89734,1,0,0:0:0:0:
461,212,89827,1,0,0:0:0:0:
417,218,89921,1,0,0:0:0:0:
375,220,90015,1,0,0:0:0:0:
332,219,90109,1,0,0:0:0:0:
156,215,90203,6,0,L|44:213,1,90
235,270,90578,2,0,L|124:272,1,90
407,262,90953,6,0,L|512:251,1,90
432,209,91234,1,0,0:0:0:0:
465,177,91327,1,0,0:0:0:0:
431,166,91421,1,0,0:0:0:0:
384,153,91515,1,0,0:0:0:0:
334,143,91609,1,0,0:0:0:0:
290,137,91702,5,0,0:0:0:0:
275,180,91796,1,0,0:0:0:0:
288,217,91890,1,0,0:0:0:0:
337,225,91984,1,0,0:0:0:0:
393,228,92078,5,0,0:0:0:0:
433,207,92171,1,0,0:0:0:0:
473,186,92265,1,0,0:0:0:0:
428,161,92359,1,0,0:0:0:0:
251,164,92453,5,0,0:0:0:0:
207,154,92546,1,0,0:0:0:0:
163,145,92640,1,0,0:0:0:0:
210,125,92734,1,0,0:0:0:0:
377,124,92828,6,0,L|471:127,1,90
143,175,93203,2,0,L|144:73,1,90
299,220,93578,2,0,L|196:211,1,90
254,171,93859,1,0,0:0:0:0:
433,218,93953,5,0,0:0:0:0:
475,199,94046,1,0,0:0:0:0:
432,200,94140,1,0,0:0:0:0:
384,200,94234,1,0,0:0:0:0:
197,192,94328,5,0,0:0:0:0:
155,173,94421,1,0,0:0:0:0:
198,174,94515,1,0,0:0:0:0:
246,174,94609,1,0,0:0:0:0:
58,117,94703,5,0,0:0:0:0:
16,98,94796,1,0,0:0:0:0:
59,99,94890,1,0,0:0:0:0:
107,99,94984,1,0,0:0:0:0:
290,107,95078,5,0,0:0:0:0:
332,88,95171,1,0,0:0:0:0:
289,89,95265,1,0,0:0:0:0:
241,89,95359,1,0,0:0:0:0:
430,69,95453,5,0,0:0:0:0:
472,50,95546,1,0,0:0:0:0:
429,51,95640,1,0,0:0:0:0:
381,51,95734,1,0,0:0:0:0:
190,88,95828,5,0,0:0:0:0:
148,69,95921,1,0,0:0:0:0:
191,70,96015,1,0,0:0:0:0:
239,70,96109,1,0,0:0:0:0:
429,51,96203,1,0,0:0:0:0:
