osu file format v14

[General]
AudioFilename: Loadstar.mp3
AudioLeadIn: 0
PreviewTime: 23847
Countdown: 0
SampleSet: Soft
StackLeniency: 0.2
Mode: 0
LetterboxInBreaks: 0
WidescreenStoryboard: 1

[Editor]
Bookmarks: 90180
DistanceSpacing: 1
BeatDivisor: 4
GridSize: 32
TimelineZoom: 1.3

[Metadata]
Title:Loadstar
TitleUnicode:Loadstar
Artist:M2U
ArtistUnicode:M2U
Creator:Xilver15
Version:Normal
Source:Deemo
Tags:M2U X NICODE Collection myosotis DIVERSITY UICY-15598 rayark chinese erhu piano
BeatmapID:2409484
BeatmapSetID:656760

[Difficulty]
HPDrainRate:4
CircleSize:3.5
OverallDifficulty:5
ApproachRate:5
SliderMultiplier:1.5
SliderTickRate:1

[Events]
//Background and Video events
0,0,"Loadstar.png",0,0
//Break Periods
//Storyboard Layer 0 (Background)
//Storyboard Layer 1 (Fail)
//Storyboard Layer 2 (Pass)
//Storyboard Layer 3 (Foreground)
//Storyboard Layer 4 (Overlay)
//Storyboard Sound Samples

[TimingPoints]
2681,666.666666666667,4,2,1,30,1,0
2681,-117.647058823529,4,2,1,30,0,0
24014,-100,4,2,1,30,0,0
45014,-111.111111111111,4,2,1,30,0,0
66014,-83.3333333333333,4,2,1,30,0,0
66681,-83.3333333333333,4,2,1,30,0,1
85347,-100,4,2,1,30,0,0
87681,-111.111111111111,4,2,1,30,0,0
108681,-83.3333333333333,4,2,1,30,0,0
109347,-83.3333333333333,4,2,1,30,0,1
128014,-100,4,2,1,30,0,0
130681,-100,4,2,1,30,0,0
136014,-117.647058823529,4,2,1,30,0,0
142681,984.413453650533,4,2,1,30,1,0
143173,1333.33333333333,4,2,1,30,1,0
143839,1666.66666666667,4,2,1,30,1,0
144672,1200,4,2,1,30,1,0
145872,1200,4,2,1,30,1,0

[Colours]
Combo1 : 41,120,200
Combo2 : 241,241,21
Combo3 : 41,48,126
Combo4 : 251,114,0

[HitObjects]
65,342,2681,22,0,B|106:350|106:350|145:315|145:315|201:334|238:312,1,191.250003647804,2|0,0:0|0:0,0:0:0:0:
356,263,4347,2,0,P|356:229|333:187,2,63.7500012159348,0|0|0,0:0|0:0|0:0,0:0:0:0:
400,308,5347,2,0,B|358:316|358:316|319:281|319:281|263:300|226:278,1,191.250003647804,2|0,0:0|0:0,0:0:0:0:
102,197,7014,2,0,P|105:162|128:120,2,63.7500012159348,0|0|0,0:0|0:0|0:0,0:0:0:0:
68,249,8014,22,0,P|141:239|243:160,1,191.250003647804,2|0,0:0|0:0,0:0:0:0:
359,143,9681,2,0,P|355:108|332:66,2,63.7500012159348,0|0|0,0:0|0:0|0:0,0:0:0:0:
393,195,10682,2,0,P|320:185|255:77,1,191.250003647804,0|0,0:0|0:0,0:0:0:0:
128,105,12347,2,0,L|106:38,2,63.7500012159348,0|0|0,0:0|0:0|0:0,0:0:0:0:
111,166,13347,21,0,0:0:0:0:
249,256,14014,2,0,P|227:232|210:205,1,63.7500012159348,2|0,0:0|0:0,0:0:0:0:
255,135,14681,1,0,0:0:0:0:
351,269,15347,2,0,P|377:248|392:209,1,63.7500012159348,2|0,0:0|0:0,0:0:0:0:
332,161,16014,2,0,P|321:140|314:99,1,63.7500012159348,0|0,0:0|0:0,0:0:0:0:
396,91,16681,2,0,L|459:41,2,63.7500012159348,0|0|2,0:0|0:0|0:0,0:0:0:0:
231,109,18014,1,2,0:0:0:0:
68,77,18681,21,0,0:0:0:0:
139,226,19347,2,0,P|136:262|101:286,2,63.7500012159348,8|0|0,0:0|0:0|0:0,0:0:0:0:
295,280,20681,2,0,L|382:274,1,63.7500012159348,8|0,0:0|0:0,0:0:0:0:
421,329,21347,2,0,P|393:269|512:141,1,255.000004863739,0|0,0:0|0:0,0:0:0:0:
188,81,24014,37,10,0:0:0:0:
86,145,24681,2,0,B|116:120|141:116|141:116|168:123|168:123|199:99|247:161|300:133,1,225,8|0,0:0|2:0,0:0:0:0:
349,111,26014,1,8,2:0:0:0:
406,126,26347,1,0,2:0:0:0:
459,99,26681,1,2,0:0:0:0:
500,141,27014,2,0,B|476:157|476:184|476:184|492:188|492:188|496:205|424:192|361:213|317:250|307:315,1,300,8|0,0:0|0:0,0:0:0:0:
473,330,29347,21,10,0:0:0:0:
353,344,30014,2,0,B|311:378|311:226|169:233,1,225,8|0,0:0|0:0,0:0:0:0:
117,225,31347,1,8,0:0:0:0:
85,173,31681,1,0,0:0:0:0:
69,115,32014,2,0,P|207:78|441:148,1,375,10|0,0:0|0:0,0:0:0:0:
364,307,34681,21,6,0:0:0:0:
245,324,35347,1,8,0:0:0:0:
134,276,36014,2,0,P|175:263|217:229,1,75,2|0,0:0|0:0,0:0:0:0:
237,197,36681,1,8,0:0:0:0:
181,173,37014,2,0,P|143:121|249:42,1,225,8|0,0:0|0:0,0:0:0:0:
363,52,38681,1,2,0:0:0:0:
390,107,39014,1,0,0:0:0:0:
373,164,39347,1,2,0:0:0:0:
398,218,39681,1,8,0:0:0:0:
377,274,40014,21,2,0:0:0:0:
291,189,40681,2,0,P|276:150|291:104,1,75,8|0,0:0|0:0,0:0:0:0:
325,76,41347,1,2,0:0:0:0:
205,90,42014,2,0,P|167:106|116:100,1,75,0|0,0:0|0:0,0:0:0:0:
82,74,42681,2,0,B|121:79|124:121|124:121|63:154|54:240|91:309|146:322,1,300,2|0,0:0|0:0,0:0:0:0:
247,323,45014,6,0,B|262:314|262:314|276:318|276:318|289:313|289:313|308:315|308:315|330:308,1,67.4999979400635,0|2,0:0|0:0,0:0:0:0:
376,328,45681,2,0,P|332:267|349:191,1,134.999995880127,0|0,0:0|0:0,0:0:0:0:
367,149,46681,1,2,0:0:0:0:
271,38,47347,2,0,L|176:58,1,67.4999979400635,8|0,0:0|0:0,0:0:0:0:
139,34,48014,21,2,0:0:0:0:
210,148,48681,2,0,P|173:162|120:153,1,67.4999979400635,2|0,0:0|0:0,0:0:0:0:
78,144,49348,1,2,0:0:0:0:
159,251,50014,1,10,0:0:0:0:
91,257,50347,1,0,0:0:0:0:
205,327,51014,22,0,P|238:294|246:265,2,67.4999979400635,0|0|0,0:0|0:0|0:0,0:0:0:0:
267,352,52014,2,0,P|310:323|377:294,1,101.249996910095,2|0,0:0|0:0,0:0:0:0:
381,322,52681,2,0,P|416:322|454:307,1,67.4999979400635,0|0,0:0|0:0,0:0:0:0:
500,271,53347,1,2,0:0:0:0:
447,228,53681,2,0,P|277:142|242:75,1,269.999991760254,0|0,0:0|0:0,0:0:0:0:
282,23,55347,2,0,P|311:25|357:49,1,67.4999979400635,8|0,0:0|0:0,0:0:0:0:
404,74,56014,5,2,0:0:0:0:
328,185,56681,1,0,0:0:0:0:
207,243,57347,1,2,0:0:0:0:
75,272,58014,6,0,P|72:233|86:201,1,67.4999979400635,8|0,0:0|0:0,0:0:0:0:
67,141,58681,2,0,P|130:200|201:219,1,134.999995880127,2|8,0:0|0:0,0:0:0:0:
240,204,59681,2,0,P|239:181|230:161,2,33.7499989700318,0|0|2,0:0|0:0|0:0,0:0:0:0:
281,75,60681,1,2,0:0:0:0:
347,61,61014,1,0,0:0:0:0:
412,78,61347,1,2,0:0:0:0:
455,129,61681,22,0,B|480:155|393:154|417:249,1,134.999995880127,0|0,0:0|0:0,0:0:0:0:
415,313,62681,2,0,P|382:325|343:321,1,67.4999979400635,2|0,0:0|0:0,0:0:0:0:
288,334,63347,2,0,P|275:314|235:295,2,67.4999979400635,0|8|2,0:0|0:0|0:0,0:0:0:0:
152,341,64681,1,10,0:0:0:0:
138,206,65347,1,2,0:0:0:0:
227,71,66014,37,0,0:0:0:0:
284,45,66347,1,0,0:0:0:0:
344,62,66681,1,6,0:0:0:0:
491,154,67347,1,0,0:0:0:0:
434,180,67681,1,0,0:0:0:0:
374,163,68015,1,2,0:0:0:0:
253,260,68681,1,0,0:0:0:0:
310,234,69014,1,0,0:0:0:0:
370,251,69348,1,0,0:0:0:0:
421,287,69681,2,0,P|464:294|516:258,2,89.9999972534181,0|8|0,0:0|0:0|0:0,0:0:0:0:
350,342,70681,2,0,L|252:363,1,89.9999972534181,0|0,0:0|0:0,0:0:0:0:
194,279,71347,21,2,0:0:0:0:
255,264,71681,1,0,0:0:0:0:
316,251,72014,1,2,0:0:0:0:
435,122,72681,1,0,0:0:0:0:
374,137,73015,1,0,0:0:0:0:
313,150,73348,1,6,0:0:0:0:
156,89,74014,1,0,0:0:0:0:
217,74,74348,1,0,0:0:0:0:
278,61,74681,1,2,0:0:0:0:
339,45,75014,2,0,L|432:24,2,89.9999972534181,0|8|0,0:0|0:0|0:0,0:0:0:0:
331,107,76014,2,0,P|339:197|414:237,1,179.999994506836,2|0,0:0|0:0,0:0:0:0:
478,343,77347,21,2,0:0:0:0:
300,310,78014,1,0,0:0:0:0:
336,258,78347,1,0,0:0:0:0:
328,195,78681,1,2,0:0:0:0:
197,71,79347,1,0,0:0:0:0:
166,126,79681,1,0,0:0:0:0:
165,188,80014,1,2,0:0:0:0:
185,247,80347,2,0,P|139:265|83:262,2,89.9999972534181,0|0|8,0:0|0:0|0:0,0:0:0:0:
243,224,81347,1,2,0:0:0:0:
385,334,82014,1,2,0:0:0:0:
408,155,82681,21,0,0:0:0:0:
264,54,83347,1,2,0:0:0:0:
200,56,83681,1,0,0:0:0:0:
143,82,84014,1,0,0:0:0:0:
37,231,84681,1,2,0:0:0:0:
101,229,85015,1,0,0:0:0:0:
158,203,85347,2,0,B|130:162|222:162|234:251|306:264|379:251|426:202,1,300,0|0,0:0|0:0,0:0:0:0:
237,71,87681,38,0,P|221:70|204:66,2,33.7499989700318,0|0|2,0:0|0:0|0:0,0:0:0:0:
303,56,88347,1,0,0:0:0:0:
368,42,88681,2,0,B|386:89|386:89|356:125|370:174,1,134.999995880127,10|2,0:0|0:0,0:0:0:0:
454,272,90014,1,8,0:0:0:0:
333,333,90681,21,2,0:0:0:0:
202,297,91347,1,8,0:0:0:0:
321,233,92014,2,0,P|337:203|339:165,1,67.4999979400635,2|0,0:0|0:0,0:0:0:0:
291,122,92681,2,0,P|264:93|275:59,1,67.4999979400635,0|8,0:0|0:0,0:0:0:0:
315,19,93347,21,2,0:0:0:0:
423,98,94014,1,0,0:0:0:0:
468,225,94681,1,2,0:0:0:0:
342,273,95347,2,0,P|305:289|267:285,1,67.4999979400635,0|0,0:0|0:0,0:0:0:0:
215,262,96014,1,2,0:0:0:0:
259,211,96347,2,0,B|249:137|169:99|104:107|104:107|76:140|32:133,1,269.999991760254,0|0,0:0|0:0,0:0:0:0:
68,198,98014,2,0,L|86:272,1,67.4999979400635,0|0,0:0|0:0,0:0:0:0:
129,313,98681,21,2,0:0:0:0:
192,289,99014,1,0,0:0:0:0:
257,305,99347,1,2,0:0:0:0:
320,283,99681,1,0,0:0:0:0:
385,297,100014,1,0,0:0:0:0:
298,193,100681,2,0,P|283:157|290:121,1,67.4999979400635,0|0,0:0|0:0,0:0:0:0:
245,75,101347,21,2,0:0:0:0:
191,116,101681,1,0,0:0:0:0:
166,179,102014,1,0,0:0:0:0:
108,214,102347,1,0,0:0:0:0:
78,275,102681,2,0,P|117:299|149:307,1,67.4999979400635,2|0,0:0|0:0,0:0:0:0:
203,319,103347,2,0,P|214:282|211:228,1,67.4999979400635,2|0,0:0|0:0,0:0:0:0:
178,196,104014,21,2,0:0:0:0:
115,76,104681,1,8,0:0:0:0:
177,50,105014,1,0,0:0:0:0:
243,61,105347,2,0,P|270:87|312:98,1,67.4999979400635,2|0,0:0|0:0,0:0:0:0:
365,93,106014,2,0,P|408:90|453:110,1,67.4999979400635,8|0,0:0|0:0,0:0:0:0:
455,159,106681,21,2,0:0:0:0:
323,187,107347,1,2,0:0:0:0:
195,141,108014,1,0,0:0:0:0:
85,214,108681,37,0,0:0:0:0:
128,258,109014,1,0,0:0:0:0:
183,287,109347,2,0,P|223:313|267:314,1,89.9999972534181,6|0,0:0|0:0,0:0:0:0:
359,273,110014,1,8,0:0:0:0:
315,229,110347,1,0,0:0:0:0:
260,199,110680,2,0,P|219:172|175:171,1,89.9999972534181,6|0,0:0|0:0,0:0:0:0:
204,34,111347,1,8,0:0:0:0:
248,79,111680,1,0,0:0:0:0:
303,108,112013,2,0,P|343:134|387:135,1,89.9999972534181,2|0,0:0|0:0,0:0:0:0:
431,168,112681,2,0,P|395:201|415:230,1,89.9999972534181,8|0,0:0|0:0,0:0:0:0:
450,280,113347,2,0,L|336:296,1,89.9999972534181,0|0,0:0|0:0,0:0:0:0:
272,311,114014,21,2,0:0:0:0:
284,249,114347,1,0,0:0:0:0:
296,187,114681,2,0,L|312:98,1,89.9999972534181,2|0,0:0|0:0,0:0:0:0:
215,21,115347,1,8,0:0:0:0:
203,83,115680,1,0,0:0:0:0:
191,145,116014,2,0,B|171:166|171:166|191:202|174:233,1,89.9999972534181,6|0,0:0|0:0,0:0:0:0:
115,289,116681,1,0,0:0:0:0:
173,311,117014,1,0,0:0:0:0:
235,305,117347,1,2,0:0:0:0:
297,309,117681,2,0,P|302:269|320:213,2,89.9999972534181,0|0|0,0:0|0:0|0:0,0:0:0:0:
354,334,118681,1,2,0:0:0:0:
438,175,119347,1,0,0:0:0:0:
322,36,120014,22,0,B|301:28|301:28|289:37|289:37|253:14|171:36|141:66,1,179.999994506836,6|8,0:0|0:0,0:0:0:0:
110,135,121014,1,0,0:0:0:0:
170,152,121347,2,0,B|169:217|203:142|301:142|331:186,1,179.999994506836,2|8,0:0|0:0,0:0:0:0:
373,252,122347,1,0,0:0:0:0:
313,269,122681,2,0,B|313:305|294:263|238:263|221:288,2,89.9999972534181,2|0|8,0:0|0:0|0:0,0:0:0:0:
298,207,123681,1,0,0:0:0:0:
313,145,124014,1,2,0:0:0:0:
187,150,124681,1,2,0:0:0:0:
70,196,125347,21,0,0:0:0:0:
203,316,126014,1,2,0:0:0:0:
227,258,126347,1,0,0:0:0:0:
210,197,126681,1,0,0:0:0:0:
329,62,127347,1,2,0:0:0:0:
305,120,127680,1,0,0:0:0:0:
322,181,128014,2,0,P|335:281|400:172,1,300,0|0,0:0|0:0,0:0:0:0:
428,94,129681,2,0,P|426:61|459:39,2,75,0|0|0,0:0|0:0|0:0,0:0:0:0:
483,144,130681,5,2,0:0:0:0:
448,289,131347,1,8,0:0:0:0:
403,317,131681,1,0,0:0:0:0:
350,310,132014,1,2,0:0:0:0:
243,204,132681,1,8,0:0:0:0:
194,224,133014,1,0,0:0:0:0:
86,329,133681,6,0,L|61:288,10,37.5,0|0|0|0|0|0|0|0|0|0|0,0:0|0:0|0:0|0:0|0:0|0:0|0:0|0:0|0:0|0:0|0:0,0:0:0:0:
182,346,135681,1,0,0:0:0:0:
264,350,136014,6,0,B|301:345|306:314|306:314|273:296|267:228|304:196,1,191.250003647804,0|8,0:0|0:0,0:0:0:0:
411,132,137681,2,0,L|376:53,2,63.7500012159348,0|8|0,0:0|0:0|0:0,0:0:0:0:
461,171,138681,2,0,B|444:204|413:199|413:199|406:162|344:136|302:161,1,191.250003647804,2|8,0:0|0:0,0:0:0:0:
208,243,140348,2,0,P|197:222|140:196,2,63.7500012159348,0|8|0,0:0|0:0|0:0,0:0:0:0:
195,305,141347,22,0,P|288:279|393:274,1,191.250003647804,2|8,0:0|0:0,0:0:0:0:
424,190,143173,2,0,P|393:192|334:193,1,75,0|8,0:0|0:0,0:0:0:0:
245,181,144672,1,0,0:0:0:0:
168,51,145872,37,2,0:0:0:0:
