osu file format v14

[General]
AudioFilename: audio.mp3
AudioLeadIn: 0
PreviewTime: 84066
Countdown: 0
SampleSet: Soft
StackLeniency: 0.7
Mode: 0
LetterboxInBreaks: 0
EpilepsyWarning: 1
WidescreenStoryboard: 1

[Editor]
Bookmarks: 1660,10660,13660,24160,30160,42160,47410,47597,47785,47972,48160,54160,56410,58660,60160,84160,90160,102160,114160,118660,120160,123160
DistanceSpacing: 1.9
BeatDivisor: 4
GridSize: 4
TimelineZoom: 1

[Metadata]
Title:Howling
TitleUnicode:Howling
Artist:M2U
ArtistUnicode:M2U
Creator:xXRosalineXx
Version:Intermediate
Source:
Tags:
BeatmapID:1218724
BeatmapSetID:575529

[Difficulty]
HPDrainRate:4.6
CircleSize:3.7
OverallDifficulty:5
ApproachRate:6.6
SliderMultiplier:0.85
SliderTickRate:1

[Events]
//Background and Video events
0,0,"zskqzka.png",0,0
//Break Periods
2,90360,95200
//Storyboard Layer 0 (Background)
//Storyboard Layer 1 (Fail)
//Storyboard Layer 2 (Pass)
//Storyboard Layer 3 (Foreground)
//Storyboard Sound Samples

[TimingPoints]
1660,375,4,2,1,60,1,0
1660,-100,4,2,1,60,0,0
10660,-100,4,2,1,60,0,1
11035,-100,4,2,1,60,0,0
13660,-133.333333333333,4,2,1,60,0,0
24160,-99.9999999999999,4,2,1,60,0,0
30160,-111.111111111111,4,2,1,30,0,0
36160,-111.111111111111,4,2,1,40,0,0
37660,-111.111111111111,4,2,1,45,0,0
39160,-111.111111111111,4,2,1,50,0,0
40660,-111.111111111111,4,2,1,55,0,0
42160,-100,4,2,1,60,0,1
54160,-105.263157894737,4,2,1,60,0,0
84160,-99.9999999999999,4,2,1,60,0,1
90160,-105.263157894737,4,2,1,60,0,0
102160,-105.263157894737,4,2,1,60,0,1
113785,-105.263157894737,4,2,1,60,0,0
114160,-105.263157894737,4,2,1,60,0,1
118660,-105.263157894737,4,2,1,60,0,0

[Colours]
Combo1 : 173,173,173
Combo2 : 255,0,6
Combo3 : 174,0,0
Combo4 : 60,60,60
Combo5 : 129,100,71
Combo6 : 255,242,168

[HitObjects]
188,184,1660,6,0,L|128:184,2,42.5
260,220,2222,2,0,L|312:220,2,42.5
196,268,2785,2,0,L|144:268,2,42.5
264,312,3347,2,0,L|316:312,2,42.5
196,352,3910,1,0,0:0:0:0:
36,348,4285,1,0,0:0:0:0:
68,188,4660,2,0,L|68:136,2,42.5
128,240,5222,2,0,L|128:288,2,42.5
192,188,5785,2,0,L|192:140,2,42.5
256,236,6347,2,0,L|256:284,2,42.5
308,176,6910,1,0,0:0:0:0:
468,176,7285,1,0,0:0:0:0:
336,84,7660,2,0,P|292:56|252:48,1,85
212,112,8222,2,0,P|224:152|220:200,1,85
140,196,8785,2,0,P|92:196|52:224,1,85
88,292,9347,2,0,L|104:336,2,42.5
60,214,9910,1,0,0:0:0:0:
40,52,10285,2,0,L|88:24,1,42.5
152,60,10660,2,0,P|196:106|232:112,1,85
280,156,11222,2,0,P|272:208|244:240,1,85
324,272,11785,2,0,P|376:280|408:308,1,85
372,376,12347,2,0,P|320:368|288:340,1,85
244,288,12910,1,0,0:0:0:0:
136,168,13285,1,0,0:0:0:0:
216,76,13660,2,0,P|256:68|284:68,1,63.7500024318696
312,184,14410,2,0,L|296:224,1,31.8750012159348
328,268,14785,2,0,L|316:304,1,31.8750012159348
268,336,15160,2,0,P|224:344|176:328,1,95.6250036478044
160,268,15910,2,0,P|108:248|68:256,1,95.6250036478044
70,255,16660,2,0,P|52:236|48:192,1,63.7500024318696
80,148,17222,1,0,0:0:0:0:
132,116,17410,2,0,L|172:120,1,31.8750012159348
204,164,17785,2,0,L|244:168,1,31.8750012159348
296,156,18160,2,0,L|364:188,1,63.7500024318696
404,216,18722,1,0,0:0:0:0:
424,272,18910,2,0,L|424:316,2,31.8750012159348
452,156,19660,2,0,P|440:125|415:99,1,63.7500024318696
360,88,20222,1,0,0:0:0:0:
308,120,20410,2,0,P|288:164|292:192,1,63.7500024318696
304,236,20972,2,0,L|312:252,2,15.9375006079674
260,196,21347,2,0,P|240:188|216:192,1,31.8750012159348
180,224,21722,2,0,P|152:232|136:228,1,31.8750012159348
92,216,22097,2,0,L|56:208,2,31.8750012159348
132,172,22660,2,0,L|160:144,1,31.8750012159348
200,108,23035,2,0,L|232:80,1,31.8750012159348
272,48,23410,2,0,L|308:24,1,31.8750012159348
360,36,23785,2,0,L|380:68,1,31.8750012159348
424,128,24160,1,0,0:0:0:0:
412,368,24722,2,0,P|368:384|316:380,1,85
272,328,25284,2,0,P|280:288|260:240,1,85
184,232,25847,2,0,P|156:236|100:220,1,85
80,188,26316,1,0,0:0:0:0:
76,148,26410,1,0,0:0:0:0:
80,68,26597,2,0,L|80:16,2,42.5
152,108,27160,2,0,B|200:104|200:104|244:120,1,85
228,196,27722,2,0,B|228:240|228:240|244:280,1,85
324,276,28285,2,0,B|339:237|339:237|339:193,1,85
304,120,28847,2,0,B|252:100|252:100|264:132|180:112,1,127.5
64,144,29785,1,0,0:0:0:0:
136,272,30160,2,0,L|112:312,2,38.2499988327027
176,212,30722,1,0,0:0:0:0:
236,252,30910,2,0,P|256:264|280:272,1,38.2499988327027
340,252,31285,2,0,P|364:256|388:272,1,38.2499988327027
444,288,31660,2,0,L|468:248,2,38.2499988327027
388,336,32222,1,0,0:0:0:0:
316,352,32410,2,0,L|272:328,1,38.2499988327027
220,372,32785,2,0,L|184:348,1,38.2499988327027
128,308,33160,2,0,P|92:260|88:244,1,76.4999976654053
92,172,33722,1,0,0:0:0:0:
120,104,33910,2,0,P|176:100|204:112,1,76.4999976654053
248,156,34472,1,0,0:0:0:0:
308,196,34660,2,0,L|360:196,2,38.2499988327027
240,224,35222,1,0,0:0:0:0:
168,236,35410,1,0,0:0:0:0:
32,180,35785,1,0,0:0:0:0:
160,112,36160,2,0,P|191:80|226:59,1,76.4999976654053
292,56,36722,1,0,0:0:0:0:
360,80,36910,2,0,P|382:110|396:146,1,76.4999976654053
368,216,37472,1,0,0:0:0:0:
304,180,37660,2,0,L|276:140,2,38.2499988327027
308,252,38222,1,0,0:0:0:0:
272,316,38410,2,0,B|224:324|224:324|184:316,1,76.4999976654053
128,292,38972,1,0,0:0:0:0:
84,236,39160,2,0,P|60:200|64:160,2,76.4999976654053
148,204,40097,2,0,P|192:184|232:184,1,76.4999976654053
284,220,40660,2,0,L|300:268,2,38.2499988327027
260,152,41222,1,0,0:0:0:0:
300,92,41410,2,0,P|336:68|380:68,1,76.4999976654053
432,100,41972,1,0,0:0:0:0:
460,176,42160,2,0,P|452:204|448:232,1,42.5
408,288,42535,2,0,P|380:304|360:304,1,42.5
292,320,42910,2,0,L|244:320,2,42.5
328,248,43472,1,0,0:0:0:0:
300,172,43660,2,0,P|288:136|272:124,1,42.5
208,108,44035,2,0,P|184:104|160:104,1,42.5
92,136,44410,1,0,0:0:0:0:
84,176,44503,1,0,0:0:0:0:
92,216,44597,2,0,L|108:256,1,42.5
152,324,44972,1,0,0:0:0:0:
232,344,45160,2,0,L|276:300,1,42.5
344,320,45535,2,0,L|384:280,1,42.5
396,212,45910,2,0,L|388:164,1,42.5
364,136,46191,1,0,0:0:0:0:
336,108,46285,2,0,P|316:80|296:68,2,42.5
292,176,46847,1,0,0:0:0:0:
240,240,47035,2,0,L|256:288,1,42.5
332,304,47410,2,0,L|380:276,2,42.5
256,324,47972,1,0,0:0:0:0:
180,296,48160,2,0,P|164:260|164:208,1,85
220,156,48722,1,0,0:0:0:0:
292,116,48910,2,0,P|332:108|380:120,1,85
440,164,49472,1,0,0:0:0:0:
432,244,49660,2,0,P|416:264|388:276,1,42.5
352,208,50035,2,0,P|324:212|296:208,1,42.5
344,136,50410,2,0,P|308:124|276:84,1,85
244,16,50972,1,0,0:0:0:0:
164,24,51160,2,0,L|108:40,1,42.5
184,88,51535,2,0,L|144:132,1,42.5
236,132,51910,2,0,L|232:184,2,42.5
256,56,52472,1,0,0:0:0:0:
336,44,52660,2,0,L|380:32,1,42.5
368,112,53035,2,0,L|424:120,2,42.5
312,172,53597,2,0,L|268:180,2,42.5
380,208,54160,2,0,L|376:260,1,40.3749989218712
320,300,54535,2,0,L|312:348,1,40.3749989218712
236,332,54910,1,0,0:0:0:0:
172,292,55097,1,0,0:0:0:0:
152,216,55285,1,0,0:0:0:0:
168,140,55472,1,0,0:0:0:0:
232,100,55660,2,0,L|280:108,1,40.3749989218712
300,132,55941,1,0,0:0:0:0:
328,160,56035,2,0,L|368:164,1,40.3749989218712
444,180,56410,2,0,L|488:184,1,40.3749989218712
444,248,56785,2,0,L|488:268,1,40.3749989218712
416,308,57160,2,0,P|428:328|420:356,3,40.3749989218712
348,348,57910,2,0,P|336:328|344:300,3,40.3749989218712
344,236,58660,2,0,P|352:212|316:164,1,80.7499978437424
176,124,59410,2,0,P|128:168|116:192,1,80.7499978437424
224,296,60160,2,0,L|264:320,2,40.3749989218712
156,260,60722,1,0,0:0:0:0:
96,212,60910,2,0,B|64:224|44:240|44:240|25:234|25:234|20:208|20:208|40:184|80:172|80:172|52:144|48:80|96:76,1,282.624992453099
156,92,62410,2,0,L|220:148,1,80.7499978437424
308,268,63160,2,0,L|352:308,2,40.3749989218712
284,196,63722,1,0,0:0:0:0:
332,136,63910,2,0,B|288:52|272:8|328:4|372:0|380:-4|436:192|232:28|244:104,1,322.99999137497
208,236,65785,1,0,0:0:0:0:
56,212,66160,2,0,L|12:168,2,60.5624983828068
92,144,66910,2,0,L|36:88,2,60.5624983828068
156,188,67660,2,0,P|204:200|248:192,1,80.7499978437424
272,184,68128,1,0,0:0:0:0:
300,156,68222,1,0,0:0:0:0:
308,120,68316,1,0,0:0:0:0:
288,88,68410,2,0,L|356:40,1,80.7499978437424
424,178,69160,2,0,P|436:202|436:222,2,40.3749989218712
360,136,69722,1,0,0:0:0:0:
288,168,69910,2,0,B|308:196|236:252|204:228|172:140|244:120|280:152|280:152|264:108|284:84|284:84|280:36,1,322.99999137497
412,128,71785,1,0,0:0:0:0:
452,276,72160,1,6,0:0:0:0:
380,304,72347,2,0,L|332:316,1,40.3749989218712
264,328,72722,1,0,0:0:0:0:
188,320,72910,2,0,B|188:208|188:208|160:164|104:204|104:248|152:280|208:240|208:240|248:236,1,322.99999137497
248,84,74785,1,0,0:0:0:0:
104,36,75160,2,0,L|56:16,2,40.3749989218712
176,60,75722,1,0,0:0:0:0:
244,96,75910,2,0,B|228:116|248:136|248:136|260:108|312:108|336:128|316:168|316:168|340:196|320:232|264:232|252:208|252:208|232:224|248:248,1,322.99999137497
356,344,77785,1,0,0:0:0:0:
204,328,78160,2,0,P|180:324|136:340,1,60.5624983828068
32,360,78722,1,0,0:0:0:0:
32,284,78910,2,0,P|43:239|57:224,1,60.5624983828068
128,144,79472,1,0,0:0:0:0:
220,76,79753,2,0,L|276:44,1,60.5624983828068
344,72,80222,1,0,0:0:0:0:
368,104,80316,1,0,0:0:0:0:
364,144,80410,2,0,P|340:188|344:224,1,80.7499978437424
224,312,81160,2,0,L|188:332,2,40.3749989218712
240,236,81722,2,0,P|252:196|192:96,1,161.499995687485
196,98,82660,2,0,P|268:98|304:54,1,121.124996765614
376,68,83410,2,0,L|424:88,1,40.3749989218712
348,120,83785,2,0,L|384:160,1,40.3749989218712
316,204,84160,2,0,P|300:232|288:288,1,85
208,284,84722,2,0,P|160:264|116:280,1,85
48,264,85285,2,0,P|52:300|92:340,1,85
160,356,85847,1,0,0:0:0:0:
276,244,86222,1,0,0:0:0:0:
332,188,86410,1,0,0:0:0:0:
328,148,86503,1,0,0:0:0:0:
304,116,86597,1,0,0:0:0:0:
228,92,86785,1,0,0:0:0:0:
152,116,86972,1,0,0:0:0:0:
96,176,87160,2,0,P|72:220|72:256,1,85
152,256,87722,2,0,B|96:224|60:268,1,85
108,328,88285,2,0,B|116:368|116:368|168:372,1,85
236,348,88847,1,0,0:0:0:0:
364,252,89222,1,0,0:0:0:0:
384,216,89316,1,0,0:0:0:0:
380,176,89410,1,0,0:0:0:0:
276,52,89785,1,0,0:0:0:0:
168,160,90160,1,0,0:0:0:0:
256,148,96160,6,0,P|272:184|256:228,1,80.7499978437424
140,320,96910,2,0,L|112:356,1,40.3749989218712
104,276,97285,2,0,L|56:276,1,40.3749989218712
100,208,97660,2,0,P|72:188|112:112,1,121.124996765614
152,68,98410,2,0,P|172:44|176:24,1,40.3749989218712
172,112,98785,2,0,P|204:112|224:96,1,40.3749989218712
288,104,99160,2,0,P|320:152|312:184,1,80.7499978437424
284,240,99722,1,0,0:0:0:0:
292,316,99910,2,0,P|320:336|368:328,2,80.7499978437424
232,272,100847,1,0,0:0:0:0:
196,256,100941,1,0,0:0:0:0:
156,252,101035,1,0,0:0:0:0:
88,212,101222,1,0,0:0:0:0:
56,144,101410,1,0,0:0:0:0:
184,64,101785,2,0,L|232:92,1,40.3749989218712
256,152,102160,2,0,L|236:196,1,40.3749989218712
308,156,102535,2,0,L|316:208,1,40.3749989218712
344,124,102910,2,0,L|380:156,1,40.3749989218712
416,216,103285,1,0,0:0:0:0:
384,288,103472,1,0,0:0:0:0:
312,316,103660,2,0,L|260:296,1,40.3749989218712
200,324,104035,2,0,L|144:304,1,40.3749989218712
100,264,104410,2,0,L|84:224,1,40.3749989218712
76,188,104691,2,0,L|64:156,1,20.1874994609356
88,136,104878,2,0,L|76:100,2,20.1874994609356
124,152,105160,2,0,B|140:160|140:160|180:152,1,40.3749989218712
228,120,105535,2,0,B|256:112|256:112|284:116,1,40.3749989218712
336,148,105910,2,0,L|360:160,2,20.1874994609356
292,212,106285,2,0,L|308:236,2,20.1874994609356
232,256,106660,2,0,L|220:296,1,40.3749989218712
144,300,107035,2,0,L|120:268,1,40.3749989218712
116,192,107410,2,0,L|140:148,1,40.3749989218712
176,92,107785,1,0,0:0:0:0:
240,52,107972,1,0,0:0:0:0:
316,36,108160,2,0,P|372:20|428:68,1,121.124996765614
392,124,108910,2,0,P|380:164|440:212,1,121.124996765614
428,288,109660,2,0,L|372:304,1,40.3749989218712
312,300,110035,2,0,L|264:276,1,40.3749989218712
200,276,110410,2,0,L|152:276,1,40.3749989218712
84,260,110785,2,0,L|64:220,1,40.3749989218712
76,188,111066,1,0,0:0:0:0:
88,152,111160,2,0,L|68:100,1,40.3749989218712
124,56,111535,2,0,L|144:96,1,40.3749989218712
172,164,111910,2,0,P|176:184|184:204,3,40.3749989218712
236,260,112660,2,0,P|260:264|316:232,1,80.7499978437424
360,184,113222,1,0,0:0:0:0:
396,116,113410,2,0,L|360:84,1,40.3749989218712
304,44,113785,1,0,0:0:0:0:
228,52,113972,1,0,0:0:0:0:
172,104,114160,2,0,L|124:124,1,40.3749989218712
60,128,114535,2,0,L|16:112,1,40.3749989218712
8,188,114910,2,0,L|52:204,1,40.3749989218712
80,216,115191,1,0,0:0:0:0:
108,244,115285,2,0,L|136:288,1,40.3749989218712
208,280,115660,2,0,L|232:248,1,40.3749989218712
276,312,116035,2,0,L|304:272,1,40.3749989218712
368,244,116410,2,0,P|396:228|416:224,1,40.3749989218712
440,212,116691,1,0,0:0:0:0:
476,196,116785,2,0,P|496:176|504:156,1,40.3749989218712
444,112,117160,2,0,L|416:80,1,40.3749989218712
400,156,117535,2,0,L|352:144,1,40.3749989218712
400,212,117910,2,0,L|364:228,1,40.3749989218712
440,244,118285,2,0,L|436:288,1,40.3749989218712
412,356,118660,1,0,0:0:0:0:
188,144,119410,1,0,0:0:0:0:
256,192,120160,12,6,123066,0:0:0:0:
