osu file format v14

[General]
AudioFilename: audio.mp3
AudioLeadIn: 0
PreviewTime: 60105
Countdown: 0
SampleSet: Normal
StackLeniency: 0.9
Mode: 0
LetterboxInBreaks: 0
WidescreenStoryboard: 1

[Editor]
DistanceSpacing: 1
BeatDivisor: 4
GridSize: 16
TimelineZoom: 1.8

[Metadata]
Title:Howling
TitleUnicode:Howling
Artist:M2U
ArtistUnicode:M2U
Creator:Anderzay
Version:Normal
Source:
Tags:M2U
BeatmapID:1236202
BeatmapSetID:584179

[Difficulty]
HPDrainRate:2
CircleSize:2
OverallDifficulty:2
ApproachRate:4
SliderMultiplier:0.999999904632568
SliderTickRate:2

[Events]
//Background and Video events
0,0,"HOWL.jpeg",0,0
//Break Periods
2,13980,18285
2,84105,88785
//Storyboard Layer 0 (Background)
//Storyboard Layer 1 (Fail)
//Storyboard Layer 2 (Pass)
//Storyboard Layer 3 (Foreground)
//Storyboard Sound Samples

[TimingPoints]
1605,375,4,1,0,60,1,0
19605,-100,4,2,0,60,0,0
24105,-100,4,1,0,60,0,0
30105,-100,4,2,0,60,0,0
42105,-100,4,1,0,60,0,1
58605,-100,4,1,0,60,0,0
90105,-100,4,2,0,60,0,0
102105,-100,4,1,0,60,0,1
118605,-100,4,1,0,60,0,0
120105,-100,4,1,0,5,0,0
122917,-100,4,1,0,100,0,0

[Colours]
Combo1 : 255,113,17
Combo2 : 214,214,214
Combo3 : 13,62,98
Combo4 : 255,255,255
Combo5 : 38,57,121

[HitObjects]
64,64,1605,6,0,L|128:144,1,99.9999904632568,8|0,0:0|0:0,0:0:0:0:
192,64,2355,2,0,L|256:144,1,99.9999904632568
208,224,3105,2,0,L|272:304,1,99.9999904632568
336,224,3855,2,0,L|400:304,1,99.9999904632568
480,240,4605,6,0,L|417:161,1,99.9999904632568,8|0,0:0|0:0,0:0:0:0:
336,112,5355,2,0,P|272:128|242:162,1,99.9999904632568
243,250,6105,2,0,P|291:240|330:209,1,99.9999904632568
248,150,6855,2,0,L|185:71,1,99.9999904632568
128,160,7605,6,0,L|190:238,1,99.9999904632568,8|0,0:0|0:0,0:0:0:0:
256,320,8355,2,0,L|334:257,1,99.9999904632568
416,192,9105,2,0,L|353:113,1,99.9999904632568
288,32,9855,2,0,L|209:94,1,99.9999904632568
128,160,10605,6,0,P|139:223|208:272,1,149.999985694885,2|0,0:0|0:0,0:0:0:0:
330,187,11730,2,0,P|320:123|250:74,1,149.999985694885,2|0,0:0|0:0,0:0:0:0:
231,173,12855,2,0,P|252:253|366:282,1,199.999980926514,2|0,0:0|0:0,0:0:0:0:
450,175,19605,22,0,B|402:214|360:174|360:174|311:128|257:173,1,199.999980926514
292,292,21105,2,0,P|198:279|138:192,1,199.999980926514
267,164,22605,2,0,P|346:107|360:11,1,199.999980926514
228,34,24105,6,0,P|152:84|138:109,1,99.9999904632568,4|0,0:0|0:0,0:0:0:0:
135,189,24855,2,0,P|166:250|199:277,1,99.9999904632568
288,286,25605,2,0,P|364:236|378:211,1,99.9999904632568
381,131,26355,2,0,P|350:70|317:43,1,99.9999904632568
228,34,27105,6,0,L|164:114,1,99.9999904632568,8|0,0:0|0:0,0:0:0:0:
216,198,27855,2,0,L|280:118,1,99.9999904632568
372,154,28605,2,0,L|308:234,1,99.9999904632568
360,318,29355,2,0,L|424:238,1,99.9999904632568
481,159,30105,6,0,B|486:70|437:36|343:21|269:44|227:102|136:121|28:49|28:49|83:175|134:197|230:211|265:210|326:186|372:153|372:153|334:210|276:267|217:288|162:280,1,1199.99988555908,2|0,0:0|0:0,0:0:0:0:
46,236,35355,1,0,0:0:0:0:
223,329,36105,22,0,B|301:340|427:331|495:181|495:181|414:233|308:247|225:231|144:208|68:113|68:113|224:200|318:188|330:86|317:36|235:19|206:72,1,1199.99988555908,2|0,0:0|0:0,0:0:0:0:
216,58,41355,1,0,0:0:0:0:
72,197,42105,6,0,P|125:255|162:261,1,99.9999904632568,4|0,0:0|0:0,0:0:0:0:
241,279,42855,2,0,P|295:272|343:233,1,99.9999904632568
380,159,43605,2,0,P|377:80|353:51,1,99.9999904632568
276,21,44355,2,0,P|202:50|180:82,1,99.9999904632568
164,160,45105,6,0,P|181:218|214:247,1,99.9999904632568,8|0,0:0|0:0,0:0:0:0:
308,258,45855,2,0,P|373:278|404:309,1,99.9999904632568
315,358,46605,2,0,P|241:338|215:306,1,99.9999904632568
179,234,47355,2,0,P|194:157|209:135,1,99.9999904632568
283,77,48105,6,0,B|361:45|425:56|480:97|498:152|498:152|426:125|368:135|305:167|280:208|280:208|355:204|413:204|469:220|511:273|511:273|412:249|318:274|265:288|250:351|159:369|86:375|29:315|12:251|15:178|84:127,1,1399.9998664856,10|0,0:0|0:0,0:0:0:0:
256,64,54105,22,4,B|224:112|256:160|256:160|288:224|256:272,4,199.999980926514,4|4|4|4|8,0:0|0:0|0:0|0:0|0:0,0:0:0:0:
347,23,57480,1,8,0:0:0:0:
433,72,57855,1,8,0:0:0:0:
452,170,58230,1,8,0:0:0:0:
393,251,58605,5,4,0:0:0:0:
298,282,58980,1,4,0:0:0:0:
274,184,59355,1,4,0:0:0:0:
176,204,59730,1,6,0:0:0:0:
150,107,60105,5,0,0:0:0:0:
352,144,60855,2,0,P|368:192|352:240,5,99.9999904632568,8|0|0|0|8|0,0:0|0:0|0:0|0:0|0:0|0:0,0:0:0:0:
150,277,63105,5,0,0:0:0:0:
259,109,63855,2,0,P|292:65|354:48,5,99.9999904632568,8|0|0|0|8|0,0:0|0:0|0:0|0:0|0:0|0:0,0:0:0:0:
350,147,66105,22,0,L|350:259,1,99.9999904632568
256,288,66855,2,0,L|256:176,5,99.9999904632568,8|0|0|0|8|0,0:0|0:0|0:0|0:0|0:0|0:0,0:0:0:0:
256,96,69105,6,0,L|144:96,1,99.9999904632568
156,196,69855,2,0,L|156:308,2,99.9999904632568,8|0|0,0:0|0:0|0:0,0:0:0:0:
448,192,72105,5,0,0:0:0:0:
256,192,72855,2,0,L|144:192,1,99.9999904632568,8|0,0:0|0:0,0:0:0:0:
176,96,73605,2,0,L|64:96,1,99.9999904632568
64,192,74355,2,0,L|64:304,1,99.9999904632568,8|0,0:0|0:0,0:0:0:0:
160,288,75105,5,0,0:0:0:0:
160,96,75855,2,0,P|208:96|208:144,1,99.9999904632568,8|0,0:0|0:0,0:0:0:0:
176,224,76605,2,0,P|176:272|224:272,1,99.9999904632568
304,240,77355,2,0,P|352:240|352:288,1,99.9999904632568,8|0,0:0|0:0,0:0:0:0:
272,336,78105,22,0,P|222:303|204:259,1,99.9999904632568
221,169,78855,2,0,P|267:133|319:131,5,99.9999904632568,8|0|0|0|8|0,0:0|0:0|0:0|0:0|0:0|0:0,0:0:0:0:
295,228,81105,6,0,P|255:264|199:265,1,99.9999904632568
113,245,81855,1,8,0:0:0:0:
53,164,82230,1,0,0:0:0:0:
70,65,82605,1,0,0:0:0:0:
264,112,83355,5,8,0:0:0:0:
405,203,90105,6,0,B|397:240|442:264|476:258|476:258|452:331|381:341|307:327|266:284|241:221|252:148|284:109|339:82|390:78|436:94|436:94|400:54|351:41|254:51|197:95|170:154|170:202|170:202|150:167|122:142|55:133|8:164|-4:213|-7:235,1,1199.99988555908,2|0,0:0|0:0,0:0:0:0:
87,249,95355,1,0,0:0:0:0:
276,312,96105,22,0,B|348:368|401:364|448:318|430:244|356:243|356:243|485:233|492:38|301:22|272:138|272:138|244:94|248:63|276:27|276:27|179:84|194:197|84:159|25:177|-8:130|-20:75|40:22|92:58,1,1199.99988555908,2|0,0:0|0:0,0:0:0:0:
214,204,101355,1,0,0:0:0:0:
416,192,102105,6,0,L|416:304,1,99.9999904632568,8|0,0:0|0:0,0:0:0:0:
325,250,102855,2,0,L|245:329,1,99.9999904632568
217,227,103605,2,0,L|104:227,1,99.9999904632568
166,140,104355,2,0,L|86:60,1,99.9999904632568
188,31,105105,6,0,L|267:110,1,99.9999904632568,8|0,0:0|0:0,0:0:0:0:
321,179,105855,2,0,P|308:231|267:267,1,99.9999904632568
221,178,106605,2,0,P|234:126|275:90,1,99.9999904632568
366,93,107355,2,0,P|401:125|415:186,1,99.9999904632568
321,179,108105,6,0,B|308:237|308:237|291:301|278:349|339:390|385:388|426:358|455:282|372:235|308:237|308:237|232:251|216:328|221:358|221:358|184:306|62:269|85:222|98:158|41:62|41:62|91:115|143:146|186:204|186:204|166:157|161:109|163:72|156:24|156:24|192:62|221:64,1,1399.9998664856,8|0,0:0|0:0,0:0:0:0:
300,85,114105,22,4,B|334:78|388:97|410:136|412:173|412:173|437:171|470:183,4,199.999980926514,4|4|4|4|8,0:0|0:0|0:0|0:0|0:0,0:0:0:0:
205,119,117480,1,8,0:0:0:0:
166,211,117855,1,8,0:0:0:0:
216,297,118230,1,8,0:0:0:0:
313,320,118605,54,4,P|401:277|414:166,1,199.999980926514
256,192,120105,12,14,122917,0:0:0:0:
