osu file format v14

[General]
AudioFilename: audio.mp3
AudioLeadIn: 0
PreviewTime: 60105
Countdown: 0
SampleSet: Soft
StackLeniency: 0.9
Mode: 0
LetterboxInBreaks: 0
WidescreenStoryboard: 1

[Editor]
DistanceSpacing: 0.9
BeatDivisor: 4
GridSize: 8
TimelineZoom: 2.699999

[Metadata]
Title:Howling
TitleUnicode:Howling
Artist:M2U
ArtistUnicode:M2U
Creator:Anderzay
Version:Extra
Source:
Tags:M2U
BeatmapID:1242856
BeatmapSetID:584179

[Difficulty]
HPDrainRate:6
CircleSize:4.5
OverallDifficulty:6
ApproachRate:9.5
SliderMultiplier:1.99999990463257
SliderTickRate:2

[Events]
//Background and Video events
0,0,"HOWL.jpeg",0,0
//Break Periods
//Storyboard Layer 0 (Background)
//Storyboard Layer 1 (Fail)
//Storyboard Layer 2 (Pass)
//Storyboard Layer 3 (Foreground)
//Storyboard Sound Samples

[TimingPoints]
1605,375,4,1,0,60,1,0
1605,-100,4,1,0,50,0,0
13605,-133.333333333333,4,2,0,50,0,0
23355,-80,4,1,0,60,0,0
24105,-100,4,1,0,60,0,0
29073,-100,4,2,0,60,0,0
30105,-100,4,2,0,80,0,0
41730,-80,4,2,0,80,0,0
42105,-80,4,2,0,80,0,1
57855,-80,4,1,0,50,0,1
58605,-100,4,3,0,100,0,0
58980,-80,4,3,0,100,0,0
59355,-66.6666666666667,4,3,0,100,0,0
59730,-50,4,3,0,100,0,0
60105,-133.333333333333,4,1,0,60,0,0
60855,-50,4,2,0,60,0,0
62355,-66.6666666666667,4,1,0,60,0,0
62730,-100,4,1,0,60,0,0
63105,-133.333333333333,4,1,0,60,0,0
63855,-50,4,2,0,60,0,0
65167,-66.6666666666667,4,1,0,60,0,0
65730,-100,4,1,0,60,0,0
66105,-133.333333333333,4,2,0,60,0,0
66386,-80,4,2,0,60,0,0
66667,-133.333333333333,4,2,0,60,0,0
66855,-80,4,2,0,60,0,0
67136,-133.333333333333,4,2,0,60,0,0
67417,-80,4,2,0,60,0,0
67698,-133.333333333333,4,2,0,60,0,0
67980,-66.6666666666667,4,1,0,60,0,0
69855,-50,4,2,0,60,0,0
70605,-133.333333333333,4,2,0,60,0,0
72105,-133.333333333333,4,1,0,60,0,0
72855,-50,4,2,0,60,0,0
74355,-66.6666666666667,4,1,0,60,0,0
74730,-100,4,1,0,60,0,0
75105,-133.333333333333,4,1,0,60,0,0
75855,-50,4,2,0,60,0,0
77167,-66.6666666666667,4,1,0,60,0,0
77730,-100,4,1,0,60,0,0
78105,-133.333333333333,4,2,0,60,0,0
78386,-80,4,2,0,60,0,0
78667,-133.333333333333,4,2,0,60,0,0
78855,-80,4,2,0,60,0,0
79136,-133.333333333333,4,2,0,60,0,0
79417,-80,4,2,0,60,0,0
79698,-133.333333333333,4,2,0,60,0,0
79980,-66.6666666666667,4,1,0,60,0,0
82605,-100,4,1,0,60,0,0
86730,-80,4,1,0,60,0,0
87105,-100,4,1,0,60,0,0
88980,-100,4,2,0,60,0,0
90105,-100,4,2,0,60,0,0
101730,-80,4,2,0,60,0,0
102105,-80,4,2,0,60,0,1
117855,-80,4,1,0,50,0,1
118605,-100,4,1,0,60,0,0
120105,-100,4,1,0,5,0,0
122917,-66.6666666666667,4,1,0,100,0,0
123011,-66.6666666666667,4,2,0,5,0,0

[Colours]
Combo1 : 255,113,17
Combo2 : 214,214,214
Combo3 : 13,62,98
Combo4 : 255,255,255
Combo5 : 38,57,121

[HitObjects]
285,50,1605,5,8,0:0:0:0:
349,210,1792,1,0,0:0:0:0:
226,115,1980,2,0,P|272:139|337:123,1,99.9999952316284,8|0,0:0|0:0,0:0:0:0:
410,152,2355,2,0,P|364:128|299:144,1,99.9999952316284,8|0,0:0|0:0,0:0:0:0:
349,210,2730,5,8,0:0:0:0:
380,53,2917,1,0,0:0:0:0:
229,105,3105,1,8,0:0:0:0:
349,210,3292,1,0,0:0:0:0:
192,179,3479,1,8,0:0:0:0:
244,330,3667,1,0,0:0:0:0:
349,210,3855,6,0,P|326:143|282:120,1,99.9999952316284,8|0,0:0|0:0,0:0:0:0:
256,111,4136,1,0,0:0:0:0:
207,118,4229,1,8,0:0:0:0:
166,147,4323,1,0,0:0:0:0:
144,191,4417,1,0,0:0:0:0:
143,241,4511,1,0,0:0:0:0:
161,287,4605,6,0,B|179:321|209:329|209:329|226:305|247:286,1,99.9999952316284,8|0,0:0|0:0,0:0:0:0:
356,219,4980,1,8,0:0:0:0:
421,84,5167,1,0,0:0:0:0:
284,19,5355,1,8,0:0:0:0:
219,154,5542,1,0,0:0:0:0:
356,219,5730,22,0,P|340:134|310:105,1,99.9999952316285,8|0,0:0|0:0,0:0:0:0:
262,192,6105,1,8,0:0:0:0:
168,164,6292,2,0,P|184:249|214:278,2,99.9999952316285,0|8|0,0:0|0:0|0:0,0:0:0:0:
262,192,6855,6,0,P|285:237|272:314,1,99.9999952316285,8|0,0:0|0:0,0:0:0:0:
262,330,7136,1,0,0:0:0:0:
217,352,7229,1,8,0:0:0:0:
168,349,7323,1,0,0:0:0:0:
128,321,7417,1,0,0:0:0:0:
107,276,7511,1,0,0:0:0:0:
112,226,7605,6,0,P|149:181|199:170,1,99.9999952316285,8|0,0:0|0:0,0:0:0:0:
278,196,7980,1,8,0:0:0:0:
237,287,8167,2,0,P|192:252|179:197,1,99.9999952316285,0|8,0:0|0:0,0:0:0:0:
207,117,8542,1,0,0:0:0:0:
278,196,8730,5,8,0:0:0:0:
364,74,8917,1,0,0:0:0:0:
478,171,9105,1,8,0:0:0:0:
266,145,9292,21,0,0:0:0:0:
399,78,9479,1,8,0:0:0:0:
454,217,9667,1,0,0:0:0:0:
316,72,9855,6,0,P|351:129|347:188,1,99.9999952316285,8|0,0:0|0:0,0:0:0:0:
349,210,10136,1,0,0:0:0:0:
323,252,10229,1,8,0:0:0:0:
282,280,10323,1,0,0:0:0:0:
233,288,10417,1,0,0:0:0:0:
185,275,10511,1,0,0:0:0:0:
148,241,10605,6,0,P|130:205|143:109,2,99.9999952316285,8|0|0,0:0|0:0|0:0,0:0:0:0:
224,176,11167,2,0,P|273:176|318:155,2,99.9999952316285,8|0|0,0:0|0:0|0:0,0:0:0:0:
248,77,11730,2,0,P|210:61|157:-19,2,99.9999952316285,8|0|0,0:0|0:0|0:0,0:0:0:0:
352,62,12292,6,0,P|412:123|371:236,1,199.999990463257,8|0,0:0|0:0,0:0:0:0:
344,254,12761,1,0,0:0:0:0:
295,257,12854,21,4,0:0:0:0:
251,233,12948,1,0,0:0:0:0:
222,193,13042,5,0,0:0:0:0:
189,156,13136,1,0,0:0:0:0:
142,141,13229,5,0,0:0:0:0:
94,153,13323,1,0,0:0:0:0:
61,189,13417,5,0,0:0:0:0:
55,238,13511,1,0,0:0:0:0:
78,286,13605,22,0,P|121:317|207:272,1,149.999998569489,2|0,0:0|0:0,0:0:0:0:
140,244,14355,2,0,B|163:207|210:201|236:213|236:213|250:176|289:168,1,149.999998569489,2|0,0:0|0:0,0:0:0:0:
308,241,14917,1,0,0:0:0:0:
308,241,15011,1,0,0:0:0:0:
308,241,15105,2,0,P|327:147|207:127,1,224.999997854233,2|0,0:0|0:0,0:0:0:0:
194,140,15761,1,0,0:0:0:0:
180,174,15855,2,0,B|178:217|203:245|233:256|233:256|241:292|281:311,1,149.999998569489,2|0,0:0|0:0,0:0:0:0:
255,294,16417,1,0,0:0:0:0:
263,178,16605,6,0,P|229:110|141:101,1,149.999998569489,2|0,0:0|0:0,0:0:0:0:
180,174,17167,1,0,0:0:0:0:
180,174,17261,1,0,0:0:0:0:
180,174,17355,2,0,P|199:234|232:255,1,74.9999992847443,2|0,0:0|0:0,0:0:0:0:
276,268,17730,2,0,P|336:249|357:216,1,74.9999992847443,2|0,0:0|0:0,0:0:0:0:
380,176,18105,2,0,P|361:116|328:95,1,74.9999992847443,2|0,0:0|0:0,0:0:0:0:
319,92,18386,1,0,0:0:0:0:
281,89,18480,1,0,0:0:0:0:
246,103,18573,1,0,0:0:0:0:
222,132,18667,1,0,0:0:0:0:
213,168,18761,1,0,0:0:0:0:
218,205,18855,2,0,P|267:250|353:230,1,149.999998569489,2|0,0:0|0:0,0:0:0:0:
363,106,19605,6,0,B|323:121|296:174|296:174|280:143|246:126,1,149.999998569489,2|0,0:0|0:0,0:0:0:0:
190,110,20167,1,0,0:0:0:0:
125,148,20355,2,0,P|169:234|217:204,1,149.999998569489,2|0,0:0|0:0,0:0:0:0:
250,171,20917,1,0,0:0:0:0:
250,171,21011,1,0,0:0:0:0:
250,171,21105,2,0,P|290:150|340:158,1,74.9999992847443,2|0,0:0|0:0,0:0:0:0:
307,236,21480,2,0,P|267:257|217:249,1,74.9999992847443,2|0,0:0|0:0,0:0:0:0:
203,242,21761,1,0,0:0:0:0:
179,212,21855,2,0,P|166:168|184:121,1,74.9999992847443,2|0,0:0|0:0,0:0:0:0:
250,171,22230,2,0,P|282:153|302:122,1,74.9999992847443,2|0,0:0|0:0,0:0:0:0:
216,87,22605,6,0,P|198:54|167:34,2,74.9999992847443,2|0|0,0:0|0:0|0:0,0:0:0:0:
198,185,23167,21,0,0:0:0:0:
220,229,23260,1,0,0:0:0:0:
242,274,23355,2,0,L|272:334,1,62.4999970197678,8|0,0:0|2:0,0:0:0:0:
356,292,23542,1,0,0:0:0:0:
334,247,23635,1,0,0:0:0:0:
312,202,23730,2,0,L|281:142,1,62.4999970197678,8|0,0:0|2:0,0:0:0:0:
242,274,23917,1,0,0:0:0:0:
435,50,24105,6,0,P|390:105|376:144,1,99.9999952316285,6|0,0:0|0:0,0:0:0:0:
435,207,24480,1,0,0:0:0:0:
285,67,24667,6,0,P|267:135|271:177,1,99.9999952316285,2|0,0:0|0:0,0:0:0:0:
351,209,25042,1,0,0:0:0:0:
158,123,25230,6,0,P|158:194|173:232,1,99.9999952316285,2|0,0:0|0:0,0:0:0:0:
258,243,25605,1,0,0:0:0:0:
57,201,25792,22,0,P|75:269|99:302,1,99.9999952316285,2|0,0:0|0:0,0:0:0:0:
184,291,26167,2,0,P|212:279|233:257,1,49.9999976158143,2|0,0:0|2:0,0:0:0:0:
166,208,26355,6,10,P|167:158|172:139,1,49.9999976158143,10|10,0:0|2:0,0:0:0:0:
258,188,26542,2,2,P|286:176|307:154,1,49.9999976158143,2|2,0:0|2:0,0:0:0:0:
236,104,26730,6,2,P|237:54|242:35,1,49.9999976158143,10|2,0:0|2:0,0:0:0:0:
327,82,26917,2,2,P|360:101|375:122,1,49.9999976158143,2|2,0:0|2:0,0:0:0:0:
254,180,27105,6,0,P|213:219|132:234,2,99.9999952316285,6|0|0,0:0|0:0|0:0,0:0:0:0:
246,142,27667,2,0,P|189:140|121:93,2,99.9999952316285,2|0|0,0:0|0:0|0:0,0:0:0:0:
308,180,28230,22,0,P|349:219|430:234,2,99.9999952316285,2|0|0,0:0|0:0|0:0,0:0:0:0:
316,142,28792,2,0,P|372:140|440:93,1,99.9999952316285,2|0,0:0|0:0,0:0:0:0:
364,105,29073,5,0,0:0:0:0:
314,106,29166,1,0,0:0:0:0:
265,95,29260,1,0,0:0:0:0:
220,72,29354,1,0,0:0:0:0:
240,118,29448,5,0,0:0:0:0:
255,154,29541,1,0,0:0:0:0:
252,194,29635,1,0,0:0:0:0:
232,228,29729,1,0,0:0:0:0:
199,249,29823,1,0,0:0:0:0:
160,253,29916,1,0,0:0:0:0:
123,239,30010,1,0,0:0:0:0:
96,210,30105,6,0,P|93:142|144:95,1,99.9999952316285,2|0,0:0|0:0,0:0:0:0:
154,95,30386,1,0,0:0:0:0:
202,98,30479,1,0,0:0:0:0:
240,130,30573,1,0,0:0:0:0:
270,169,30667,1,0,0:0:0:0:
309,202,30761,1,0,0:0:0:0:
354,223,30855,21,2,0:0:0:0:
407,227,30948,1,0,0:0:0:0:
448,192,31042,1,0,0:0:0:0:
454,139,31136,1,0,0:0:0:0:
419,96,31230,5,0,0:0:0:0:
375,88,31323,1,0,0:0:0:0:
337,110,31417,1,0,0:0:0:0:
321,152,31511,1,0,0:0:0:0:
330,196,31605,6,0,P|341:231|337:255,1,49.9999976158143,2|0,0:0|0:0,0:0:0:0:
295,250,31792,2,0,P|274:278|252:293,1,49.9999976158143,2|0,0:0|0:0,0:0:0:0:
231,253,31980,5,0,0:0:0:0:
181,251,32073,1,0,0:0:0:0:
137,228,32167,1,0,0:0:0:0:
109,187,32261,1,0,0:0:0:0:
98,143,32355,21,2,0:0:0:0:
115,92,32448,1,0,0:0:0:0:
162,68,32542,1,0,0:0:0:0:
213,84,32636,1,0,0:0:0:0:
237,134,32730,5,0,0:0:0:0:
232,178,32823,1,0,0:0:0:0:
210,217,32917,1,0,0:0:0:0:
204,261,33011,1,0,0:0:0:0:
215,305,33105,6,0,P|237:335|261:344,1,49.9999976158143,2|0,0:0|0:0,0:0:0:0:
284,314,33292,2,0,P|323:311|343:300,1,49.9999976158143,2|0,0:0|0:0,0:0:0:0:
373,285,33480,5,0,0:0:0:0:
402,238,33573,1,0,0:0:0:0:
412,185,33667,1,0,0:0:0:0:
403,131,33761,1,0,0:0:0:0:
370,87,33855,21,2,0:0:0:0:
315,63,33948,1,0,0:0:0:0:
256,70,34042,1,0,0:0:0:0:
210,107,34136,1,0,0:0:0:0:
190,163,34230,5,0,0:0:0:0:
199,211,34323,1,0,0:0:0:0:
233,246,34417,1,0,0:0:0:0:
281,257,34511,1,0,0:0:0:0:
334,244,34605,6,0,P|355:225|364:204,1,49.9999976158143,2|2,0:0|0:0,0:0:0:0:
311,186,34792,2,0,P|294:151|277:141,1,49.9999976158143,2|2,0:0|0:0,0:0:0:0:
252,190,34980,1,2,0:0:0:0:
301,302,35167,6,0,L|272:240,1,49.9999976158143,2|0,0:0|0:0,0:0:0:0:
160,144,35355,2,0,L|189:206,1,49.9999976158143,2|0,0:0|0:0,0:0:0:0:
304,128,35542,1,0,0:0:0:0:
282,82,35635,1,0,0:0:0:0:
259,36,35730,2,0,P|230:109|205:120,1,99.9999952316285,2|0,0:0|0:0,0:0:0:0:
170,139,36011,1,0,0:0:0:0:
215,116,36105,22,0,P|297:126|330:164,1,99.9999952316285,2|0,0:0|0:0,0:0:0:0:
333,177,36386,1,0,0:0:0:0:
332,226,36479,1,0,0:0:0:0:
304,267,36573,1,0,0:0:0:0:
260,288,36667,1,0,0:0:0:0:
211,282,36761,1,0,0:0:0:0:
172,250,36855,5,2,0:0:0:0:
151,199,36948,1,0,0:0:0:0:
169,147,37042,1,0,0:0:0:0:
214,115,37136,1,0,0:0:0:0:
269,118,37230,5,0,0:0:0:0:
302,147,37323,1,0,0:0:0:0:
317,189,37417,1,0,0:0:0:0:
302,231,37511,1,0,0:0:0:0:
255,253,37605,6,0,B|215:259|194:240,1,49.9999976158143,2|0,0:0|0:0,0:0:0:0:
225,207,37792,2,0,P|198:182|186:138,1,49.9999976158143,2|0,0:0|0:0,0:0:0:0:
177,127,37980,21,0,0:0:0:0:
189,79,38073,1,0,0:0:0:0:
224,44,38167,1,0,0:0:0:0:
272,32,38261,1,0,0:0:0:0:
319,46,38355,5,2,0:0:0:0:
359,84,38448,1,0,0:0:0:0:
373,136,38542,1,0,0:0:0:0:
359,188,38636,1,0,0:0:0:0:
331,236,38730,5,0,0:0:0:0:
317,277,38823,1,0,0:0:0:0:
332,319,38917,1,0,0:0:0:0:
369,342,39011,1,0,0:0:0:0:
423,332,39105,6,0,P|449:301|453:263,1,49.9999976158143,2|0,0:0|0:0,0:0:0:0:
397,280,39292,2,0,P|392:224|378:206,1,49.9999976158143,2|0,0:0|0:0,0:0:0:0:
372,191,39480,21,0,0:0:0:0:
322,169,39573,1,0,0:0:0:0:
269,178,39667,1,0,0:0:0:0:
230,216,39761,1,0,0:0:0:0:
195,259,39855,5,2,0:0:0:0:
142,284,39948,1,0,0:0:0:0:
84,271,40042,1,0,0:0:0:0:
48,224,40136,1,0,0:0:0:0:
48,164,40230,5,0,0:0:0:0:
77,124,40323,1,0,0:0:0:0:
123,106,40417,1,0,0:0:0:0:
171,117,40511,1,0,0:0:0:0:
201,156,40605,6,0,P|206:202|195:231,1,49.9999976158143,2|2,0:0|0:0,0:0:0:0:
254,195,40792,2,0,P|272:237|296:256,1,49.9999976158143,2|2,0:0|0:0,0:0:0:0:
230,263,40980,1,2,0:0:0:0:
348,169,41167,22,0,L|331:107,1,49.9999976158143,2|0,0:0|0:0,0:0:0:0:
160,64,41355,2,0,L|176:125,1,49.9999976158143,2|0,0:0|0:0,0:0:0:0:
352,320,41542,1,0,0:0:0:0:
339,271,41635,1,0,0:0:0:0:
325,222,41730,2,0,L|306:157,1,62.4999970197678,2|0,0:0|0:0,0:0:0:0:
144,128,41917,2,0,L|161:191,1,62.4999970197678,2|0,0:0|0:0,0:0:0:0:
350,207,42105,6,0,L|303:158,1,62.4999970197678,12|0,0:0|0:0,0:0:0:0:
117,143,42292,2,0,L|163:191,1,62.4999970197678
356,95,42480,6,0,L|291:76,1,62.4999970197678,8|0,0:0|0:0,0:0:0:0:
133,268,42667,2,0,L|197:287,1,62.4999970197678
278,46,42855,5,8,0:0:0:0:
210,36,42948,1,0,0:0:0:0:
149,64,43042,1,0,0:0:0:0:
112,121,43136,1,0,0:0:0:0:
104,190,43230,21,8,0:0:0:0:
124,248,43323,1,0,0:0:0:0:
171,288,43417,1,0,0:0:0:0:
231,300,43511,1,0,0:0:0:0:
296,286,43605,6,0,P|336:265|360:226,1,62.4999970197678,8|0,0:0|0:0,0:0:0:0:
155,60,43792,2,0,P|115:81|91:120,1,62.4999970197678
271,203,43980,2,0,P|284:159|273:115,1,62.4999970197678,8|0,0:0|0:0,0:0:0:0:
173,143,44167,2,0,P|159:186|170:230,1,62.4999970197678
229,99,44355,6,0,P|216:28|181:-1,1,62.4999970197678,8|0,0:0|0:0,0:0:0:0:
214,245,44542,2,0,P|227:316|262:345,1,62.4999970197678
134,76,44730,2,0,P|74:34|29:39,1,62.4999970197678,8|0,0:0|0:0,0:0:0:0:
311,266,44917,2,0,P|370:307|415:302,1,62.4999970197678
61,122,45105,6,0,P|-9:135|-38:170,1,62.4999970197678,8|0,0:0|0:0,0:0:0:0:
46,238,45292,1,0,0:0:0:0:
74,279,45386,1,0,0:0:0:0:
116,305,45480,2,0,P|143:310|208:303,1,62.4999970197678,8|0,0:0|0:0,0:0:0:0:
110,84,45667,21,0,0:0:0:0:
100,132,45761,1,0,0:0:0:0:
112,176,45855,2,0,P|127:198|178:239,1,62.4999970197678,8|0,0:0|0:0,0:0:0:0:
273,13,46042,5,0,0:0:0:0:
231,39,46136,1,0,0:0:0:0:
206,82,46230,2,0,P|201:109|208:174,1,62.4999970197678,8|0,0:0|0:0,0:0:0:0:
402,104,46417,5,0,0:0:0:0:
341,116,46510,1,0,0:0:0:0:
289,150,46604,5,8,0:0:0:0:
254,201,46698,1,0,0:0:0:0:
242,262,46792,1,0,0:0:0:0:
254,323,46885,1,0,0:0:0:0:
226,266,46980,21,8,0:0:0:0:
206,220,47073,1,0,0:0:0:0:
182,176,47167,1,0,0:0:0:0:
153,135,47261,1,0,0:0:0:0:
119,98,47355,6,0,P|105:151|89:187,1,62.4999970197678,10|0,0:0|0:0,0:0:0:0:
138,298,47542,1,2,0:0:0:0:
154,237,47635,1,0,0:0:0:0:
180,179,47730,2,0,P|210:133|242:98,1,62.4999970197678,10|0,0:0|0:0,0:0:0:0:
241,295,47917,2,0,P|257:349|275:379,1,62.4999970197678,2|0,0:0|0:0,0:0:0:0:
317,179,48105,5,12,0:0:0:0:
327,120,48198,1,0,0:0:0:0:
384,107,48292,1,0,0:0:0:0:
420,154,48386,1,0,0:0:0:0:
396,211,48480,5,8,0:0:0:0:
366,251,48573,1,0,0:0:0:0:
319,268,48667,1,0,0:0:0:0:
268,266,48761,1,0,0:0:0:0:
218,238,48855,22,0,P|183:205|169:171,1,62.4999970197678,8|0,0:0|0:0,0:0:0:0:
293,149,49042,2,0,P|328:182|342:216,1,62.4999970197678
95,221,49230,6,0,P|96:153|112:121,1,62.4999970197678,8|0,0:0|0:0,0:0:0:0:
412,159,49417,2,0,P|411:227|395:259,1,62.4999970197678
135,74,49605,6,0,P|181:134|184:159,1,62.4999970197678,8|0,0:0|0:0,0:0:0:0:
372,303,49792,2,0,P|326:243|323:218,1,62.4999970197678
245,149,49980,6,0,P|191:193|162:193,1,62.4999970197678,8|0,0:0|0:0,0:0:0:0:
265,236,50167,2,0,P|283:210|350:187,1,62.4999970197678
173,114,50355,22,0,P|163:64|176:22,1,62.4999970197678,8|0,0:0|0:0,0:0:0:0:
330,257,50542,2,0,P|340:307|327:349,1,62.4999970197678
323,107,50730,6,0,P|373:97|415:110,1,62.4999970197678,8|0,0:0|0:0,0:0:0:0:
180,264,50917,2,0,P|130:274|88:261,1,62.4999970197678
413,227,51105,6,0,P|359:183|348:157,1,62.4999970197678,8|0,0:0|0:0,0:0:0:0:
88,142,51292,2,0,P|142:186|153:212,1,62.4999970197678
470,83,51480,6,0,P|443:142|424:162,1,62.4999970197678,8|0,0:0|0:0,0:0:0:0:
38,294,51667,2,0,P|65:235|84:215,1,62.4999970197678
383,98,51855,22,0,P|333:100|291:80,1,62.4999970197678,8|0,0:0|0:0,0:0:0:0:
119,272,52042,2,0,P|169:270|211:290,1,62.4999970197678
311,230,52230,6,0,P|251:241|213:277,1,62.4999970197678,8|0,0:0|0:0,0:0:0:0:
200,153,52417,2,0,P|260:142|298:106,1,62.4999970197678
256,304,52605,6,0,P|206:284|190:253,1,62.4999970197678,8|0,0:0|0:0,0:0:0:0:
256,80,52792,2,0,P|306:100|322:131,1,62.4999970197678
251,242,52980,6,0,P|293:253|315:293,1,62.4999970197678,8|0,0:0|0:0,0:0:0:0:
261,142,53167,2,0,P|219:131|197:91,1,62.4999970197678
416,192,53355,22,0,L|336:192,1,62.4999970197678,10|0,0:0|0:0,0:0:0:0:
96,192,53542,1,2,0:0:0:0:
158,192,53635,1,0,0:0:0:0:
221,192,53730,2,0,L|304:192,1,62.4999970197678,10|0,0:0|0:0,0:0:0:0:
283,297,53917,2,0,L|200:297,1,62.4999970197678,2|0,0:0|0:0,0:0:0:0:
256,48,54105,6,0,L|327:78,1,62.4999970197678,4|0,0:0|0:0,0:0:0:0:
437,94,54292,2,0,P|471:113|528:109,1,62.4999970197678
430,117,54480,2,0,L|501:175,1,62.4999970197678
412,132,54667,2,0,P|437:163|444:218,1,62.4999970197678
256,48,54855,6,0,L|284:120,1,62.4999970197678,4|0,0:0|0:0,0:0:0:0:
351,207,55042,2,0,P|361:245|404:282,1,62.4999970197678
331,220,55230,2,0,L|340:312,1,62.4999970197678
308,216,55417,2,0,P|303:256|269:300,1,62.4999970197678
256,48,55605,6,0,L|225:119,1,62.4999970197678,4|0,0:0|0:0,0:0:0:0:
212,227,55792,2,0,P|192:261|196:318,1,62.4999970197678
188,221,55980,2,0,L|129:292,1,62.4999970197678
174,202,56167,2,0,P|142:227|87:234,1,62.4999970197678
256,48,56355,22,0,L|183:76,1,62.4999970197678,4|0,0:0|0:0,0:0:0:0:
99,142,56542,2,0,P|60:152|23:195,1,62.4999970197678
87,121,56730,2,0,L|-5:129,1,62.4999970197678
89,98,56917,2,0,P|48:93|4:59,1,62.4999970197678
256,48,57105,6,0,P|272:80|256:128,1,62.4999970197678,4|0,0:0|0:0,0:0:0:0:
256,336,57292,2,0,P|240:304|256:256,1,62.4999970197678,4|0,0:0|0:0,0:0:0:0:
335,112,57480,6,0,P|323:148|276:171,1,62.4999970197678,4|0,0:0|0:0,0:0:0:0:
176,271,57667,2,0,P|188:237|234:213,1,62.4999970197678,4|0,0:0|0:0,0:0:0:0:
336,271,57855,6,8,L|277:212,1,62.4999970197678
177,112,58042,2,8,L|234:170,1,62.4999970197678
188,259,58230,22,8,L|246:199,1,62.4999970197678
324,123,58417,2,8,L|265:180,1,62.4999970197678
165,193,58605,2,0,P|227:200|250:291,1,149.999992847443,4|0,0:0|2:0,0:0:0:0:
188,259,58980,6,0,P|243:201|354:218,1,187.499991059303,4|0,0:0|2:0,0:0:0:0:
279,286,59355,6,0,P|273:175|393:100,1,224.999997854233,4|0,0:0|2:0,0:0:0:0:
393,231,59730,6,2,P|257:186|244:37,1,299.999985694885,6|0,0:0|2:0,0:0:0:0:
360,67,60105,22,0,L|323:153,1,74.9999992847443
297,203,60480,1,0,0:0:0:0:
265,270,60667,1,0,0:0:0:0:
230,177,60855,6,0,P|196:205|182:327,1,99.9999952316285,8|0,0:0|0:0,0:0:0:0:
196,136,61042,6,0,P|177:175|215:292,1,99.9999952316285
149,113,61230,6,0,P|148:157|233:246,1,99.9999952316285
96,113,61417,22,0,P|114:153|228:198,1,99.9999952316285
49,135,61605,6,0,P|82:163|205:156,1,99.9999952316285
15,175,61792,6,0,P|57:186|165:128,1,99.9999952316285,8|0,0:0|0:0,0:0:0:0:
0,225,61980,6,0,P|43:217|116:119,1,99.9999952316285,8|0,0:0|0:0,0:0:0:0:
0,272,62167,21,0,0:0:0:0:
0,272,62261,1,0,0:0:0:0:
0,272,62355,2,0,P|88:298|172:244,1,149.999998569489,8|0,0:0|0:0,0:0:0:0:
146,241,62636,5,0,0:0:0:0:
139,278,62730,2,0,P|232:321|265:318,1,99.9999952316285,8|0,0:0|0:0,0:0:0:0:
214,244,63105,6,0,P|188:191|202:119,1,74.9999992847443
199,101,63480,1,0,0:0:0:0:
240,38,63667,1,0,0:0:0:0:
305,172,63855,6,0,L|266:277,1,99.9999952316285,8|0,0:0|0:0,0:0:0:0:
365,192,64042,22,0,L|274:282,1,99.9999952316285
408,229,64230,6,0,L|287:272,1,99.9999952316285,0|0,0:0|0:0,0:0:0:0:
429,276,64417,6,0,L|317:266,1,99.9999952316285,0|0,0:0|0:0,0:0:0:0:
432,320,64605,6,0,L|321:255,1,99.9999952316285,0|0,0:0|0:0,0:0:0:0:
420,356,64792,22,0,L|341:244,1,99.9999952316285,8|0,0:0|0:0,0:0:0:0:
401,381,64980,6,0,L|378:254,1,99.9999952316285,0|0,0:0|0:0,0:0:0:0:
280,343,65167,6,0,L|239:330,1,37.4999996423721
267,295,65261,2,0,L|232:264,1,37.4999996423721
265,242,65355,2,0,P|299:183|390:154,1,149.999998569489,8|0,0:0|0:0,0:0:0:0:
424,152,65636,5,0,0:0:0:0:
372,153,65730,2,0,P|292:107|275:67,1,99.9999952316285,8|0,0:0|0:0,0:0:0:0:
375,58,66105,22,0,L|321:145,1,74.9999992847443
126,318,66386,6,0,L|215:179,1,124.999994039536
335,121,66667,6,0,L|309:164,1,37.4999996423721
194,213,66855,6,0,L|283:74,1,124.999994039536,8|0,0:0|0:0,0:0:0:0:
315,153,67136,22,0,L|261:240,1,74.9999992847443,8|0,0:0|0:0,0:0:0:0:
261,107,67417,6,0,L|350:-32,1,124.999994039536,8|0,0:0|0:0,0:0:0:0:
275,216,67698,6,0,L|221:303,1,74.9999992847443,8|0,0:0|0:0,0:0:0:0:
184,165,67980,5,8,0:0:0:0:
205,134,68073,1,0,0:0:0:0:
236,113,68167,2,0,L|260:79,1,37.4999996423721
275,105,68261,2,0,L|308:81,1,37.4999996423721
321,117,68355,2,0,P|376:169|371:275,1,149.999998569489,8|0,0:0|0:0,0:0:0:0:
399,290,68636,21,0,0:0:0:0:
354,318,68730,2,0,P|261:360|203:342,1,149.999998569489,8|0,0:0|0:0,0:0:0:0:
361,187,69105,5,8,0:0:0:0:
263,243,69292,1,8,0:0:0:0:
307,83,69480,2,0,P|239:146|146:169,1,149.999998569489
133,158,69761,5,0,0:0:0:0:
185,165,69855,6,0,P|231:183|263:222,1,99.9999952316285,8|0,0:0|0:0,0:0:0:0:
168,263,70042,22,0,P|122:245|91:207,1,99.9999952316285,8|0,0:0|0:0,0:0:0:0:
262,221,70230,6,0,P|308:239|340:278,1,99.9999952316285,8|0,0:0|0:0,0:0:0:0:
245,319,70417,6,0,P|199:301|168:263,1,99.9999952316285,8|0,0:0|0:0,0:0:0:0:
340,278,70605,6,0,P|344:190|418:73,1,224.999997854233
440,49,71261,1,0,0:0:0:0:
414,75,71355,2,0,P|311:119|257:103,1,149.999998569489,8|0,0:0|0:0,0:0:0:0:
319,0,72105,22,0,L|344:97,1,74.9999992847443
359,144,72480,1,0,0:0:0:0:
383,214,72667,1,0,0:0:0:0:
303,276,72855,6,0,P|282:217|336:127,1,99.9999952316285,8|0,0:0|0:0,0:0:0:0:
367,119,73042,6,0,P|388:178|334:268,1,99.9999952316285
272,255,73230,6,0,P|278:192|365:134,1,99.9999952316285
397,139,73417,22,0,P|391:202|304:260,1,99.9999952316285
254,223,73605,6,0,P|285:169|389:152,1,99.9999952316285
415,171,73792,6,0,P|384:225|280:242,1,99.9999952316285,8|0,0:0|0:0,0:0:0:0:
250,186,73980,6,0,P|302:151|403:180,1,99.9999952316285,8|0,0:0|0:0,0:0:0:0:
419,208,74167,21,0,0:0:0:0:
419,208,74261,1,0,0:0:0:0:
419,208,74355,2,0,P|321:195|316:114,1,149.999998569489,8|0,0:0|0:0,0:0:0:0:
307,105,74636,5,0,0:0:0:0:
306,157,74730,2,0,P|236:217|190:215,1,99.9999952316285,8|0,0:0|0:0,0:0:0:0:
149,98,75105,6,0,P|196:104|233:137,1,74.9999992847443
236,192,75480,1,0,0:0:0:0:
162,180,75667,1,0,0:0:0:0:
304,75,75855,6,0,P|309:126|304:187,1,99.9999952316285,8|0,0:0|0:0,0:0:0:0:
224,227,76042,22,0,P|218:175|224:115,1,99.9999952316285
340,100,76230,6,0,P|323:148|292:201,1,99.9999952316285
204,204,76417,6,0,P|220:155|251:102,1,99.9999952316285
363,139,76605,6,0,P|327:176|277:210,1,99.9999952316285
195,176,76792,22,0,P|230:138|280:104,1,99.9999952316285,8|0,0:0|0:0,0:0:0:0:
367,184,76980,6,0,P|318:202|258:212,1,99.9999952316285,0|0,0:0|0:0,0:0:0:0:
199,146,77167,6,0,L|205:101,1,37.4999996423721
238,126,77261,2,0,L|267:87,1,37.4999996423721
283,120,77355,2,0,P|351:137|421:246,1,149.999998569489,8|0,0:0|0:0,0:0:0:0:
452,216,77636,5,0,0:0:0:0:
432,267,77730,2,0,P|419:330|377:385,1,99.9999952316285,8|0,0:0|0:0,0:0:0:0:
331,267,78105,22,0,L|244:213,1,74.9999992847443
71,18,78386,6,0,L|210:107,1,124.999994039536
268,227,78667,6,0,L|225:201,1,37.4999996423721
176,86,78855,6,0,L|315:175,1,124.999994039536,8|0,0:0|0:0,0:0:0:0:
236,207,79136,22,0,L|149:153,1,74.9999992847443,8|0,0:0|0:0,0:0:0:0:
282,153,79417,6,0,L|421:242,1,124.999994039536,8|0,0:0|0:0,0:0:0:0:
173,167,79698,6,0,L|86:113,1,74.9999992847443,8|0,0:0|0:0,0:0:0:0:
317,55,79980,5,8,0:0:0:0:
348,76,80073,1,0,0:0:0:0:
369,107,80167,2,0,L|403:131,1,37.4999996423721
377,146,80261,2,0,L|401:179,1,37.4999996423721
365,192,80355,2,0,P|307:241|207:218,1,149.999998569489,8|0,0:0|0:0,0:0:0:0:
209,192,80636,21,0,0:0:0:0:
236,237,80730,2,0,P|206:315|115:343,1,149.999998569489,8|0,0:0|0:0,0:0:0:0:
34,195,81105,5,8,0:0:0:0:
130,235,81292,1,8,0:0:0:0:
47,297,81480,1,0,0:0:0:0:
145,115,81667,6,0,P|158:84|170:69,1,37.4999996423721
194,98,81761,2,0,P|208:81|230:76,1,37.4999996423721
242,108,81855,1,8,0:0:0:0:
272,140,81948,1,0,0:0:0:0:
275,185,82042,1,0,0:0:0:0:
253,224,82136,1,0,0:0:0:0:
289,197,82230,5,8,0:0:0:0:
331,209,82323,1,0,0:0:0:0:
348,250,82417,1,0,0:0:0:0:
326,289,82511,1,0,0:0:0:0:
362,261,82605,22,0,B|437:191|513:287|584:155|495:73|452:91|410:122,1,299.999985694885,4|0,0:0|0:0,0:0:0:0:
365,144,83355,1,0,0:0:0:0:
288,208,83542,1,0,0:0:0:0:
244,297,83730,1,0,0:0:0:0:
237,108,83917,1,0,0:0:0:0:
80,56,84105,6,0,P|125:80|177:154,1,99.9999952316285,6|0,0:0|0:0,0:0:0:0:
207,199,84480,1,0,0:0:0:0:
253,111,84667,6,0,P|267:160|252:248,1,99.9999952316285,2|0,0:0|0:0,0:0:0:0:
241,302,85042,1,0,0:0:0:0:
362,189,85230,6,0,P|309:189|230:232,1,99.9999952316285,2|0,0:0|0:0,0:0:0:0:
184,262,85605,1,0,0:0:0:0:
181,162,85792,22,0,P|145:198|120:285,1,99.9999952316285,2|0,0:0|0:0,0:0:0:0:
108,339,86167,2,2,P|135:299|161:281,1,49.9999976158143,2|2,0:0|2:0,0:0:0:0:
195,162,86355,6,2,P|201:195|221:228,1,49.9999976158143,2|2,0:0|2:0,0:0:0:0:
285,347,86542,2,2,P|300:307|316:289,1,49.9999976158143,2|2,0:0|2:0,0:0:0:0:
400,257,86730,6,2,P|429:295|455:310,1,62.4999970197678,2|2,0:0|2:0,0:0:0:0:
485,179,86917,2,2,P|468:129|448:105,1,62.4999970197678,2|2,0:0|2:0,0:0:0:0:
241,38,87105,6,0,P|214:110|229:165,1,99.9999952316285,2|0,0:0|0:0,0:0:0:0:
312,108,87480,1,0,0:0:0:0:
140,109,87667,22,0,P|172:178|221:206,1,99.9999952316285,2|0,0:0|0:0,0:0:0:0:
237,108,88042,1,0,0:0:0:0:
120,232,88230,6,0,P|192:258|247:242,1,99.9999952316285,2|0,0:0|0:0,0:0:0:0:
190,162,88605,1,0,0:0:0:0:
193,333,88792,6,0,P|262:300|289:250,1,99.9999952316285,2|0,0:0|0:0,0:0:0:0:
293,236,89073,1,0,0:0:0:0:
310,189,89166,1,0,0:0:0:0:
341,149,89260,1,0,0:0:0:0:
381,119,89355,5,0,0:0:0:0:
338,105,89448,1,0,0:0:0:0:
293,103,89542,1,0,0:0:0:0:
249,114,89636,1,0,0:0:0:0:
210,136,89730,1,0,0:0:0:0:
178,167,89823,1,0,0:0:0:0:
156,206,89917,1,0,0:0:0:0:
145,250,90011,1,0,0:0:0:0:
145,300,90105,22,0,P|194:288|244:307,1,99.9999952316285,2|0,0:0|0:0,0:0:0:0:
280,332,90386,1,0,0:0:0:0:
324,353,90479,1,0,0:0:0:0:
372,345,90573,1,0,0:0:0:0:
406,309,90667,1,0,0:0:0:0:
412,261,90761,1,0,0:0:0:0:
401,212,90855,5,2,0:0:0:0:
362,173,90948,1,0,0:0:0:0:
311,154,91042,1,0,0:0:0:0:
256,159,91136,1,0,0:0:0:0:
214,195,91230,5,0,0:0:0:0:
174,213,91323,1,0,0:0:0:0:
131,203,91417,1,0,0:0:0:0:
104,167,91511,1,0,0:0:0:0:
107,122,91605,6,0,P|131:90|170:79,1,49.9999976158143,2|0,0:0|0:0,0:0:0:0:
167,120,91792,2,0,P|195:121|219:131,1,49.9999976158143,2|0,0:0|0:0,0:0:0:0:
250,158,91980,21,0,0:0:0:0:
272,202,92073,1,0,0:0:0:0:
276,252,92167,1,0,0:0:0:0:
262,299,92261,1,0,0:0:0:0:
229,337,92355,5,2,0:0:0:0:
175,345,92448,1,0,0:0:0:0:
129,317,92542,1,0,0:0:0:0:
110,267,92636,1,0,0:0:0:0:
124,213,92730,5,0,0:0:0:0:
156,183,92823,1,0,0:0:0:0:
199,169,92917,1,0,0:0:0:0:
243,175,93011,1,0,0:0:0:0:
284,191,93105,6,0,P|312:218|327:254,1,49.9999976158143,2|0,0:0|0:0,0:0:0:0:
277,247,93292,2,0,P|262:287|234:311,1,49.9999976158143,2|0,0:0|0:0,0:0:0:0:
222,320,93480,21,0,0:0:0:0:
168,331,93573,1,0,0:0:0:0:
116,317,93667,1,0,0:0:0:0:
76,280,93761,1,0,0:0:0:0:
65,226,93855,5,2,0:0:0:0:
83,170,93948,1,0,0:0:0:0:
137,147,94042,1,0,0:0:0:0:
190,171,94136,1,0,0:0:0:0:
231,214,94230,5,0,0:0:0:0:
273,240,94323,1,0,0:0:0:0:
320,255,94417,1,0,0:0:0:0:
370,255,94511,1,0,0:0:0:0:
419,248,94605,6,0,P|448:237|471:213,1,49.9999976158143,2|2,0:0|0:0,0:0:0:0:
422,194,94792,2,0,P|430:155|423:126,1,49.9999976158143,2|2,0:0|0:0,0:0:0:0:
381,162,94980,1,2,0:0:0:0:
296,273,95167,22,0,P|310:317|346:348,1,49.9999976158143,2|0,0:0|0:0,0:0:0:0:
339,106,95355,2,0,P|293:96|249:111,1,49.9999976158143,2|0,0:0|0:0,0:0:0:0:
457,225,95542,1,0,0:0:0:0:
457,225,95636,1,0,0:0:0:0:
457,225,95730,2,0,P|466:179|449:116,1,99.9999952316285,2|0,0:0|0:0,0:0:0:0:
470,80,96011,1,0,0:0:0:0:
419,78,96105,6,0,P|344:50|287:63,1,99.9999952316285,2|0,0:0|0:0,0:0:0:0:
276,62,96386,1,0,0:0:0:0:
240,96,96479,1,0,0:0:0:0:
220,142,96573,1,0,0:0:0:0:
219,191,96667,1,0,0:0:0:0:
236,238,96761,1,0,0:0:0:0:
282,258,96855,5,2,0:0:0:0:
335,256,96948,1,0,0:0:0:0:
369,214,97042,1,0,0:0:0:0:
360,161,97136,1,0,0:0:0:0:
311,135,97230,5,0,0:0:0:0:
267,136,97323,1,0,0:0:0:0:
228,158,97417,1,0,0:0:0:0:
205,196,97511,1,0,0:0:0:0:
202,241,97605,22,0,P|189:293|165:315,1,49.9999976158143,2|0,0:0|0:0,0:0:0:0:
153,264,97792,2,0,P|128:291|96:303,1,49.9999976158143,2|0,0:0|0:0,0:0:0:0:
71,302,97980,5,0,0:0:0:0:
27,281,98073,1,0,0:0:0:0:
4,238,98167,1,0,0:0:0:0:
11,189,98261,1,0,0:0:0:0:
42,149,98355,5,2,0:0:0:0:
94,131,98448,1,0,0:0:0:0:
148,134,98542,1,0,0:0:0:0:
198,158,98636,1,0,0:0:0:0:
237,196,98730,5,0,0:0:0:0:
278,213,98823,1,0,0:0:0:0:
322,212,98917,1,0,0:0:0:0:
363,194,99011,1,0,0:0:0:0:
397,164,99105,22,0,P|412:120|410:97,1,49.9999976158143,2|0,0:0|0:0,0:0:0:0:
367,120,99292,2,0,P|346:88|330:76,1,49.9999976158143,2|0,0:0|0:0,0:0:0:0:
298,55,99480,5,0,0:0:0:0:
244,42,99573,1,0,0:0:0:0:
189,45,99667,1,0,0:0:0:0:
138,63,99761,1,0,0:0:0:0:
98,102,99855,5,2,0:0:0:0:
77,157,99948,1,0,0:0:0:0:
91,214,100042,1,0,0:0:0:0:
136,253,100136,1,0,0:0:0:0:
194,264,100230,5,0,0:0:0:0:
244,265,100323,1,0,0:0:0:0:
292,279,100417,1,0,0:0:0:0:
335,305,100511,1,0,0:0:0:0:
375,333,100605,22,0,P|408:342|439:338,1,49.9999976158143,2|2,0:0|0:0,0:0:0:0:
410,274,100792,2,0,P|379:257|360:231,1,49.9999976158143,2|2,0:0|0:0,0:0:0:0:
426,207,100980,1,2,0:0:0:0:
482,94,101167,6,0,L|451:159,1,49.9999976158143,2|0,0:0|0:0,0:0:0:0:
176,163,101355,2,0,L|206:97,1,49.9999976158143,2|0,0:0|0:0,0:0:0:0:
410,95,101542,5,0,0:0:0:0:
389,141,101635,1,0,0:0:0:0:
366,190,101730,2,0,L|337:263,1,62.4999970197678,2|0,0:0|0:0,0:0:0:0:
104,165,101917,2,0,L|136:94,1,62.4999970197678,2|0,0:0|0:0,0:0:0:0:
256,272,102105,6,0,L|191:241,1,62.4999970197678,12|0,0:0|0:0,0:0:0:0:
256,112,102292,2,0,L|325:144,1,62.4999970197678
199,245,102480,2,0,L|174:177,1,62.4999970197678,8|0,0:0|0:0,0:0:0:0:
312,138,102667,2,0,L|338:209,1,62.4999970197678
177,186,102855,21,8,0:0:0:0:
203,123,102948,1,0,0:0:0:0:
260,86,103042,1,0,0:0:0:0:
328,84,103136,1,0,0:0:0:0:
394,105,103230,5,8,0:0:0:0:
441,144,103323,1,0,0:0:0:0:
470,199,103417,1,0,0:0:0:0:
474,261,103511,1,0,0:0:0:0:
466,323,103605,6,0,P|441:371|421:391,1,62.4999970197678,8|0,0:0|0:0,0:0:0:0:
372,199,103792,2,0,P|378:169|377:138,1,62.4999970197678
279,300,103980,2,0,P|285:330|284:362,1,62.4999970197678,8|0,0:0|0:0,0:0:0:0:
194,196,104167,2,0,P|182:167|164:142,1,62.4999970197678
48,300,104355,6,0,P|75:314|106:321,1,62.4999970197678,8|0,0:0|0:0,0:0:0:0:
224,175,104542,2,0,P|193:168|162:169,1,62.4999970197678
266,335,104730,2,0,P|297:333|327:325,1,62.4999970197678,8|0,0:0|0:0,0:0:0:0:
402,146,104917,2,0,P|372:155|345:170,1,62.4999970197678
497,293,105105,22,0,P|480:266|459:244,1,62.4999970197678,8|0,0:0|0:0,0:0:0:0:
130,120,105292,5,0,0:0:0:0:
91,152,105386,1,0,0:0:0:0:
64,195,105480,2,0,P|48:249|46:290,1,62.4999970197678,8|0,0:0|0:0,0:0:0:0:
197,141,105667,5,0,0:0:0:0:
175,186,105761,1,0,0:0:0:0:
168,236,105855,2,0,P|176:291|191:329,1,62.4999970197678,8|0,0:0|0:0,0:0:0:0:
270,133,106042,5,0,0:0:0:0:
269,182,106136,1,0,0:0:0:0:
284,231,106230,2,0,P|315:277|345:305,1,62.4999970197678,8|0,0:0|0:0,0:0:0:0:
328,94,106417,21,0,0:0:0:0:
349,140,106511,1,0,0:0:0:0:
381,178,106605,5,8,0:0:0:0:
434,211,106698,1,0,0:0:0:0:
465,264,106792,1,0,0:0:0:0:
469,326,106886,1,0,0:0:0:0:
430,277,106980,5,8,0:0:0:0:
392,236,107073,1,0,0:0:0:0:
344,207,107167,1,0,0:0:0:0:
290,194,107261,1,0,0:0:0:0:
233,191,107355,6,0,P|175:210|138:239,1,62.4999970197678,10|0,0:0|0:0,0:0:0:0:
324,310,107542,1,2,0:0:0:0:
369,266,107636,1,0,0:0:0:0:
385,205,107730,2,0,P|372:142|361:128,1,62.4999970197678,10|0,0:0|0:0,0:0:0:0:
195,68,107917,2,0,P|208:131|219:145,1,62.4999970197678,2|0,0:0|0:0,0:0:0:0:
356,248,108105,21,8,0:0:0:0:
414,253,108198,1,0,0:0:0:0:
437,201,108292,1,0,0:0:0:0:
402,161,108386,1,0,0:0:0:0:
343,160,108480,5,8,0:0:0:0:
298,182,108573,1,0,0:0:0:0:
270,222,108667,1,0,0:0:0:0:
258,272,108761,1,0,0:0:0:0:
256,328,108855,6,0,P|313:366|332:369,1,62.4999970197678,8|0,0:0|0:0,0:0:0:0:
256,56,109042,2,0,P|199:18|180:15,1,62.4999970197678
280,233,109230,6,0,P|348:237|366:231,1,62.4999970197678,8|0,0:0|0:0,0:0:0:0:
232,150,109417,2,0,P|163:146|145:152,1,62.4999970197678
320,126,109605,22,0,P|335:80|331:51,1,62.4999970197678,8|0,0:0|0:0,0:0:0:0:
192,258,109792,2,0,P|177:304|181:333,1,62.4999970197678
231,74,109980,6,0,P|176:107|160:132,1,62.4999970197678,8|0,0:0|0:0,0:0:0:0:
281,310,110167,2,0,P|336:277|352:252,1,62.4999970197678
240,155,110355,6,0,P|179:186|142:175,1,62.4999970197678,8|0,0:0|0:0,0:0:0:0:
272,229,110542,2,0,P|333:198|370:209,1,62.4999970197678
177,105,110730,6,0,P|114:89|96:53,1,62.4999970197678,8|0,0:0|0:0,0:0:0:0:
335,279,110917,2,0,P|398:295|416:331,1,62.4999970197678
248,124,111105,22,0,P|234:58|201:37,1,62.4999970197678,8|0,0:0|0:0,0:0:0:0:
264,260,111292,2,0,P|278:326|311:347,1,62.4999970197678
298,182,111480,6,0,P|323:128|320:103,1,62.4999970197678,8|0,0:0|0:0,0:0:0:0:
214,202,111667,2,0,P|189:256|192:281,1,62.4999970197678
220,114,111855,6,0,P|175:123|135:166,1,62.4999970197678,8|0,0:0|0:0,0:0:0:0:
292,270,112042,2,0,P|337:261|377:218,1,62.4999970197678
212,43,112230,6,0,P|152:-6|147:-19,1,62.4999970197678,8|0,0:0|0:0,0:0:0:0:
300,341,112417,2,0,P|360:390|365:403,1,62.4999970197678
297,43,112605,22,0,P|278:94|249:117,1,62.4999970197678,8|0,0:0|0:0,0:0:0:0:
215,341,112792,22,0,P|234:290|263:267,1,62.4999970197678
339,140,112980,6,0,P|304:172|244:168,1,62.4999970197678,8|0,0:0|0:0,0:0:0:0:
173,244,113167,2,0,P|208:212|268:216,1,62.4999970197678
416,192,113355,22,0,L|336:192,1,62.4999970197678,10|0,0:0|0:0,0:0:0:0:
96,192,113542,1,2,0:0:0:0:
158,192,113635,1,0,0:0:0:0:
221,192,113730,2,0,L|304:192,1,62.4999970197678,10|0,0:0|0:0,0:0:0:0:
291,87,113917,2,0,L|229:87,1,62.4999970197678,2|0,0:0|0:0,0:0:0:0:
256,336,114105,6,0,L|327:306,1,62.4999970197678,4|0,0:0|0:0,0:0:0:0:
437,290,114292,2,0,P|471:271|528:275,1,62.4999970197678
430,267,114480,2,0,L|501:209,1,62.4999970197678
412,252,114667,2,0,P|437:221|444:166,1,62.4999970197678
256,336,114855,6,0,L|284:264,1,62.4999970197678,4|0,0:0|0:0,0:0:0:0:
351,177,115042,2,0,P|361:139|404:102,1,62.4999970197678
331,164,115230,2,0,L|340:72,1,62.4999970197678
308,168,115417,2,0,P|303:128|269:84,1,62.4999970197678
256,336,115605,6,0,L|225:265,1,62.4999970197678,4|0,0:0|0:0,0:0:0:0:
212,157,115792,2,0,P|192:123|196:66,1,62.4999970197678
188,163,115980,2,0,L|129:92,1,62.4999970197678
174,182,116167,2,0,P|142:157|87:150,1,62.4999970197678
256,336,116355,22,0,L|183:308,1,62.4999970197678,4|0,0:0|0:0,0:0:0:0:
99,242,116542,2,0,P|60:232|23:189,1,62.4999970197678
87,263,116730,2,0,L|-5:255,1,62.4999970197678
89,286,116917,2,0,P|48:291|4:325,1,62.4999970197678
256,336,117105,6,0,P|272:304|256:256,1,62.4999970197678,4|0,0:0|0:0,0:0:0:0:
256,48,117292,2,0,P|240:80|256:128,1,62.4999970197678,4|0,0:0|0:0,0:0:0:0:
335,272,117480,6,0,P|323:236|276:213,1,62.4999970197678,4|0,0:0|0:0,0:0:0:0:
176,113,117667,2,0,P|188:147|234:171,1,62.4999970197678,4|0,0:0|0:0,0:0:0:0:
336,113,117855,6,8,L|277:172,1,62.4999970197678
177,272,118042,2,8,L|234:214,1,62.4999970197678
188,125,118230,22,8,L|246:185,1,62.4999970197678
324,261,118417,2,8,L|265:204,1,62.4999970197678
176,160,118605,6,0,P|212:294|327:154,1,399.999980926514,4|4,0:0|0:0,0:0:0:0:
256,192,120105,12,0,122823,0:0:0:0:
256,64,122917,6,0,B|288:128|200:208|256:192|256:192|304:176|232:264|256:352,1,299.999997138977,14|0,0:0|0:0,0:0:0:0:
