osu file format v14

[General]
AudioFilename: audio.mp3
AudioLeadIn: 0
PreviewTime: 42138
Countdown: 1
SampleSet: None
StackLeniency: 0.7
Mode: 1
LetterboxInBreaks: 0
WidescreenStoryboard: 0

[Editor]
Bookmarks: 90138
DistanceSpacing: 1.5
BeatDivisor: 4
GridSize: 4
TimelineZoom: 2.899999

[Metadata]
Title:Howling
TitleUnicode:Howling
Artist:M2U
ArtistUnicode:M2U
Creator:[TaikoTori]
Version:awoooooooooo
Source:
Tags:
BeatmapID:1932290
BeatmapSetID:925017

[Difficulty]
HPDrainRate:5
CircleSize:5
OverallDifficulty:5
ApproachRate:5
SliderMultiplier:1.4
SliderTickRate:1

[Events]
//Background and Video events
0,0,"header.jpg",0,0
//Break Periods
//Storyboard Layer 0 (Background)
//Storyboard Layer 1 (Fail)
//Storyboard Layer 2 (Pass)
//Storyboard Layer 3 (Foreground)
//Storyboard Sound Samples

[TimingPoints]
1638,375,4,1,0,100,1,0
120138,-100,4,1,0,20,0,0
120888,-100,4,1,0,40,0,0
121638,-100,4,1,0,60,0,0
122388,-100,4,1,0,80,0,0
123044,-100,4,1,0,100,0,0

[HitObjects]
258,192,1638,5,0,0:0:0:0:
258,192,1825,1,0,0:0:0:0:
258,192,2013,1,8,0:0:0:0:
258,192,2200,1,0,0:0:0:0:
258,192,2388,1,8,0:0:0:0:
344,191,2575,1,8,0:0:0:0:
258,192,2763,1,0,0:0:0:0:
258,192,2950,1,8,0:0:0:0:
258,192,3138,1,8,0:0:0:0:
258,192,3325,1,0,0:0:0:0:
258,192,3513,1,0,0:0:0:0:
258,192,3700,1,0,0:0:0:0:
258,192,3888,1,8,0:0:0:0:
258,192,4075,1,0,0:0:0:0:
258,192,4169,1,0,0:0:0:0:
258,192,4263,1,8,0:0:0:0:
258,192,4450,1,0,0:0:0:0:
258,192,4544,1,8,0:0:0:0:
258,192,4638,1,8,0:0:0:0:
258,192,4825,1,0,0:0:0:0:
258,192,5013,1,8,0:0:0:0:
258,192,5200,1,0,0:0:0:0:
258,192,5388,1,8,0:0:0:0:
258,192,5575,1,0,0:0:0:0:
258,192,5763,1,8,0:0:0:0:
258,192,5950,1,8,0:0:0:0:
258,192,6138,1,8,0:0:0:0:
258,192,6325,1,0,0:0:0:0:
258,192,6513,1,0,0:0:0:0:
258,192,6700,1,0,0:0:0:0:
258,192,6888,1,8,0:0:0:0:
258,192,7075,1,8,0:0:0:0:
258,192,7169,1,0,0:0:0:0:
258,192,7263,1,8,0:0:0:0:
258,192,7450,1,0,0:0:0:0:
258,192,7544,1,0,0:0:0:0:
258,192,7638,1,8,0:0:0:0:
258,192,7825,1,0,0:0:0:0:
258,192,8013,1,8,0:0:0:0:
258,192,8200,1,0,0:0:0:0:
258,192,8388,1,8,0:0:0:0:
258,192,8575,1,8,0:0:0:0:
258,192,8763,1,0,0:0:0:0:
258,192,8950,1,8,0:0:0:0:
258,192,9138,1,8,0:0:0:0:
258,192,9325,1,0,0:0:0:0:
258,192,9513,1,0,0:0:0:0:
258,192,9700,1,0,0:0:0:0:
258,192,9888,1,8,0:0:0:0:
258,192,10075,1,0,0:0:0:0:
258,192,10169,1,0,0:0:0:0:
258,192,10263,1,8,0:0:0:0:
258,192,10356,1,0,0:0:0:0:
258,192,10450,1,0,0:0:0:0:
258,192,10544,1,0,0:0:0:0:
258,192,10638,1,8,0:0:0:0:
258,192,10825,1,0,0:0:0:0:
258,192,11013,1,8,0:0:0:0:
258,192,11200,1,0,0:0:0:0:
258,192,11388,1,8,0:0:0:0:
258,192,11575,1,8,0:0:0:0:
258,192,11763,1,0,0:0:0:0:
258,192,11950,1,8,0:0:0:0:
258,192,12138,1,8,0:0:0:0:
258,192,12325,1,0,0:0:0:0:
258,192,12513,1,0,0:0:0:0:
258,192,12700,1,0,0:0:0:0:
258,192,12888,1,8,0:0:0:0:
253,183,12981,1,8,0:0:0:0:
258,192,13075,1,0,0:0:0:0:
258,192,13169,1,0,0:0:0:0:
258,192,13263,1,8,0:0:0:0:
258,192,13356,1,8,0:0:0:0:
258,192,13450,1,0,0:0:0:0:
258,192,13544,1,0,0:0:0:0:
258,192,13638,1,8,0:0:0:0:
253,183,14013,1,8,0:0:0:0:
258,192,14388,1,0,0:0:0:0:
253,183,14763,1,0,0:0:0:0:
253,183,15138,1,8,0:0:0:0:
253,183,15700,1,8,0:0:0:0:
253,183,15794,1,0,0:0:0:0:
253,183,15888,1,8,0:0:0:0:
253,183,16075,1,0,0:0:0:0:
253,183,16169,1,0,0:0:0:0:
253,183,16263,1,8,0:0:0:0:
253,183,16450,1,8,0:0:0:0:
253,183,16638,1,8,0:0:0:0:
253,183,17013,1,0,0:0:0:0:
253,183,17200,1,0,0:0:0:0:
253,183,17294,1,8,0:0:0:0:
253,183,17388,1,0,0:0:0:0:
253,183,17575,1,8,0:0:0:0:
253,183,17763,1,0,0:0:0:0:
253,183,17950,1,0,0:0:0:0:
252,182,18138,1,0,0:0:0:0:
252,182,18325,1,0,0:0:0:0:
252,182,18419,1,0,0:0:0:0:
252,182,18513,1,8,0:0:0:0:
252,182,18606,1,0,0:0:0:0:
252,182,18700,1,8,0:0:0:0:
252,182,18794,1,8,0:0:0:0:
252,182,18888,1,0,0:0:0:0:
252,182,19263,1,0,0:0:0:0:
252,182,19638,1,8,0:0:0:0:
252,182,20013,1,0,0:0:0:0:
252,182,20200,1,0,0:0:0:0:
252,182,20388,1,8,0:0:0:0:
252,182,20763,1,0,0:0:0:0:
252,182,20950,1,0,0:0:0:0:
252,182,21044,1,8,0:0:0:0:
252,182,21138,1,0,0:0:0:0:
252,182,21325,1,8,0:0:0:0:
252,182,21513,1,0,0:0:0:0:
252,182,21700,1,8,0:0:0:0:
252,182,21888,1,8,0:0:0:0:
252,182,22075,1,8,0:0:0:0:
252,182,22263,1,0,0:0:0:0:
252,182,22450,1,8,0:0:0:0:
252,182,22638,1,0,0:0:0:0:
252,182,22825,1,8,0:0:0:0:
252,182,22919,1,0,0:0:0:0:
252,182,23013,1,0,0:0:0:0:
252,182,23200,1,8,0:0:0:0:
252,182,23388,1,8,0:0:0:0:
252,182,23575,1,0,0:0:0:0:
252,182,23669,1,8,0:0:0:0:
252,182,23763,1,0,0:0:0:0:
252,182,23950,1,8,0:0:0:0:
252,182,24138,1,0,0:0:0:0:
252,182,24325,1,0,0:0:0:0:
252,182,24419,1,0,0:0:0:0:
252,182,24513,1,8,0:0:0:0:
252,182,24700,1,0,0:0:0:0:
252,182,24888,1,8,0:0:0:0:
252,182,25075,1,8,0:0:0:0:
252,182,25169,1,0,0:0:0:0:
252,182,25263,1,8,0:0:0:0:
252,182,25450,1,8,0:0:0:0:
252,182,25638,1,0,0:0:0:0:
252,182,25825,1,8,0:0:0:0:
252,182,25919,1,0,0:0:0:0:
252,182,26013,1,0,0:0:0:0:
252,182,26200,1,8,0:0:0:0:
252,182,26388,1,8,0:0:0:0:
252,182,26575,1,0,0:0:0:0:
252,182,26669,1,0,0:0:0:0:
252,182,26763,1,8,0:0:0:0:
252,182,26950,1,8,0:0:0:0:
252,182,27138,1,8,0:0:0:0:
252,182,27325,1,0,0:0:0:0:
252,182,27419,1,0,0:0:0:0:
252,182,27513,1,8,0:0:0:0:
252,182,27700,1,0,0:0:0:0:
252,182,27888,1,8,0:0:0:0:
252,182,27981,1,0,0:0:0:0:
252,182,28075,1,0,0:0:0:0:
252,182,28263,1,8,0:0:0:0:
252,182,28450,1,0,0:0:0:0:
252,182,28638,1,8,0:0:0:0:
252,182,28731,1,0,0:0:0:0:
252,182,28825,1,0,0:0:0:0:
252,182,28919,1,8,0:0:0:0:
252,182,29013,1,0,0:0:0:0:
252,182,29106,1,8,0:0:0:0:
252,182,29200,1,0,0:0:0:0:
252,182,29294,1,0,0:0:0:0:
252,182,29388,1,8,0:0:0:0:
252,182,29481,1,0,0:0:0:0:
252,182,29575,1,8,0:0:0:0:
252,182,29638,1,0,0:0:0:0:
252,182,29700,1,8,0:0:0:0:
252,182,29763,1,0,0:0:0:0:
252,182,29825,1,8,0:0:0:0:
252,182,29888,1,0,0:0:0:0:
252,182,29950,1,8,0:0:0:0:
252,182,30138,1,8,0:0:0:0:
155,251,30325,1,0,0:0:0:0:
203,215,30419,1,0,0:0:0:0:
251,180,30513,1,8,0:0:0:0:
156,251,30700,1,0,0:0:0:0:
252,182,30794,1,0,0:0:0:0:
251,179,30888,1,8,0:0:0:0:
205,216,30981,1,0,0:0:0:0:
251,178,31075,1,8,0:0:0:0:
252,182,31169,1,8,0:0:0:0:
251,180,31263,1,0,0:0:0:0:
251,180,31356,1,0,0:0:0:0:
251,180,31450,1,0,0:0:0:0:
251,180,31544,1,0,0:0:0:0:
251,179,31638,1,8,0:0:0:0:
251,179,31825,5,0,0:0:0:0:
251,179,31919,1,0,0:0:0:0:
251,178,32013,1,8,0:0:0:0:
252,182,32200,1,8,0:0:0:0:
310,180,32294,1,0,0:0:0:0:
251,180,32388,1,0,0:0:0:0:
251,180,32481,1,8,0:0:0:0:
251,180,32575,1,8,0:0:0:0:
310,180,32669,1,0,0:0:0:0:
250,180,32763,1,0,0:0:0:0:
309,180,32856,1,8,0:0:0:0:
249,180,32950,1,0,0:0:0:0:
310,180,33044,1,0,0:0:0:0:
368,180,33138,1,0,0:0:0:0:
310,180,33325,1,0,0:0:0:0:
310,180,33419,1,0,0:0:0:0:
310,180,33513,1,8,0:0:0:0:
356,143,33606,1,0,0:0:0:0:
308,179,33700,1,8,0:0:0:0:
356,144,33794,1,8,0:0:0:0:
308,179,33888,1,8,0:0:0:0:
356,144,33981,1,8,0:0:0:0:
308,179,34075,1,0,0:0:0:0:
356,144,34169,1,0,0:0:0:0:
310,180,34263,1,8,0:0:0:0:
310,180,34356,1,0,0:0:0:0:
310,180,34450,1,0,0:0:0:0:
308,179,34544,1,0,0:0:0:0:
308,179,34638,1,8,0:0:0:0:
308,179,34731,1,8,0:0:0:0:
308,179,34825,1,0,0:0:0:0:
308,179,34919,1,8,0:0:0:0:
308,179,35013,1,0,0:0:0:0:
310,180,35200,1,12,0:0:0:0:
310,180,35388,1,4,0:0:0:0:
308,179,35575,1,0,0:0:0:0:
308,179,35669,1,0,0:0:0:0:
308,179,35763,1,8,0:0:0:0:
308,179,35856,1,8,0:0:0:0:
308,179,35950,1,0,0:0:0:0:
310,180,36138,1,8,0:0:0:0:
310,180,36325,1,0,0:0:0:0:
310,180,36419,1,0,0:0:0:0:
308,179,36513,1,8,0:0:0:0:
308,179,36606,1,0,0:0:0:0:
308,179,36700,1,8,0:0:0:0:
310,180,36794,1,0,0:0:0:0:
310,180,36888,1,8,0:0:0:0:
310,180,36981,1,8,0:0:0:0:
310,180,37075,1,0,0:0:0:0:
310,180,37169,1,8,0:0:0:0:
310,180,37263,1,0,0:0:0:0:
310,180,37356,1,0,0:0:0:0:
310,180,37450,1,8,0:0:0:0:
308,179,37544,1,0,0:0:0:0:
308,179,37638,1,0,0:0:0:0:
310,180,37825,1,0,0:0:0:0:
310,180,37919,1,0,0:0:0:0:
310,180,38013,1,8,0:0:0:0:
310,180,38106,1,8,0:0:0:0:
310,180,38200,1,0,0:0:0:0:
310,180,38294,1,0,0:0:0:0:
310,180,38388,1,8,0:0:0:0:
310,180,38481,1,8,0:0:0:0:
308,179,38575,1,0,0:0:0:0:
310,180,38669,1,8,0:0:0:0:
310,180,38763,1,0,0:0:0:0:
310,180,38856,1,0,0:0:0:0:
310,180,38950,1,8,0:0:0:0:
310,180,39044,1,0,0:0:0:0:
310,180,39138,1,0,0:0:0:0:
310,180,39325,1,0,0:0:0:0:
310,180,39419,1,0,0:0:0:0:
310,180,39513,1,8,0:0:0:0:
308,179,39606,1,0,0:0:0:0:
310,180,39700,1,8,0:0:0:0:
310,180,39794,1,0,0:0:0:0:
310,180,39888,1,8,0:0:0:0:
310,180,39981,1,8,0:0:0:0:
310,180,40075,1,0,0:0:0:0:
310,180,40169,1,0,0:0:0:0:
310,180,40263,1,8,0:0:0:0:
310,180,40356,1,8,0:0:0:0:
310,180,40450,1,0,0:0:0:0:
310,180,40544,1,0,0:0:0:0:
308,179,40638,1,8,0:0:0:0:
310,180,40731,1,0,0:0:0:0:
310,180,40825,1,8,0:0:0:0:
310,180,40919,1,0,0:0:0:0:
310,180,41013,1,8,0:0:0:0:
310,180,41200,1,4,0:0:0:0:
310,180,41388,1,12,0:0:0:0:
310,180,41575,1,0,0:0:0:0:
310,180,41669,1,0,0:0:0:0:
310,180,41763,1,8,0:0:0:0:
310,180,41856,1,0,0:0:0:0:
310,180,41950,1,8,0:0:0:0:
310,180,42044,1,8,0:0:0:0:
310,180,42138,1,0,0:0:0:0:
310,180,42325,1,0,0:0:0:0:
310,180,42419,1,8,0:0:0:0:
310,180,42513,1,8,0:0:0:0:
310,180,42700,1,8,0:0:0:0:
310,180,42794,1,0,0:0:0:0:
310,180,42888,1,0,0:0:0:0:
310,180,42981,1,0,0:0:0:0:
310,180,43075,1,8,0:0:0:0:
310,180,43169,1,8,0:0:0:0:
310,180,43263,1,0,0:0:0:0:
310,180,43450,1,0,0:0:0:0:
310,180,43544,1,0,0:0:0:0:
310,180,43638,1,8,0:0:0:0:
310,180,43731,1,8,0:0:0:0:
310,180,43825,1,0,0:0:0:0:
310,180,43919,1,0,0:0:0:0:
310,180,44013,1,8,0:0:0:0:
310,180,44106,1,0,0:0:0:0:
310,180,44200,1,0,0:0:0:0:
310,180,44294,1,8,0:0:0:0:
310,180,44388,1,8,0:0:0:0:
310,180,44481,1,0,0:0:0:0:
310,180,44575,1,0,0:0:0:0:
310,180,44669,1,0,0:0:0:0:
310,180,44763,1,8,0:0:0:0:
310,180,44856,1,0,0:0:0:0:
310,180,44950,1,8,0:0:0:0:
310,180,45138,1,0,0:0:0:0:
310,180,45325,1,0,0:0:0:0:
310,180,45419,1,8,0:0:0:0:
310,180,45513,1,8,0:0:0:0:
310,180,45700,1,8,0:0:0:0:
310,180,45794,1,0,0:0:0:0:
310,180,45888,1,0,0:0:0:0:
310,180,45981,1,8,0:0:0:0:
310,180,46075,1,0,0:0:0:0:
310,180,46169,1,8,0:0:0:0:
310,180,46263,1,0,0:0:0:0:
310,180,46450,1,0,0:0:0:0:
310,180,46544,1,0,0:0:0:0:
310,180,46638,1,8,0:0:0:0:
310,180,46731,1,0,0:0:0:0:
310,180,46825,1,0,0:0:0:0:
310,180,46919,1,0,0:0:0:0:
310,180,47013,1,8,0:0:0:0:
310,180,47106,1,8,0:0:0:0:
310,180,47200,1,0,0:0:0:0:
310,180,47294,1,8,0:0:0:0:
310,180,47388,1,0,0:0:0:0:
310,180,47481,1,8,0:0:0:0:
310,180,47575,1,0,0:0:0:0:
310,180,47669,1,0,0:0:0:0:
310,180,47763,1,8,0:0:0:0:
310,180,47856,1,0,0:0:0:0:
310,180,47950,1,8,0:0:0:0:
310,180,48138,1,0,0:0:0:0:
310,180,48325,1,0,0:0:0:0:
310,180,48419,1,8,0:0:0:0:
310,180,48513,1,8,0:0:0:0:
310,180,48700,1,8,0:0:0:0:
310,180,48794,1,0,0:0:0:0:
310,180,48888,1,0,0:0:0:0:
310,180,48981,1,0,0:0:0:0:
310,180,49075,1,8,0:0:0:0:
310,180,49169,1,8,0:0:0:0:
310,180,49263,1,0,0:0:0:0:
310,180,49450,1,0,0:0:0:0:
310,180,49544,1,0,0:0:0:0:
310,180,49638,1,8,0:0:0:0:
310,180,49731,1,8,0:0:0:0:
310,180,49825,1,0,0:0:0:0:
310,180,49919,1,0,0:0:0:0:
310,180,50013,1,8,0:0:0:0:
310,180,50106,1,0,0:0:0:0:
310,180,50200,1,0,0:0:0:0:
310,180,50294,1,8,0:0:0:0:
310,180,50388,1,8,0:0:0:0:
310,180,50481,1,0,0:0:0:0:
310,180,50575,1,0,0:0:0:0:
310,180,50669,1,0,0:0:0:0:
310,180,50763,1,8,0:0:0:0:
310,180,50856,1,0,0:0:0:0:
310,180,50950,1,8,0:0:0:0:
310,180,51138,1,0,0:0:0:0:
310,180,51325,1,0,0:0:0:0:
310,180,51419,1,8,0:0:0:0:
310,180,51513,1,8,0:0:0:0:
310,180,51700,1,8,0:0:0:0:
310,180,51794,1,0,0:0:0:0:
310,180,51888,1,0,0:0:0:0:
310,180,51981,1,8,0:0:0:0:
310,180,52075,1,0,0:0:0:0:
310,180,52169,1,8,0:0:0:0:
310,180,52263,1,0,0:0:0:0:
310,180,52450,1,0,0:0:0:0:
310,180,52544,1,0,0:0:0:0:
310,180,52638,1,8,0:0:0:0:
310,180,52731,1,0,0:0:0:0:
310,180,52825,1,0,0:0:0:0:
310,180,52919,1,0,0:0:0:0:
310,180,53013,1,8,0:0:0:0:
310,180,53106,1,8,0:0:0:0:
310,180,53200,1,0,0:0:0:0:
310,180,53294,1,8,0:0:0:0:
310,180,53388,1,0,0:0:0:0:
310,180,53481,1,8,0:0:0:0:
310,180,53575,1,0,0:0:0:0:
310,180,53669,1,0,0:0:0:0:
310,180,53763,1,8,0:0:0:0:
310,180,53856,1,0,0:0:0:0:
310,180,53950,1,8,0:0:0:0:
310,180,54138,1,8,0:0:0:0:
310,180,54325,1,0,0:0:0:0:
310,180,54419,1,0,0:0:0:0:
310,180,54513,1,8,0:0:0:0:
310,180,54700,1,0,0:0:0:0:
310,180,54888,1,8,0:0:0:0:
310,180,55075,1,0,0:0:0:0:
310,180,55169,1,8,0:0:0:0:
310,180,55263,1,0,0:0:0:0:
310,180,55450,1,0,0:0:0:0:
310,180,55638,1,8,0:0:0:0:
310,180,55825,1,0,0:0:0:0:
310,180,55919,1,0,0:0:0:0:
310,180,56013,1,8,0:0:0:0:
310,180,56200,1,0,0:0:0:0:
310,180,56388,1,8,0:0:0:0:
310,180,56575,1,0,0:0:0:0:
310,180,56669,1,8,0:0:0:0:
310,180,56763,1,0,0:0:0:0:
310,180,56950,1,0,0:0:0:0:
310,180,57138,1,0,0:0:0:0:
310,180,57231,1,0,0:0:0:0:
310,180,57325,1,8,0:0:0:0:
310,180,57419,1,8,0:0:0:0:
310,180,57513,1,0,0:0:0:0:
310,180,57606,1,0,0:0:0:0:
310,180,57700,1,8,0:0:0:0:
310,180,57794,1,8,0:0:0:0:
310,180,57888,1,0,0:0:0:0:
310,180,57981,1,0,0:0:0:0:
310,180,58075,1,8,0:0:0:0:
310,180,58169,1,8,0:0:0:0:
310,180,58263,1,0,0:0:0:0:
310,180,58356,1,8,0:0:0:0:
310,180,58450,1,0,0:0:0:0:
310,180,58544,1,0,0:0:0:0:
310,180,58638,1,12,0:0:0:0:
310,180,59013,1,4,0:0:0:0:
310,180,59388,1,12,0:0:0:0:
310,180,59763,1,4,0:0:0:0:
310,180,60138,1,8,0:0:0:0:
310,180,60231,1,8,0:0:0:0:
310,180,60325,1,0,0:0:0:0:
310,180,60513,1,8,0:0:0:0:
310,180,60700,1,0,0:0:0:0:
310,180,60888,1,8,0:0:0:0:
310,180,61075,1,0,0:0:0:0:
310,180,61169,1,0,0:0:0:0:
310,180,61263,1,8,0:0:0:0:
310,180,61450,1,0,0:0:0:0:
310,180,61638,1,8,0:0:0:0:
310,180,61825,1,0,0:0:0:0:
310,180,62013,1,8,0:0:0:0:
310,180,62200,1,0,0:0:0:0:
310,180,62294,1,0,0:0:0:0:
310,180,62388,1,8,0:0:0:0:
310,180,62575,1,0,0:0:0:0:
310,180,62669,1,8,0:0:0:0:
310,180,62763,1,0,0:0:0:0:
310,180,62950,1,8,0:0:0:0:
310,180,63044,1,0,0:0:0:0:
310,180,63138,1,0,0:0:0:0:
310,180,63325,1,0,0:0:0:0:
310,180,63513,1,8,0:0:0:0:
310,180,63606,1,0,0:0:0:0:
310,180,63700,1,0,0:0:0:0:
310,180,63888,1,0,0:0:0:0:
310,180,64075,1,0,0:0:0:0:
310,180,64169,1,0,0:0:0:0:
310,180,64263,1,8,0:0:0:0:
310,180,64450,1,8,0:0:0:0:
310,180,64544,1,0,0:0:0:0:
310,180,64638,1,8,0:0:0:0:
310,180,64825,1,0,0:0:0:0:
310,180,65013,1,8,0:0:0:0:
310,180,65200,1,0,0:0:0:0:
310,180,65263,1,0,0:0:0:0:
310,180,65325,1,0,0:0:0:0:
310,180,65388,1,8,0:0:0:0:
310,180,65575,1,0,0:0:0:0:
310,180,65669,1,8,0:0:0:0:
310,180,65763,1,0,0:0:0:0:
310,180,65950,1,8,0:0:0:0:
310,180,66138,1,4,0:0:0:0:
310,180,66419,1,12,0:0:0:0:
310,180,66700,1,4,0:0:0:0:
310,180,66888,1,12,0:0:0:0:
310,180,67169,1,4,0:0:0:0:
310,180,67450,1,12,0:0:0:0:
310,180,67825,1,0,0:0:0:0:
310,180,67919,1,0,0:0:0:0:
310,180,68013,1,8,0:0:0:0:
310,180,68200,1,0,0:0:0:0:
310,180,68388,1,8,0:0:0:0:
310,180,68481,1,8,0:0:0:0:
310,180,68575,1,0,0:0:0:0:
310,180,68763,1,8,0:0:0:0:
310,180,68950,1,0,0:0:0:0:
310,180,69138,1,4,0:0:0:0:
310,180,69325,1,4,0:0:0:0:
310,180,69513,1,12,0:0:0:0:
310,180,69700,1,4,0:0:0:0:
310,180,69888,1,8,0:0:0:0:
310,180,70075,1,0,0:0:0:0:
310,180,70169,1,0,0:0:0:0:
310,180,70263,1,8,0:0:0:0:
310,180,70356,1,8,0:0:0:0:
310,180,70450,1,0,0:0:0:0:
310,180,70638,1,8,0:0:0:0:
310,180,70825,1,0,0:0:0:0:
310,180,70919,1,0,0:0:0:0:
310,180,71013,1,8,0:0:0:0:
310,180,71200,1,0,0:0:0:0:
310,180,71388,1,12,0:0:0:0:
310,180,71763,1,4,0:0:0:0:
310,180,72138,1,8,0:0:0:0:
310,180,72231,1,8,0:0:0:0:
310,180,72325,1,0,0:0:0:0:
310,180,72513,1,8,0:0:0:0:
310,180,72700,1,0,0:0:0:0:
310,180,72888,1,8,0:0:0:0:
310,180,73075,1,0,0:0:0:0:
310,180,73169,1,0,0:0:0:0:
310,180,73263,1,8,0:0:0:0:
310,180,73450,1,0,0:0:0:0:
310,180,73638,1,8,0:0:0:0:
310,180,73825,1,0,0:0:0:0:
310,180,74013,1,8,0:0:0:0:
310,180,74200,1,0,0:0:0:0:
310,180,74294,1,0,0:0:0:0:
310,180,74388,1,8,0:0:0:0:
310,180,74575,1,0,0:0:0:0:
310,180,74669,1,8,0:0:0:0:
310,180,74763,1,0,0:0:0:0:
310,180,74950,1,8,0:0:0:0:
310,180,75044,1,0,0:0:0:0:
310,180,75138,1,8,0:0:0:0:
310,180,75325,1,0,0:0:0:0:
310,180,75513,1,8,0:0:0:0:
310,180,75606,1,0,0:0:0:0:
310,180,75700,1,0,0:0:0:0:
310,180,75888,1,0,0:0:0:0:
310,180,76075,1,0,0:0:0:0:
310,180,76169,1,0,0:0:0:0:
310,180,76263,1,8,0:0:0:0:
310,180,76450,1,0,0:0:0:0:
310,180,76544,1,8,0:0:0:0:
310,180,76638,1,8,0:0:0:0:
310,180,76825,1,0,0:0:0:0:
310,180,77013,1,8,0:0:0:0:
310,180,77200,1,0,0:0:0:0:
310,180,77263,1,0,0:0:0:0:
310,180,77325,1,0,0:0:0:0:
310,180,77388,1,8,0:0:0:0:
310,180,77575,1,0,0:0:0:0:
310,180,77669,1,8,0:0:0:0:
310,180,77763,1,0,0:0:0:0:
310,180,77950,1,8,0:0:0:0:
310,180,78138,1,4,0:0:0:0:
310,180,78419,1,12,0:0:0:0:
310,180,78700,1,4,0:0:0:0:
310,180,78888,1,12,0:0:0:0:
310,180,79169,1,4,0:0:0:0:
310,180,79450,1,12,0:0:0:0:
310,180,79825,1,0,0:0:0:0:
310,180,79919,1,0,0:0:0:0:
310,180,80013,1,8,0:0:0:0:
310,180,80200,1,0,0:0:0:0:
310,180,80388,1,8,0:0:0:0:
310,180,80481,1,8,0:0:0:0:
310,180,80575,1,0,0:0:0:0:
310,180,80763,1,8,0:0:0:0:
310,180,80950,1,0,0:0:0:0:
310,180,81138,1,4,0:0:0:0:
310,180,81325,1,4,0:0:0:0:
310,180,81513,1,12,0:0:0:0:
310,180,81700,1,4,0:0:0:0:
310,180,81888,1,8,0:0:0:0:
310,180,82075,5,0,0:0:0:0:
310,180,82169,1,0,0:0:0:0:
310,180,82263,1,8,0:0:0:0:
310,180,82356,1,8,0:0:0:0:
310,180,82450,1,0,0:0:0:0:
310,180,82638,1,8,0:0:0:0:
310,180,82825,1,0,0:0:0:0:
310,180,82919,1,0,0:0:0:0:
310,180,83013,1,8,0:0:0:0:
310,180,83200,5,0,0:0:0:0:
310,180,83262,1,0,0:0:0:0:
310,180,83325,1,0,0:0:0:0:
310,180,83387,1,8,0:0:0:0:
310,180,83575,1,0,0:0:0:0:
310,180,83668,1,8,0:0:0:0:
310,180,83762,1,0,0:0:0:0:
310,180,83950,1,0,0:0:0:0:
258,192,84138,5,8,0:0:0:0:
258,192,84325,1,0,0:0:0:0:
258,192,84513,1,8,0:0:0:0:
258,192,84700,1,0,0:0:0:0:
258,192,84888,1,0,0:0:0:0:
344,191,85075,1,8,0:0:0:0:
258,192,85263,1,0,0:0:0:0:
258,192,85450,1,8,0:0:0:0:
258,192,85638,1,8,0:0:0:0:
258,192,85825,1,0,0:0:0:0:
258,192,86013,1,8,0:0:0:0:
258,192,86200,1,0,0:0:0:0:
258,192,86388,1,8,0:0:0:0:
258,192,86575,1,0,0:0:0:0:
258,192,86669,1,0,0:0:0:0:
258,192,86763,1,8,0:0:0:0:
258,192,86950,1,0,0:0:0:0:
258,192,87044,1,8,0:0:0:0:
258,192,87138,1,8,0:0:0:0:
258,192,87325,1,0,0:0:0:0:
258,192,87513,1,8,0:0:0:0:
258,192,87700,1,0,0:0:0:0:
258,192,87888,1,0,0:0:0:0:
258,192,88075,1,8,0:0:0:0:
258,192,88263,1,8,0:0:0:0:
258,192,88450,1,0,0:0:0:0:
252,182,88638,1,8,0:0:0:0:
252,182,88731,1,0,0:0:0:0:
252,182,88825,1,0,0:0:0:0:
252,182,88919,1,8,0:0:0:0:
252,182,89013,1,0,0:0:0:0:
252,182,89106,1,8,0:0:0:0:
252,182,89200,1,0,0:0:0:0:
252,182,89294,1,0,0:0:0:0:
252,182,89388,1,8,0:0:0:0:
252,182,89481,1,0,0:0:0:0:
252,182,89575,1,8,0:0:0:0:
252,182,89638,1,0,0:0:0:0:
252,182,89700,1,8,0:0:0:0:
252,182,89763,1,0,0:0:0:0:
252,182,89825,1,8,0:0:0:0:
252,182,89888,1,0,0:0:0:0:
252,182,89950,1,8,0:0:0:0:
252,182,90138,1,8,0:0:0:0:
155,251,90325,1,0,0:0:0:0:
203,215,90419,1,8,0:0:0:0:
251,180,90513,1,8,0:0:0:0:
156,251,90700,1,0,0:0:0:0:
252,182,90794,1,0,0:0:0:0:
251,179,90888,1,8,0:0:0:0:
205,216,90981,1,0,0:0:0:0:
251,178,91075,1,8,0:0:0:0:
252,182,91169,1,0,0:0:0:0:
251,180,91263,1,0,0:0:0:0:
251,180,91356,1,8,0:0:0:0:
251,180,91450,1,0,0:0:0:0:
251,180,91544,1,0,0:0:0:0:
251,179,91638,1,8,0:0:0:0:
251,179,91825,5,8,0:0:0:0:
251,179,91919,1,0,0:0:0:0:
251,178,92013,1,8,0:0:0:0:
252,182,92200,1,8,0:0:0:0:
310,180,92294,1,0,0:0:0:0:
251,180,92388,1,0,0:0:0:0:
251,180,92481,1,8,0:0:0:0:
251,180,92575,1,8,0:0:0:0:
310,180,92669,1,0,0:0:0:0:
250,180,92763,1,0,0:0:0:0:
309,180,92856,1,8,0:0:0:0:
249,180,92950,1,0,0:0:0:0:
310,180,93044,1,0,0:0:0:0:
368,180,93138,1,8,0:0:0:0:
310,180,93325,1,8,0:0:0:0:
310,180,93419,1,0,0:0:0:0:
310,180,93513,1,0,0:0:0:0:
356,143,93606,1,0,0:0:0:0:
308,179,93700,1,8,0:0:0:0:
356,144,93794,1,8,0:0:0:0:
308,179,93888,1,8,0:0:0:0:
356,144,93981,1,8,0:0:0:0:
308,179,94075,1,0,0:0:0:0:
356,144,94169,1,0,0:0:0:0:
310,180,94263,1,8,0:0:0:0:
310,180,94356,1,0,0:0:0:0:
310,180,94450,1,0,0:0:0:0:
308,179,94544,1,0,0:0:0:0:
308,179,94638,1,8,0:0:0:0:
308,179,94731,1,8,0:0:0:0:
308,179,94825,1,0,0:0:0:0:
308,179,94919,1,8,0:0:0:0:
308,179,95013,1,0,0:0:0:0:
310,180,95200,1,12,0:0:0:0:
310,180,95388,1,4,0:0:0:0:
308,179,95575,1,0,0:0:0:0:
308,179,95669,1,0,0:0:0:0:
308,179,95763,1,8,0:0:0:0:
308,179,95856,1,8,0:0:0:0:
308,179,95950,1,0,0:0:0:0:
310,180,96138,1,8,0:0:0:0:
310,180,96325,1,0,0:0:0:0:
310,180,96419,1,0,0:0:0:0:
308,179,96513,1,8,0:0:0:0:
308,179,96606,1,0,0:0:0:0:
308,179,96700,1,8,0:0:0:0:
310,180,96794,1,0,0:0:0:0:
310,180,96888,1,8,0:0:0:0:
310,180,96981,1,0,0:0:0:0:
310,180,97075,1,0,0:0:0:0:
310,180,97169,1,8,0:0:0:0:
310,180,97263,1,0,0:0:0:0:
310,180,97356,1,8,0:0:0:0:
310,180,97450,1,8,0:0:0:0:
308,179,97544,1,0,0:0:0:0:
308,179,97638,1,0,0:0:0:0:
310,180,97825,1,0,0:0:0:0:
310,180,97919,1,0,0:0:0:0:
310,180,98013,1,8,0:0:0:0:
310,180,98106,1,8,0:0:0:0:
310,180,98200,1,0,0:0:0:0:
310,180,98294,1,0,0:0:0:0:
310,180,98388,1,8,0:0:0:0:
310,180,98481,1,0,0:0:0:0:
308,179,98575,1,0,0:0:0:0:
310,180,98669,1,8,0:0:0:0:
310,180,98763,1,8,0:0:0:0:
310,180,98856,1,0,0:0:0:0:
310,180,98950,1,8,0:0:0:0:
310,180,99044,1,8,0:0:0:0:
310,180,99138,1,0,0:0:0:0:
310,180,99325,1,0,0:0:0:0:
310,180,99419,1,0,0:0:0:0:
310,180,99513,1,8,0:0:0:0:
308,179,99606,1,0,0:0:0:0:
310,180,99700,1,8,0:0:0:0:
310,180,99794,1,0,0:0:0:0:
310,180,99888,1,8,0:0:0:0:
310,180,99981,1,8,0:0:0:0:
310,180,100075,1,0,0:0:0:0:
310,180,100169,1,0,0:0:0:0:
310,180,100263,1,8,0:0:0:0:
310,180,100356,1,8,0:0:0:0:
310,180,100450,1,0,0:0:0:0:
310,180,100544,1,0,0:0:0:0:
308,179,100638,1,8,0:0:0:0:
310,180,100731,1,0,0:0:0:0:
310,180,100825,1,8,0:0:0:0:
310,180,100919,1,0,0:0:0:0:
310,180,101013,1,8,0:0:0:0:
310,180,101200,1,4,0:0:0:0:
310,180,101388,1,12,0:0:0:0:
310,180,101575,1,0,0:0:0:0:
310,180,101668,1,0,0:0:0:0:
310,180,101762,1,8,0:0:0:0:
310,180,101950,1,0,0:0:0:0:
310,180,102138,1,0,0:0:0:0:
310,180,102325,1,0,0:0:0:0:
310,180,102419,1,8,0:0:0:0:
310,180,102513,1,8,0:0:0:0:
310,180,102700,1,8,0:0:0:0:
310,180,102794,1,0,0:0:0:0:
310,180,102888,1,0,0:0:0:0:
310,180,102981,1,8,0:0:0:0:
310,180,103075,1,8,0:0:0:0:
310,180,103169,1,8,0:0:0:0:
310,180,103263,1,0,0:0:0:0:
310,180,103450,1,0,0:0:0:0:
310,180,103544,1,0,0:0:0:0:
310,180,103638,1,8,0:0:0:0:
310,180,103731,1,8,0:0:0:0:
310,180,103825,1,0,0:0:0:0:
310,180,103919,1,0,0:0:0:0:
310,180,104013,1,8,0:0:0:0:
310,180,104106,1,0,0:0:0:0:
310,180,104200,1,0,0:0:0:0:
310,180,104294,1,8,0:0:0:0:
310,180,104388,1,0,0:0:0:0:
310,180,104481,1,0,0:0:0:0:
310,180,104575,1,8,0:0:0:0:
310,180,104669,1,8,0:0:0:0:
310,180,104763,1,8,0:0:0:0:
310,180,104856,1,0,0:0:0:0:
310,180,104950,1,8,0:0:0:0:
310,180,105138,1,0,0:0:0:0:
310,180,105325,1,0,0:0:0:0:
310,180,105419,1,8,0:0:0:0:
310,180,105513,1,8,0:0:0:0:
310,180,105700,1,8,0:0:0:0:
310,180,105794,1,0,0:0:0:0:
310,180,105888,1,0,0:0:0:0:
310,180,105981,1,8,0:0:0:0:
310,180,106075,1,0,0:0:0:0:
310,180,106169,1,0,0:0:0:0:
310,180,106263,1,8,0:0:0:0:
310,180,106450,1,0,0:0:0:0:
310,180,106544,1,0,0:0:0:0:
310,180,106638,1,8,0:0:0:0:
310,180,106731,1,0,0:0:0:0:
310,180,106825,1,0,0:0:0:0:
310,180,106919,1,0,0:0:0:0:
310,180,107013,1,8,0:0:0:0:
310,180,107106,1,8,0:0:0:0:
310,180,107200,1,0,0:0:0:0:
310,180,107294,1,8,0:0:0:0:
310,180,107388,1,0,0:0:0:0:
310,180,107481,1,8,0:0:0:0:
310,180,107575,1,0,0:0:0:0:
310,180,107669,1,0,0:0:0:0:
310,180,107763,1,8,0:0:0:0:
310,180,107856,1,8,0:0:0:0:
310,180,107950,1,8,0:0:0:0:
310,180,108138,1,0,0:0:0:0:
310,180,108325,1,0,0:0:0:0:
310,180,108419,1,8,0:0:0:0:
310,180,108513,1,8,0:0:0:0:
310,180,108700,1,8,0:0:0:0:
310,180,108794,1,0,0:0:0:0:
310,180,108888,1,0,0:0:0:0:
310,180,108981,1,8,0:0:0:0:
310,180,109075,1,8,0:0:0:0:
310,180,109169,1,8,0:0:0:0:
310,180,109263,1,0,0:0:0:0:
310,180,109450,1,0,0:0:0:0:
310,180,109544,1,0,0:0:0:0:
310,180,109638,1,8,0:0:0:0:
310,180,109731,1,8,0:0:0:0:
310,180,109825,1,0,0:0:0:0:
310,180,109919,1,0,0:0:0:0:
310,180,110013,1,8,0:0:0:0:
310,180,110106,1,0,0:0:0:0:
310,180,110200,1,0,0:0:0:0:
310,180,110294,1,8,0:0:0:0:
310,180,110388,1,8,0:0:0:0:
310,180,110481,1,0,0:0:0:0:
310,180,110575,1,0,0:0:0:0:
310,180,110669,1,0,0:0:0:0:
310,180,110763,1,8,0:0:0:0:
310,180,110856,1,0,0:0:0:0:
310,180,110950,1,8,0:0:0:0:
310,180,111138,1,0,0:0:0:0:
310,180,111325,1,0,0:0:0:0:
310,180,111419,1,8,0:0:0:0:
310,180,111513,1,8,0:0:0:0:
310,180,111700,1,8,0:0:0:0:
310,180,111794,1,0,0:0:0:0:
310,180,111888,1,0,0:0:0:0:
310,180,111981,1,8,0:0:0:0:
310,180,112075,1,8,0:0:0:0:
310,180,112169,1,0,0:0:0:0:
310,180,112263,1,8,0:0:0:0:
310,180,112450,1,0,0:0:0:0:
310,180,112544,1,0,0:0:0:0:
310,180,112638,1,8,0:0:0:0:
310,180,112731,1,0,0:0:0:0:
310,180,112825,1,0,0:0:0:0:
310,180,112919,1,0,0:0:0:0:
310,180,113013,1,8,0:0:0:0:
310,180,113106,1,8,0:0:0:0:
310,180,113200,1,0,0:0:0:0:
310,180,113294,1,8,0:0:0:0:
310,180,113388,1,0,0:0:0:0:
310,180,113481,1,8,0:0:0:0:
310,180,113575,1,0,0:0:0:0:
310,180,113669,1,0,0:0:0:0:
310,180,113763,1,8,0:0:0:0:
310,180,113856,1,0,0:0:0:0:
310,180,113950,1,8,0:0:0:0:
310,180,114138,1,8,0:0:0:0:
310,180,114325,1,0,0:0:0:0:
310,180,114419,1,0,0:0:0:0:
310,180,114513,1,8,0:0:0:0:
310,180,114606,1,0,0:0:0:0:
310,180,114700,1,0,0:0:0:0:
310,180,114794,1,0,0:0:0:0:
310,180,114888,1,8,0:0:0:0:
310,180,115075,1,0,0:0:0:0:
310,180,115169,1,0,0:0:0:0:
310,180,115263,1,8,0:0:0:0:
310,180,115356,1,0,0:0:0:0:
310,180,115450,1,0,0:0:0:0:
310,180,115544,1,8,0:0:0:0:
310,180,115638,1,8,0:0:0:0:
310,180,115825,1,0,0:0:0:0:
310,180,115919,1,0,0:0:0:0:
310,180,116013,1,8,0:0:0:0:
310,180,116106,1,0,0:0:0:0:
310,180,116200,1,8,0:0:0:0:
310,180,116294,1,0,0:0:0:0:
310,180,116388,1,8,0:0:0:0:
310,180,116575,1,0,0:0:0:0:
310,180,116669,1,0,0:0:0:0:
310,180,116763,1,8,0:0:0:0:
310,180,116856,1,8,0:0:0:0:
310,180,116950,1,0,0:0:0:0:
310,180,117044,1,0,0:0:0:0:
310,180,117138,1,8,0:0:0:0:
310,180,117325,1,0,0:0:0:0:
310,180,117513,1,8,0:0:0:0:
310,180,117700,1,0,0:0:0:0:
310,180,117888,1,8,0:0:0:0:
310,180,118075,1,0,0:0:0:0:
310,180,118263,1,8,0:0:0:0:
310,180,118450,1,0,0:0:0:0:
260,193,118638,5,12,0:0:0:0:
260,193,119388,1,4,0:0:0:0:
26,33,120138,2,0,L|289:141,4,280
