osu file format v14

[General]
AudioFilename: audio.mp3
AudioLeadIn: 0
PreviewTime: 10988
Countdown: 0
SampleSet: Soft
StackLeniency: 0.7
Mode: 2
LetterboxInBreaks: 0
WidescreenStoryboard: 1

[Editor]
DistanceSpacing: 1.1
BeatDivisor: 4
GridSize: 32
TimelineZoom: 3.099999

[Metadata]
Title:Happy birthday to You
TitleUnicode:Happy birthday to You
Artist:M2U
ArtistUnicode:M2U
Creator:AJamez
Version:Salad
Source:
Tags:happy birthday jeiryagtama_osu
BeatmapID:1824691
BeatmapSetID:872895

[Difficulty]
HPDrainRate:4
CircleSize:3
OverallDifficulty:7
ApproachRate:7
SliderMultiplier:1.4
SliderTickRate:1

[Events]
//Background and Video events
0,0,"Sans titre 51.png",0,0
//Break Periods
//Storyboard Layer 0 (Background)
//Storyboard Layer 1 (Fail)
//Storyboard Layer 2 (Pass)
//Storyboard Layer 3 (Foreground)
//Storyboard Sound Samples

[TimingPoints]
148,272.727272727273,4,2,1,30,1,0
1238,-100,4,2,1,50,0,0
1511,-100,4,2,1,50,0,0
2329,-100,4,2,1,50,0,0
5602,-100,4,2,1,60,0,0
5875,-100,4,2,1,60,0,0
6148,-100,4,2,1,60,0,0
6420,-100,4,2,1,60,0,0
6693,-100,4,2,1,60,0,0
11057,-100,4,2,1,80,0,1
11943,-100,4,2,1,30,0,1
12011,-100,4,2,1,80,0,1
14125,-100,4,2,1,30,0,1
14193,-100,4,2,1,80,0,1
16920,-100,4,2,1,80,0,1
17602,-100,4,2,1,80,0,1
19784,-100,4,2,1,60,0,0
24148,-100,4,2,1,80,0,1
27966,-100,4,2,1,60,0,0
28102,-100,4,2,1,30,0,0
28511,-100,4,2,1,25,0,0
29057,-100,4,2,1,20,0,0
29193,-100,4,2,1,20,0,0
29602,-100,4,2,1,10,0,0
30148,-100,4,2,1,5,0,0

[Colours]
Combo1 : 128,255,128
Combo2 : 255,128,64
Combo3 : 172,111,111
Combo4 : 219,94,251
Combo5 : 255,81,81
Combo6 : 192,192,192

[HitObjects]
270,208,148,6,0,L|129:141,2,140,0|0|0,0:0|0:0|0:0,0:0:0:0:
354,227,829,1,0,0:0:0:0:
129,322,1102,1,0,0:0:0:0:
45,356,1238,6,0,P|39:292|72:212,1,140,0|8,0:0|0:0,0:0:0:0:
216,125,1784,1,8,0:0:0:0:
149,104,1920,1,0,0:0:0:0:
82,83,2056,1,8,0:0:0:0:
336,55,2329,6,0,L|354:213,1,140,4|0,0:0|0:0,0:0:0:0:
186,225,2875,2,0,L|169:383,1,140,0|0,0:0|0:0,0:0:0:0:
338,352,3420,2,0,L|195:318,2,140,0|0|0,0:0|0:0|0:0,0:0:0:0:
423,343,4102,2,0,P|472:300|468:202,1,140,4|0,2:0|0:0,0:0:0:0:
394,186,4511,6,0,L|230:162,1,140,0|4,0:0|0:0,0:0:0:0:
394,89,5057,1,0,0:0:0:0:
453,56,5193,1,0,0:0:0:0:
464,0,5329,1,0,0:0:0:0:
198,155,5602,6,0,L|359:186,3,140,4|8|8|8,0:0|0:0|0:0|3:0,0:0:0:0:
75,344,6693,5,4,0:0:0:0:
66,257,6829,2,0,L|62:94,1,140,8|0,0:0|0:0,0:0:0:0:
146,90,7238,2,0,L|296:71,1,140,8|8,0:3|0:3,0:0:0:0:
47,237,7784,1,4,0:0:0:0:
141,334,8057,1,0,0:0:0:0:
265,355,8329,1,0,0:0:0:0:
195,355,8465,1,0,0:0:0:0:
125,355,8601,1,0,0:0:0:0:
371,225,8875,5,4,0:0:0:0:
445,205,9011,2,0,L|433:56,1,140,0|0,0:0|0:0,0:0:0:0:
360,67,9420,2,0,L|188:67,1,140,8|8,0:0|0:0,0:0:0:0:
465,245,9966,5,8,0:0:0:0:
102,313,10375,2,0,L|106:156,1,140,4|8,0:0|0:0,0:0:0:0:
188,127,10784,1,8,0:0:0:0:
455,297,11057,6,0,L|292:318,1,140,4|0,0:0|0:0,0:0:0:0:
239,353,11466,1,0,0:0:0:0:
387,226,11738,1,0,0:0:0:0:
460,203,11875,6,0,P|478:138|455:62,1,140,0|0,0:0|0:0,0:0:0:0:
386,36,12284,1,0,0:0:0:0:
308,26,12420,1,0,0:0:0:0:
152,91,12693,1,8,0:0:0:0:
314,155,12966,1,0,0:0:0:0:
58,327,13238,6,0,L|46:164,1,140,0|0,0:0|0:0,0:0:0:0:
119,143,13648,1,0,0:0:0:0:
288,260,13920,1,0,0:0:0:0:
208,251,14057,2,0,L|59:259,1,140,2|0,0:0|0:0,0:0:0:0:
73,311,14466,1,0,0:0:0:0:
101,353,14602,1,0,0:0:0:0:
263,367,14875,2,0,L|95:352,1,140,8|0,0:0|0:0,0:0:0:0:
375,300,15420,6,0,P|428:267|460:165,1,140,4|0,0:0|0:0,0:0:0:0:
401,157,15829,1,0,0:0:0:0:
245,96,16102,2,0,L|330:76,2,70,0|0|0,0:0|0:0|0:0,0:0:0:0:
186,130,16511,1,8,0:0:0:0:
176,197,16647,1,0,3:0:0:0:
401,347,16920,6,0,P|451:300|437:206,1,140,12|0,0:0|0:0,0:0:0:0:
377,186,17329,1,0,0:0:0:0:
145,112,17602,6,0,L|280:76,2,140,4|8|0,0:0|0:0|0:0,0:0:0:0:
65,138,18284,1,12,0:0:0:0:
221,246,18557,2,0,L|71:281,1,140,4|0,0:0|0:0,0:0:0:0:
157,320,18966,1,0,0:0:0:0:
297,353,19238,1,8,0:0:0:0:
227,362,19374,1,8,0:0:0:0:
158,371,19510,1,8,3:0:0:0:
405,312,19784,6,0,L|406:153,1,140,4|0,0:0|0:0,0:0:0:0:
330,113,20193,2,0,L|166:88,1,140,0|0,0:0|0:0,0:0:0:0:
266,53,20602,1,0,0:0:0:0:
97,192,20875,2,0,L|250:217,2,140,0|0|8,0:0|0:0|0:0,0:0:0:0:
214,320,21693,2,0,L|299:331,1,70,0|0,0:0|0:0,0:0:0:0:
350,331,21966,6,0,L|199:309,1,140,0|0,0:0|0:0,0:0:0:0:
206,228,22375,2,0,L|371:248,1,140,0|0,0:0|0:0,0:0:0:0:
135,179,23057,1,0,0:0:0:0:
252,124,23329,1,0,0:0:0:0:
227,8,23602,1,8,0:0:0:0:
98,8,23875,1,0,0:0:0:0:
355,108,24148,6,0,P|405:154|408:249,1,140,4|0,0:0|0:0,0:0:0:0:
264,249,24693,2,0,P|226:269|163:355,1,140,8|0,0:0|0:0,0:0:0:0:
323,371,25238,2,0,L|406:378,1,70,8|0,0:0|3:0,0:0:0:0:
138,229,25648,6,0,P|64:189|46:117,1,140,12|0,0:0|0:0,0:0:0:0:
122,93,26057,1,0,3:0:0:0:
284,47,26329,2,0,L|130:0,2,140,0|8|8,0:0|0:0|0:0,0:0:0:0:
358,78,27011,1,0,0:0:0:0:
110,242,27284,5,4,0:0:0:0:
243,340,27557,2,0,L|152:351,1,70,0|8,3:0|3:0,0:0:0:0:
410,260,27966,5,4,0:0:0:0:
256,192,28238,12,0,30148,0:0:0:0:
