osu file format v14

[General]
AudioFilename: audio.mp3
AudioLeadIn: 0
PreviewTime: 10988
Countdown: 0
SampleSet: Soft
StackLeniency: 0.7
Mode: 2
LetterboxInBreaks: 0
WidescreenStoryboard: 0

[Editor]
DistanceSpacing: 1.1
BeatDivisor: 4
GridSize: 32
TimelineZoom: 3.099999

[Metadata]
Title:Happy birthday to You
TitleUnicode:Happy birthday to You
Artist:M2U
ArtistUnicode:M2U
Creator:AJamez
Version:Bliss
Source:
Tags:happy birthday jeiryagtama_osu
BeatmapID:1824688
BeatmapSetID:872895

[Difficulty]
HPDrainRate:6
CircleSize:5
OverallDifficulty:9.2
ApproachRate:9.2
SliderMultiplier:2.1
SliderTickRate:1

[Events]
//Background and Video events
0,0,"Sans titre 51.png",0,0
//Break Periods
//Storyboard Layer 0 (Background)
//Storyboard Layer 1 (Fail)
//Storyboard Layer 2 (Pass)
//Storyboard Layer 3 (Foreground)
//Storyboard Sound Samples

[TimingPoints]
148,272.727272727273,4,2,1,30,1,0
1238,-100,4,2,1,50,0,0
1511,-100,4,2,1,50,0,0
2329,-100,4,2,1,50,0,0
5602,-100,4,2,1,60,0,0
5875,-100,4,2,1,60,0,0
6148,-100,4,2,1,60,0,0
6420,-100,4,2,1,60,0,0
6693,-100,4,2,1,60,0,0
11057,-100,4,2,1,80,0,1
11943,-100,4,2,1,30,0,1
12011,-100,4,2,1,80,0,1
14125,-100,4,2,1,30,0,1
14193,-100,4,2,1,80,0,1
16920,-100,4,2,1,80,0,1
17602,-100,4,2,1,80,0,1
19784,-100,4,2,1,60,0,0
24148,-100,4,2,1,80,0,1
27966,-100,4,2,1,60,0,0
28102,-100,4,2,1,30,0,0
28511,-100,4,2,1,25,0,0
29057,-100,4,2,1,20,0,0
29602,-100,4,2,1,10,0,0
30148,-100,4,2,1,5,0,0

[Colours]
Combo1 : 128,255,128
Combo2 : 255,128,64
Combo3 : 172,111,111
Combo4 : 219,94,251
Combo5 : 255,81,81
Combo6 : 192,192,192

[HitObjects]
74,334,148,6,0,P|55:253|161:153,1,210,0|0,0:0|0:0,0:0:0:0:
212,132,557,1,0,0:0:0:0:
128,90,693,1,0,0:0:0:0:
308,51,829,1,0,0:0:0:0:
116,15,1102,2,0,L|192:4,1,52.5,0|0,0:0|0:0,0:0:0:0:
350,162,1238,6,0,L|488:164,1,105
456,211,1443,1,0,0:0:0:0:
270,253,1511,2,0,P|203:269|154:356,1,157.5,8|0,0:0|0:0,0:0:0:0:
304,358,1784,1,8,0:0:0:0:
155,339,1920,1,0,0:0:0:0:
279,155,2057,2,0,P|341:124|379:26,1,157.5,8|0,0:0|0:0,0:0:0:0:
139,159,2329,6,0,P|209:125|346:101,1,210,4|0,0:0|0:0,0:0:0:0:
83,311,2875,1,0,0:0:0:0:
164,254,3011,1,0,0:0:0:0:
139,159,3147,1,0,0:0:0:0:
41,148,3284,1,0,0:0:0:0:
254,108,3420,6,0,L|218:344,1,210,0|0,0:0|0:0,0:0:0:0:
327,356,3829,1,0,0:0:0:0:
431,348,3966,1,0,0:0:0:0:
152,242,4102,2,0,L|272:213,1,105,4|0,2:0|0:0,0:0:0:0:
134,147,4375,2,0,L|123:89,1,52.5,0|0,0:0|0:0,0:0:0:0:
306,29,4511,6,0,L|431:13,1,105,0|0,0:0|0:0,0:0:0:0:
259,119,4784,2,0,L|139:107,1,105,4|0,0:0|0:0,0:0:0:0:
343,210,5057,1,0,0:0:0:0:
207,251,5193,1,0,0:0:0:0:
344,317,5329,2,0,L|451:339,1,105,0|0,0:0|0:0,0:0:0:0:
145,358,5602,6,0,P|73:326|51:225,1,157.5,4|0,0:0|0:0,0:0:0:0:
130,206,5875,2,0,L|134:42,1,157.5,8|0,0:0|0:0,0:0:0:0:
234,51,6148,2,0,L|237:-60,1,105,8|0,0:0|0:0,0:0:0:0:
292,69,6352,1,0,0:0:0:0:
476,145,6420,2,0,L|492:261,1,105,8|8,3:0|3:0,0:0:0:0:
435,272,6625,1,0,0:0:0:0:
179,353,6693,5,4,0:0:0:0:
307,275,6829,2,0,L|94:259,1,210,8|0,0:0|0:0,0:0:0:0:
228,126,7238,2,0,L|237:235,1,105,8|8,0:3|0:3,0:0:0:0:
399,244,7511,2,0,L|374:407,1,157.5,8|0,0:3|0:0,0:0:0:0:
90,366,7784,5,4,0:0:0:0:
264,320,8057,1,0,0:0:0:0:
261,227,8193,1,0,0:0:0:0:
479,160,8329,1,0,0:0:0:0:
372,104,8466,2,0,L|259:79,1,105,0|0,0:0|3:0,0:0:0:0:
321,86,8670,1,0,3:0:0:0:
363,116,8738,1,0,3:0:0:0:
384,164,8806,1,0,3:0:0:0:
127,180,8875,5,4,0:0:0:0:
25,240,9011,2,0,L|233:287,1,210
232,329,9352,1,0,0:0:0:0:
66,384,9420,2,8,L|86:271,1,105,8|0,0:0|0:0,0:0:0:0:
224,173,9693,1,8,0:0:0:0:
172,163,9761,1,0,3:0:0:0:
120,154,9829,1,0,3:0:0:0:
362,112,9966,6,0,L|132:63,1,210,8|0,0:0|0:0,0:0:0:0:
408,0,10375,2,0,P|457:64|437:211,1,210,4|8,0:0|0:0,0:0:0:0:
188,268,10784,2,0,P|263:273|366:348,1,157.5,8|0,0:0|0:0,0:0:0:0:
86,348,11057,6,0,P|24:308|72:186,1,210,4|0,0:0|0:0,0:0:0:0:
293,132,11466,2,0,L|176:111,1,105,0|8,0:0|0:0,0:0:0:0:
63,93,11738,1,0,0:0:0:0:
63,41,11806,1,0,0:0:0:0:
87,0,11874,1,0,0:0:0:0:
350,31,12011,6,0,L|475:49,1,105,0|0,0:0|0:0,0:0:0:0:
305,229,12284,2,0,L|430:245,1,105,0|0,0:0|0:0,0:0:0:0:
415,281,12488,1,0,0:0:0:0:
419,313,12557,1,0,0:0:0:0:
183,362,12693,2,0,L|405:387,1,210,8|0,0:0|0:0,0:0:0:0:
296,320,13102,2,0,L|243:313,1,52.5,0|0,0:0|0:0,0:0:0:0:
30,286,13238,6,0,P|64:215|172:128,1,210,0|0,0:0|0:0,0:0:0:0:
60,68,13648,2,0,L|185:26,1,105,0|8,0:0|0:0,0:0:0:0:
393,88,13920,1,0,0:0:0:0:
272,118,14057,2,0,P|228:193|215:306,1,157.5,2|0,0:0|0:0,0:0:0:0:
415,336,14329,1,0,0:0:0:0:
281,361,14466,2,0,L|408:383,2,105,0|0|0,0:0|0:0|0:0,0:0:0:0:
51,361,14875,1,8,0:0:0:0:
279,287,15148,2,0,L|95:237,1,157.5,0|0,0:0|0:0,0:0:0:0:
345,180,15420,6,0,P|334:115|205:49,1,210,4|0,0:0|0:0,0:0:0:0:
307,91,15829,1,0,0:0:0:0:
478,251,15966,2,0,L|364:285,1,105,8|0,0:0|0:0,0:0:0:0:
499,350,16238,2,0,L|390:381,1,105,0|0,0:0|0:0,0:0:0:0:
128,364,16511,1,8,0:0:0:0:
256,345,16648,1,0,3:0:0:0:
298,323,16716,1,0,3:0:0:0:
300,279,16784,1,0,3:0:0:0:
254,251,16852,1,0,3:0:0:0:
30,229,16920,6,0,P|47:149|117:24,1,210,12|0,0:0|0:0,0:0:0:0:
247,117,17329,2,0,L|130:134,1,105,0|0,0:0|0:0,0:0:0:0:
400,20,17602,2,0,L|282:38,1,105,4|0,0:0|0:0,0:0:0:0:
450,94,17875,2,0,P|470:146|459:213,1,105,8|0,0:0|0:0,0:0:0:0:
206,300,18148,1,0,0:0:0:0:
339,332,18284,2,0,P|386:286|304:211,1,157.5,12|0,0:0|0:0,0:0:0:0:
129,131,18557,6,0,P|72:178|16:304,1,210,4|0,0:0|0:0,0:0:0:0:
131,322,18966,2,0,L|249:335,1,105,0|0,0:0|0:0,0:0:0:0:
28,215,19238,2,0,L|157:226,1,105,8|8,0:0|0:0,0:0:0:0:
12,122,19511,2,0,P|30:62|75:35,1,105,8|8,3:0|3:0,0:0:0:0:
117,37,19716,1,0,0:0:0:0:
340,47,19784,6,0,P|421:88|466:201,1,210,4|0,0:0|0:0,0:0:0:0:
351,219,20193,2,0,L|349:334,1,105,0|8,0:0|0:0,0:0:0:0:
196,361,20466,1,0,0:0:0:0:
208,309,20534,1,0,0:0:0:0:
220,258,20602,1,0,0:0:0:0:
351,219,20738,1,0,0:0:0:0:
94,170,20875,6,0,L|270:131,1,157.5,0|0,0:0|0:0,0:0:0:0:
191,104,21148,2,0,L|83:80,1,105,0|0,0:0|0:0,0:0:0:0:
312,29,21420,2,0,L|420:5,1,105,8|0,0:0|0:0,0:0:0:0:
266,252,21693,2,0,L|158:228,1,105,0|0,0:0|0:0,0:0:0:0:
212,270,21898,1,0,0:0:0:0:
428,359,21966,6,0,P|469:302|395:188,1,210,0|0,0:0|0:0,0:0:0:0:
296,148,22375,2,0,L|166:123,1,105,0|8,0:0|0:0,0:0:0:0:
425,91,22648,2,0,P|475:30|478:-11,1,105,0|0,0:0|0:0,0:0:0:0:
385,8,22920,1,0,0:0:0:0:
112,259,23057,2,0,L|335:291,1,210,0|0,0:0|0:0,0:0:0:0:
326,368,23466,1,0,0:0:0:0:
131,358,23602,2,0,P|55:334|41:193,1,210,8|0,0:0|0:0,0:0:0:0:
470,165,24148,6,0,L|234:135,1,210,4|0,0:0|0:0,0:0:0:0:
375,114,24557,1,0,0:0:0:0:
108,272,24693,2,0,L|314:224,1,210,8|0,0:0|0:0,0:0:0:0:
188,185,25102,2,0,L|105:170,1,52.5,0|0,0:0|0:0,0:0:0:0:
365,307,25238,5,8,0:0:0:0:
236,363,25375,1,0,3:0:0:0:
287,373,25443,1,0,3:0:0:0:
338,384,25511,1,0,0:0:0:0:
51,257,25648,6,0,P|63:86|120:55,1,210,12|0,0:0|0:0,0:0:0:0:
133,55,25988,1,0,0:0:0:0:
300,83,26057,2,0,L|361:90,1,52.5,0|0,3:0|3:0,3:0:0:0:
158,211,26193,2,0,L|210:206,1,52.5,0|0,3:0|3:0,3:0:0:0:
395,309,26329,6,0,L|283:322,1,105,0|0,0:0|0:0,0:0:0:0:
443,208,26602,2,0,L|310:227,1,105,8|0,0:0|0:0,0:0:0:0:
74,356,26875,1,8,0:0:0:0:
195,272,27011,2,0,P|101:194|47:183,1,157.5,0|0,0:0|0:0,0:0:0:0:
255,122,27284,6,0,L|369:97,1,105,4|0,0:0|0:0,0:0:0:0:
353,57,27488,1,0,0:0:0:0:
139,18,27557,2,0,L|147:71,1,52.5,0|0,3:0|3:0,3:0:0:0:
330,247,27693,2,0,L|401:252,1,52.5,8|0,3:0|3:0,3:0:0:0:
182,363,27829,2,0,L|130:354,1,52.5,0|0,3:0|3:0,3:0:0:0:
408,373,27966,5,4,0:0:0:0:
256,192,28102,12,0,30148,0:0:0:0:
