osu file format v14

[General]
AudioFilename: audio.mp3
AudioLeadIn: 0
PreviewTime: 10532
Countdown: 0
SampleSet: Soft
StackLeniency: 0.7
Mode: 2
LetterboxInBreaks: 0
WidescreenStoryboard: 1

[Editor]
Bookmarks: 15441
DistanceSpacing: 1
BeatDivisor: 6
GridSize: 4
TimelineZoom: 2.799999

[Metadata]
Title:Happy birthday to You (M2U Version)
TitleUnicode:Happy birthday to You (M2U Version)
Artist:M2U
ArtistUnicode:M2U
Creator:Stardust Prism
Version:Zonda's Celebration
Source:
Tags:kukkai bigh bighzonda upbeat swing carol instrumental electronic karcher [karcher] bday party
BeatmapID:3563889
BeatmapSetID:1741881

[Difficulty]
HPDrainRate:6
CircleSize:4.1
OverallDifficulty:9
ApproachRate:9
SliderMultiplier:3.25
SliderTickRate:2

[Events]
//Background and Video events
0,0,"a.jpg",0,0
//Break Periods
//Storyboard Layer 0 (Background)
//Storyboard Layer 1 (Fail)
//Storyboard Layer 2 (Pass)
//Storyboard Layer 3 (Foreground)
//Storyboard Layer 4 (Overlay)
//Storyboard Sound Samples

[TimingPoints]
169,545.454545454546,4,2,2,30,1,0
896,-100,4,2,2,30,0,0
1259,-100,4,2,1,60,0,0
2350,-100,4,2,1,45,0,0
5623,-100,4,2,1,55,0,0
5896,-100,4,2,1,65,0,0
6169,-100,4,2,1,60,0,0
6441,-100,4,2,2,55,0,0
6714,-100,4,2,1,50,0,0
7259,-100,4,2,1,50,0,0
7532,-100,4,2,1,50,0,0
7805,-100,4,2,1,60,0,0
9078,-100,4,2,1,65,0,0
9441,-100,4,2,1,70,0,0
9987,-100,4,2,1,75,0,0
10441,-40,4,2,1,85,0,0
10714,-100,4,2,1,85,0,0
11078,-100,4,2,1,70,0,0
11805,-100,4,2,1,70,0,0
12350,-100,4,2,1,70,0,0
13259,-100,4,2,1,70,0,0
13987,-100,4,2,1,70,0,0
14532,-100,4,2,1,70,0,0
15441,-100,4,2,1,80,0,0
16987,-100,4,2,1,80,0,0
17350,-100,4,2,1,80,0,0
17623,-100,4,2,1,80,0,0
18078,-100,4,2,1,80,0,0
18350,-100,4,2,1,80,0,0
18623,-100,4,2,3,80,0,0
18987,-100,4,2,1,80,0,0
19260,-100,4,2,1,80,0,0
19805,-100,4,2,1,70,0,0
20532,-100,4,2,1,70,0,0
21169,-100,4,2,1,70,0,0
21441,-100,4,2,1,70,0,0
21714,-100,4,2,1,70,0,0
21987,-100,4,2,1,70,0,0
22714,-100,4,2,1,70,0,0
24169,-100,4,2,1,80,0,0
25714,-100,4,2,1,80,0,0
26078,-100,4,2,1,80,0,0
26350,-100,4,2,1,80,0,0
27350,-100,4,2,1,70,0,0
27987,-100,4,2,1,90,0,0
28169,-100,4,2,1,60,0,0
28532,-100,4,2,1,45,0,0
29078,-100,4,2,1,30,0,0
29623,-100,4,2,1,15,0,0
30169,-100,4,2,1,5,0,0

[Colours]
Combo1 : 255,128,192
Combo2 : 0,255,255

[HitObjects]
157,256,169,5,2,0:0:0:0:
301,220,441,2,0,L|301:100,1,108.333333333333,2|2,0:0|0:0,0:0:0:0:
241,100,714,1,2,0:0:0:0:
145,80,896,2,0,L|263:50,1,108.333333333333,2|0,0:0|0:0,0:0:0:0:
302,40,1169,1,0,0:0:0:0:
143,160,1259,6,0,P|111:205|156:241,1,108.333333333333,4|0,1:2|0:0,0:0:0:0:
303,132,1532,2,0,L|163:128,1,108.333333333333,8|0,0:0|1:2,0:0:0:0:
357,56,1805,2,0,L|475:59,1,108.333333333333,8|0,0:0|1:2,0:0:0:0:
410,56,2078,2,0,L|286:56,1,108.333333333333,2|0,1:2|0:0,0:0:0:0:
140,128,2350,6,0,L|336:136,1,162.5,6|0,1:2|0:0,0:0:0:0:
399,186,2805,2,0,L|203:194,1,162.5,0|0,0:0|0:0,0:0:0:0:
293,190,3169,2,0,L|291:76,1,108.333333333333,0|2,0:0|0:0,0:0:0:0:
180,61,3441,6,0,L|40:60,1,108.333333333333,2|0,1:2|0:0,0:0:0:0:
120,83,3714,2,0,L|260:82,1,108.333333333333,2|0,0:0|0:0,0:0:0:0:
184,128,3987,1,2,1:2:0:0:
72,192,4169,1,2,0:0:0:0:
45,189,4214,1,0,0:0:0:0:
72,192,4259,1,0,0:0:0:0:
45,189,4305,1,0,0:0:0:0:
72,192,4350,1,0,0:0:0:0:
60,190,4441,1,2,0:0:0:0:
184,172,4532,6,0,L|308:167,1,108.333333333333,2|2,1:2|0:0,0:0:0:0:
236,132,4805,2,0,L|108:132,1,108.333333333333,2|0,0:0|0:0,0:0:0:0:
184,44,5078,2,0,L|184:160,1,108.333333333333,2|2,1:2|0:0,0:0:0:0:
128,188,5350,2,0,L|256:184,1,108.333333333333,2|0,0:0|0:0,0:0:0:0:
108,224,5623,6,0,L|74:335,1,108.333333333333,0|0,1:2|0:0,0:0:0:0:
239,168,5896,2,0,L|359:160,1,108.333333333333,10|0,0:1|0:0,0:0:0:0:
184,100,6169,2,0,L|64:92,1,108.333333333333,10|0,0:1|0:0,0:0:0:0:
236,44,6441,2,0,L|304:40,2,54.1666666666667,10|0|8,0:1|0:0|0:1,0:0:0:0:
120,72,6714,5,6,1:2:0:0:
368,120,6896,2,0,P|404:174|329:219,1,162.5,10|0,0:0|1:2,0:0:0:0:
177,160,7259,2,0,L|55:156,1,108.333333333333,10|8,0:0|0:3,0:0:0:0:
231,80,7532,2,0,L|359:72,1,108.333333333333,10|4,0:3|0:3,0:0:0:0:
177,167,7805,6,0,L|305:159,1,108.333333333333,10|0,0:0|0:0,0:0:0:0:
448,104,8078,2,0,L|320:96,1,108.333333333333,10|0,0:0|0:0,0:0:0:0:
284,92,8350,1,2,0:0:0:0:
36,76,8532,2,0,P|96:76|96:76,3,54.1666666666667,10|0|0|10,0:0|0:0|0:0|0:3,0:0:0:0:
204,72,8896,5,6,1:2:0:0:
433,64,9078,2,0,L|257:60,1,162.5,2|2,0:0|0:0,0:0:0:0:
430,128,9441,2,0,L|426:252,1,108.333333333333,2|0,0:0|0:0,0:0:0:0:
264,184,9714,2,0,L|260:308,1,108.333333333333,2|0,0:0|0:0,0:0:0:0:
423,124,9987,6,0,B|430:84|430:84|309:73,1,162.5,2|0,0:0|0:0,0:0:0:0:
62,68,10441,2,0,L|470:64,1,406.25,6|8,0:0|0:0,0:0:0:0:
414,64,10805,1,2,1:2:0:0:
71,152,11078,6,0,L|343:224,1,270.833333333333,6|2,1:2|0:0,0:0:0:0:
332,221,11623,1,8,0:0:0:0:
203,116,11805,2,0,L|264:116,1,54.1666666666667,2|0,0:0|0:0,0:0:0:0:
436,120,12078,1,2,0:0:0:0:
492,128,12169,1,0,0:0:0:0:
331,129,12350,6,0,L|271:125,1,54.1666666666667,0|0,0:0|0:0,0:0:0:0:
48,224,12714,2,0,L|241:210,1,162.5,8|2,0:0|0:0,0:0:0:0:
335,132,13169,1,2,0:0:0:0:
207,148,13259,6,0,B|204:242|204:242|295:250,1,162.5,2|0,1:2|0:0,0:0:0:0:
356,268,13669,1,2,0:0:0:0:
448,267,13805,1,8,0:0:0:0:
297,195,13987,1,2,0:0:0:0:
242,193,14078,1,0,0:0:0:0:
349,126,14259,1,2,0:0:0:0:
403,124,14350,1,0,0:0:0:0:
225,49,14532,6,0,L|390:107,1,162.5,0|0,0:0|0:0,0:0:0:0:
240,104,14896,1,8,0:0:0:0:
20,144,15169,1,2,1:2:0:0:
358,266,15441,6,0,P|391:216|312:160,1,162.5,6|0,1:2|0:0,0:0:0:0:
218,168,15896,1,2,0:0:0:0:
86,152,15987,2,0,L|90:32,1,108.333333333333,0|0,0:0|0:0,0:0:0:0:
160,34,16259,2,0,L|36:42,1,108.333333333333,2|2,0:0|0:0,0:0:0:0:
214,80,16532,6,0,L|330:78,1,108.333333333333,10|2,0:0|1:2,0:0:0:0:
323,78,16805,1,2,1:2:0:0:
79,45,16987,2,0,P|62:145|160:192,1,216.666666666667,14|2,0:3|1:2,0:0:0:0:
494,82,17623,5,6,1:2:0:0:
267,62,17896,2,0,L|267:190,1,108.333333333333,10|2,0:0|0:0,0:0:0:0:
323,192,18169,1,0,0:0:0:0:
76,168,18350,1,10,0:0:0:0:
306,83,18623,6,0,P|382:111|290:171,1,216.666666666667,6|0,1:2|1:2,0:0:0:0:
87,182,19259,2,0,L|79:70,1,108.333333333333,8|8,0:0|0:0,0:0:0:0:
135,70,19532,1,10,0:3:0:0:
264,68,19714,1,4,0:3:0:0:
425,124,19805,6,0,B|186:127|186:127|186:86,1,270.833333333333,6|2,1:2|0:0,0:0:0:0:
315,38,20350,1,8,0:0:0:0:
411,102,20532,2,0,L|339:104,1,54.1666666666667,2|0,0:0|0:0,0:0:0:0:
248,112,20805,1,2,0:0:0:0:
380,172,20896,5,2,1:2:0:0:
380,172,21078,1,0,0:0:0:0:
324,172,21169,2,0,L|316:56,1,108.333333333333,2|0,1:1|0:0,0:0:0:0:
476,140,21441,2,0,L|484:24,1,108.333333333333,10|0,0:1|0:0,0:0:0:0:
428,20,21714,1,2,1:2:0:0:
340,16,21896,1,2,0:0:0:0:
180,28,21987,6,0,P|95:86|182:140,1,243.75,2|2,1:2|1:2,0:0:0:0:
344,116,22532,1,8,0:0:0:0:
432,60,22714,1,2,0:0:0:0:
168,52,22987,1,2,0:0:0:0:
104,56,23078,6,0,B|88:128|116:180|116:180|160:184,1,162.5,2|0,1:2|1:2,0:0:0:0:
104,184,23441,1,0,0:0:0:0:
56,184,23532,1,0,0:0:0:0:
217,128,23623,2,0,L|353:124,1,108.333333333333,8|0,0:0|0:0,0:0:0:0:
268,232,23896,2,0,L|236:96,1,108.333333333333,2|0,1:2|0:0,0:0:0:0:
406,58,24169,6,0,P|434:120|350:184,1,162.5,6|0,1:2|0:0,0:0:0:0:
267,188,24623,1,2,0:0:0:0:
107,281,24714,2,0,L|292:282,1,162.5,0|2,0:0|0:0,0:0:0:0:
346,283,25168,1,2,0:0:0:0:
186,288,25259,6,0,P|131:256|166:185,1,108.333333333333,10|2,0:0|1:2,0:0:0:0:
186,217,25532,1,2,1:2:0:0:
375,220,25714,2,0,P|378:120|327:84,1,162.5,14|0,0:3|0:0,0:0:0:0:
279,68,26078,2,0,L|415:68,1,108.333333333333,2|0,1:2|0:0,0:0:0:0:
227,40,26350,6,0,L|75:44,1,108.333333333333,6|0,1:2|0:0,0:0:0:0:
281,128,26623,2,0,L|433:132,1,108.333333333333,10|2,0:0|0:0,0:0:0:0:
334,128,26896,1,8,0:0:0:0:
86,121,27078,1,10,0:0:0:0:
424,48,27350,6,0,B|464:88|464:88|340:88,1,162.5,2|8,1:2|0:0,0:0:0:0:
195,120,27714,1,8,0:0:0:0:
255,120,27805,1,8,0:3:0:0:
195,120,27896,1,4,0:3:0:0:
387,168,27987,5,6,1:1:0:0:
256,192,28169,12,0,30169,0:0:0:0:
