osu file format v14

[General]
AudioFilename: audio.mp3
AudioLeadIn: 0
PreviewTime: 10532
Countdown: 0
SampleSet: Soft
StackLeniency: 0.7
Mode: 2
LetterboxInBreaks: 0
WidescreenStoryboard: 1

[Editor]
Bookmarks: 15441
DistanceSpacing: 1.2
BeatDivisor: 6
GridSize: 32
TimelineZoom: 2

[Metadata]
Title:Happy birthday to You (M2U Version)
TitleUnicode:Happy birthday to You (M2U Version)
Artist:M2U
ArtistUnicode:M2U
Creator:Stardust Prism
Version:Salad
Source:
Tags:kukkai bigh bighzonda upbeat swing carol instrumental electronic karcher [karcher] bday party
BeatmapID:3560943
BeatmapSetID:1741881

[Difficulty]
HPDrainRate:3
CircleSize:3
OverallDifficulty:7
ApproachRate:7
SliderMultiplier:2.13
SliderTickRate:1

[Events]
//Background and Video events
0,0,"a.jpg",0,0
//Break Periods
//Storyboard Layer 0 (Background)
//Storyboard Layer 1 (Fail)
//Storyboard Layer 2 (Pass)
//Storyboard Layer 3 (Foreground)
//Storyboard Layer 4 (Overlay)
//Storyboard Sound Samples

[TimingPoints]
169,545.454545454546,4,2,2,30,1,0
896,-100,4,2,2,30,0,0
1259,-100,4,2,1,60,0,0
2350,-100,4,2,1,45,0,0
5623,-100,4,2,1,55,0,0
5896,-100,4,2,1,65,0,0
6169,-100,4,2,1,60,0,0
6441,-100,4,2,2,55,0,0
6714,-100,4,2,1,50,0,0
7259,-100,4,2,1,50,0,0
7532,-100,4,2,1,50,0,0
7805,-100,4,2,1,60,0,0
9078,-100,4,2,1,65,0,0
9441,-100,4,2,1,70,0,0
9987,-100,4,2,1,75,0,0
10441,-100,4,2,1,85,0,0
11078,-100,4,2,1,70,0,0
11805,-100,4,2,1,70,0,0
12350,-100,4,2,1,70,0,0
13259,-100,4,2,1,70,0,0
13987,-100,4,2,1,70,0,0
14532,-100,4,2,1,70,0,0
15441,-100,4,2,1,80,0,0
16987,-100,4,2,1,80,0,0
17350,-100,4,2,1,80,0,0
17623,-100,4,2,1,80,0,0
18078,-100,4,2,1,80,0,0
18350,-100,4,2,1,80,0,0
18623,-100,4,2,3,80,0,0
18987,-100,4,2,1,80,0,0
19260,-100,4,2,1,80,0,0
19805,-100,4,2,1,70,0,0
20532,-100,4,2,1,70,0,0
21169,-100,4,2,1,70,0,0
21441,-100,4,2,1,70,0,0
21714,-100,4,2,1,70,0,0
21987,-100,4,2,1,70,0,0
22714,-100,4,2,1,70,0,0
24169,-100,4,2,1,80,0,0
25714,-100,4,2,1,80,0,0
26078,-100,4,2,1,80,0,0
26350,-100,4,2,1,80,0,0
27350,-100,4,2,1,70,0,0
27987,-100,4,2,1,90,0,0
28169,-100,4,2,1,60,0,0
28532,-100,4,2,1,45,0,0
29078,-100,4,2,1,30,0,0
29623,-100,4,2,1,15,0,0
30169,-100,4,2,1,5,0,0

[Colours]
Combo1 : 255,128,192
Combo2 : 0,255,255

[HitObjects]
102,273,169,5,2,0:0:0:0:
102,273,714,1,2,0:0:0:0:
315,278,1259,6,0,L|315:155,1,106.5,4|8,1:2|0:0,0:0:0:0:
206,193,1805,2,0,L|206:74,1,106.5,8|2,0:0|1:2,0:0:0:0:
441,306,2350,6,0,P|507:237|405:184,1,213,6|0,1:2|1:2,0:0:0:0:
202,298,3441,2,0,L|202:102,1,106.5,2|2,1:2|0:0,0:0:0:0:
315,220,3987,2,0,L|315:106,1,71,2|2,1:2|0:0,0:0:0:0:
202,298,4441,6,0,P|175:214|221:186,1,142,2|2,0:0|0:0,0:0:0:0:
325,198,5078,1,2,1:2:0:0:
218,218,5350,1,2,0:0:0:0:
111,241,5623,2,0,L|111:127,1,106.5,0|10,1:2|0:1,0:0:0:0:
239,120,6169,1,10,0:1:0:0:
366,107,6441,1,10,0:1:0:0:
121,267,6714,6,0,L|121:167,1,71,6|10,1:2|0:0,0:0:0:0:
264,157,7259,2,0,L|135:157,1,106.5,10|10,0:0|0:3,0:0:0:0:
265,279,7805,2,0,L|265:156,1,106.5,10|10,0:0|0:0,0:0:0:0:
157,228,8350,2,0,L|81:228,1,71,2|10,0:0|0:0,0:0:0:0:
358,295,8896,6,0,L|358:216,1,71,6|2,1:2|0:0,0:0:0:0:
216,158,9441,1,2,0:0:0:0:
109,140,9714,1,2,0:0:0:0:
350,350,9987,2,0,P|402:284|336:222,1,177.5,2|6,0:0|0:0,0:0:0:0:
208,232,10805,1,2,1:2:0:0:
453,281,11078,6,0,P|515:198|440:127,1,213,6|8,1:2|0:0,0:0:0:0:
347,199,11896,1,0,0:0:0:0:
465,209,12169,2,0,L|465:77,1,106.5,0|0,0:0|0:0,0:0:0:0:
358,90,12714,2,0,L|358:211,1,106.5,8|2,0:0|0:0,0:0:0:0:
113,321,13259,6,0,P|47:244|137:197,1,213,2|8,1:2|0:0,0:0:0:0:
225,189,14078,1,0,0:0:0:0:
117,191,14350,2,0,L|117:68,1,106.5,0|0,0:0|0:0,0:0:0:0:
225,189,14896,2,0,L|355:189,1,106.5,8|2,0:0|1:2,0:0:0:0:
86,351,15441,6,0,P|32:292|90:232,1,177.5,6|2,1:2|0:0,0:0:0:0:
229,239,16259,1,2,0:0:0:0:
464,170,16532,2,0,L|272:168,1,177.5,10|14,0:0|0:3,0:0:0:0:
145,172,17350,1,2,1:2:0:0:
390,336,17623,6,0,P|437:288|375:204,1,177.5,6|2,1:2|0:0,0:0:0:0:
280,225,18350,1,10,0:0:0:0:
387,205,18623,2,0,L|387:55,1,142,6|0,1:2|1:2,0:0:0:0:
281,62,19259,2,0,L|144:62,1,106.5,8|10,0:0|0:3,0:0:0:0:
421,326,19805,6,0,P|491:263|403:206,1,213,6|8,1:2|0:0,0:0:0:0:
313,210,20623,1,0,0:0:0:0:
419,201,20896,2,0,L|419:68,1,106.5,2|2,1:2|1:1,0:0:0:0:
292,103,21441,1,10,0:1:0:0:
409,98,21714,1,2,1:2:0:0:
196,296,21987,6,0,P|132:231|235:222,1,213,2|8,1:2|0:0,0:0:0:0:
323,174,22805,1,0,0:0:0:0:
215,219,23078,2,0,L|195:100,1,106.5,2|0,1:2|1:2,0:0:0:0:
311,130,23623,2,0,L|330:18,1,106.5,8|2,0:0|1:2,0:0:0:0:
83,267,24169,6,0,P|28:204|96:155,1,177.5,6|2,1:2|0:0,0:0:0:0:
227,177,24987,1,2,0:0:0:0:
461,322,25259,2,0,B|277:323,1,177.5,10|14,0:0|0:3,0:0:0:0:
140,322,26078,1,2,1:2:0:0:
384,340,26350,6,0,L|384:206,1,106.5,6|10,1:2|0:0,0:0:0:0:
275,259,26896,2,0,L|178:259,1,71,8|10,0:0|0:0,0:0:0:0:
407,285,27350,2,0,P|444:219|401:169,1,142,2|8,1:2|0:0,0:0:0:0:
163,172,27987,5,6,1:1:0:0:
256,192,28259,12,0,30169,0:0:0:0:
