osu file format v14

[General]
AudioFilename: audio.mp3
AudioLeadIn: 0
PreviewTime: 10532
Countdown: 0
SampleSet: Soft
StackLeniency: 0.7
Mode: 2
LetterboxInBreaks: 0
WidescreenStoryboard: 1

[Editor]
Bookmarks: 15441
DistanceSpacing: 1
BeatDivisor: 6
GridSize: 4
TimelineZoom: 2

[Metadata]
Title:Happy birthday to You (M2U Version)
TitleUnicode:Happy birthday to You (M2U Version)
Artist:M2U
ArtistUnicode:M2U
Creator:Stardust Prism
Version:Kukkai's Rain
Source:
Tags:kukkai bigh bighzonda upbeat swing carol instrumental electronic karcher [karcher] bday party
BeatmapID:3563071
BeatmapSetID:1741881

[Difficulty]
HPDrainRate:5
CircleSize:4
OverallDifficulty:8.8
ApproachRate:8.8
SliderMultiplier:3.1
SliderTickRate:2

[Events]
//Background and Video events
0,0,"a.jpg",0,0
//Break Periods
//Storyboard Layer 0 (Background)
//Storyboard Layer 1 (Fail)
//Storyboard Layer 2 (Pass)
//Storyboard Layer 3 (Foreground)
//Storyboard Layer 4 (Overlay)
//Storyboard Sound Samples

[TimingPoints]
169,545.454545454546,4,2,2,30,1,0
896,-100,4,2,2,30,0,0
1259,-100,4,2,1,60,0,0
2350,-100,4,2,1,45,0,0
5623,-100,4,2,1,55,0,0
5896,-100,4,2,1,65,0,0
6169,-100,4,2,1,60,0,0
6441,-100,4,2,2,55,0,0
6714,-100,4,2,1,50,0,0
7259,-100,4,2,1,50,0,0
7532,-100,4,2,1,50,0,0
7805,-100,4,2,1,60,0,0
9078,-100,4,2,1,65,0,0
9441,-100,4,2,1,70,0,0
9987,-100,4,2,1,75,0,0
10441,-100,4,2,1,85,0,0
11078,-100,4,2,1,70,0,0
11805,-100,4,2,1,70,0,0
12350,-100,4,2,1,70,0,0
13259,-100,4,2,1,70,0,0
13987,-100,4,2,1,70,0,0
14532,-100,4,2,1,70,0,0
15441,-100,4,2,1,80,0,0
16987,-100,4,2,1,80,0,0
17350,-100,4,2,1,80,0,0
17623,-100,4,2,1,80,0,0
18078,-100,4,2,1,80,0,0
18350,-100,4,2,1,80,0,0
18623,-100,4,2,3,80,0,0
18987,-100,4,2,1,80,0,0
19260,-100,4,2,1,80,0,0
19805,-100,4,2,1,70,0,0
20532,-100,4,2,1,70,0,0
21169,-100,4,2,1,70,0,0
21441,-100,4,2,1,70,0,0
21714,-100,4,2,1,70,0,0
21987,-100,4,2,1,70,0,0
22714,-100,4,2,1,70,0,0
24169,-100,4,2,1,80,0,0
25714,-100,4,2,1,80,0,0
26078,-100,4,2,1,80,0,0
26350,-100,4,2,1,80,0,0
27350,-100,4,2,1,70,0,0
27987,-100,4,2,1,90,0,0
28169,-100,4,2,1,60,0,0
28532,-100,4,2,1,45,0,0
29078,-100,4,2,1,30,0,0
29623,-100,4,2,1,15,0,0
30169,-100,4,2,1,5,0,0

[Colours]
Combo1 : 255,128,192
Combo2 : 0,255,255

[HitObjects]
204,352,169,6,0,L|204:184,1,155,2|2,0:0|0:0,0:0:0:0:
308,200,623,2,0,L|376:200,1,51.6666666666667,2|2,0:0|0:0,0:0:0:0:
256,200,896,1,2,0:0:0:0:
460,96,1259,5,4,1:2:0:0:
128,92,1532,1,8,0:0:0:0:
460,96,1805,2,0,L|460:224,1,103.333333333333,8|0,0:0|1:2,0:0:0:0:
408,200,2078,1,2,1:2:0:0:
52,328,2350,6,0,L|228:328,1,155,6|0,1:2|0:0,0:0:0:0:
48,328,2896,2,0,L|48:148,1,155,0|0,1:2|0:0,0:0:0:0:
252,184,3441,6,0,L|391:96,2,155,2|2|2,1:2|0:0|1:2,0:0:0:0:
96,204,4169,1,2,0:0:0:0:
96,204,4259,1,0,0:0:0:0:
252,264,4441,1,2,0:0:0:0:
304,264,4532,6,0,L|175:265,1,103.333333333333,2|2,1:2|0:0,0:0:0:0:
252,264,4805,1,2,0:0:0:0:
160,312,4987,2,0,L|160:228,1,51.6666666666667,0|2,0:0|1:2,0:0:0:0:
320,248,5259,2,0,L|320:176,1,51.6666666666667,2|2,0:0|0:0,0:0:0:0:
216,200,5532,6,0,L|148:200,1,51.6666666666667,0|0,0:0|1:2,0:0:0:0:
400,144,5896,1,10,0:1:0:0:
48,140,6169,2,0,L|48:24,1,103.333333333333,10|0,0:1|0:0,0:0:0:0:
100,40,6441,1,10,0:1:0:0:
440,340,6714,5,6,1:2:0:0:
295,320,6896,2,0,L|452:321,1,155,10|0,0:0|1:2,0:0:0:0:
359,300,7259,2,0,P|334:258|386:215,1,103.333333333333,10|8,0:0|0:3,0:0:0:0:
416,219,7532,2,0,P|437:167|399:122,1,103.333333333333,10|4,0:3|0:3,0:0:0:0:
220,196,7805,5,10,0:0:0:0:
376,196,8078,2,0,L|376:36,1,155,10|2,0:0|0:0,0:0:0:0:
213,258,8532,2,0,P|138:242|85:171,1,155,10|10,0:0|0:3,0:0:0:0:
272,236,8896,5,6,1:2:0:0:
376,232,9078,2,0,L|376:60,1,155,2|2,0:0|0:0,0:0:0:0:
300,80,9441,1,2,0:0:0:0:
456,80,9714,1,2,0:0:0:0:
60,360,9987,6,0,L|60:188,1,155,2|0,0:0|0:0,0:0:0:0:
316,144,10441,2,0,L|132:144,1,155,6|8,0:0|0:0,0:0:0:0:
108,144,10805,1,2,1:2:0:0:
440,368,11078,6,0,P|492:312|360:216,1,258.333333333333,6|2,1:2|0:0,0:0:0:0:
340,204,11623,1,8,0:0:0:0:
168,208,11805,2,0,L|100:208,1,51.6666666666667,2|0,0:0|0:0,0:0:0:0:
284,152,12078,6,0,L|284:72,1,51.6666666666667,2|0,0:0|0:0,0:0:0:0:
180,104,12350,2,0,L|116:104,1,51.6666666666667,0|0,0:0|0:0,0:0:0:0:
472,372,12714,2,0,L|472:176,1,155,8|2,0:0|0:0,0:0:0:0:
367,217,13169,1,2,0:0:0:0:
180,236,13259,6,0,P|144:157|215:110,1,155,2|0,1:2|0:0,0:0:0:0:
260,112,13669,1,2,0:0:0:0:
128,360,13987,2,0,L|128:304,1,51.6666666666667,2|0,0:0|0:0,0:0:0:0:
284,300,14259,6,0,L|284:216,1,51.6666666666667,2|0,0:0|0:0,0:0:0:0:
180,244,14532,2,0,L|112:244,1,51.6666666666667,0|0,0:0|0:0,0:0:0:0:
284,244,14896,1,8,0:0:0:0:
68,196,15169,1,2,1:2:0:0:
408,344,15441,6,0,P|448:276|384:236,1,155,6|0,1:2|0:0,0:0:0:0:
244,240,15896,2,0,L|172:240,1,51.6666666666667,2|0,0:0|0:0,0:0:0:0:
296,240,16169,2,0,L|296:168,1,51.6666666666667,0|2,0:0|0:0,0:0:0:0:
192,192,16441,5,2,0:0:0:0:
352,192,16532,2,0,L|464:192,1,103.333333333333,10|2,0:0|1:2,0:0:0:0:
455,192,16805,1,2,1:2:0:0:
200,360,16987,2,0,L|408:360,1,206.666666666667,14|2,0:3|1:2,0:0:0:0:
64,280,17623,6,0,L|231:280,1,155,6|10,1:2|0:0,0:0:0:0:
114,251,18078,1,2,0:0:0:0:
64,280,18169,1,0,0:0:0:0:
316,284,18350,1,10,0:0:0:0:
160,280,18623,6,0,P|116:244|176:120,1,206.666666666667,6|0,1:2|1:2,0:0:0:0:
376,248,19259,2,0,L|376:128,1,103.333333333333,8|8,0:0|0:0,0:0:0:0:
324,148,19532,2,0,L|432:148,1,103.333333333333,10|4,0:3|0:3,0:0:0:0:
260,360,19805,6,0,P|200:336|280:208,1,258.333333333333,6|2,1:2|0:0,0:0:0:0:
320,208,20350,1,8,0:0:0:0:
476,208,20532,2,0,L|476:128,1,51.6666666666667,2|0,0:0|0:0,0:0:0:0:
324,156,20805,6,0,L|240:156,1,51.6666666666667,2|2,0:0|1:2,0:0:0:0:
376,156,21078,2,0,L|376:76,1,51.6666666666667,0|2,0:0|1:1,0:0:0:0:
40,368,21441,2,0,L|40:180,1,155,10|2,0:1|1:2,0:0:0:0:
154,213,21896,1,2,0:0:0:0:
332,220,21987,6,0,L|136:220,1,155,2|0,1:2|0:0,0:0:0:0:
100,220,22396,1,2,1:2:0:0:
260,144,22714,2,0,L|336:144,1,51.6666666666667,2|0,0:0|0:0,0:0:0:0:
160,140,22987,6,0,L|160:56,1,51.6666666666667,2|2,0:0|1:2,0:0:0:0:
316,76,23350,1,0,1:2:0:0:
160,76,23623,1,8,0:0:0:0:
392,76,23896,1,2,1:2:0:0:
44,360,24169,6,0,P|36:300|116:256,1,155,6|0,1:2|0:0,0:0:0:0:
272,268,24623,1,2,0:0:0:0:
324,268,24714,2,0,L|324:128,1,103.333333333333,0|0,0:0|0:0,0:0:0:0:
272,168,24987,2,0,L|144:168,1,103.333333333333,2|2,0:0|0:0,0:0:0:0:
332,96,25259,6,0,L|452:96,1,103.333333333333,10|2,0:0|1:2,0:0:0:0:
384,96,25532,1,2,1:2:0:0:
104,368,25714,2,0,P|64:320|136:192,1,206.666666666667,14|2,0:3|1:2,0:0:0:0:
469,196,26350,6,0,L|267:196,1,155,6|10,1:2|0:0,0:0:0:0:
314,196,26805,1,2,0:0:0:0:
368,96,26896,1,8,0:0:0:0:
496,96,27078,1,10,0:0:0:0:
120,368,27350,6,0,L|312:372,1,155,2|8,1:2|0:0,0:0:0:0:
328,372,27714,1,8,0:0:0:0:
328,320,27805,1,8,0:3:0:0:
276,320,27896,1,4,0:3:0:0:
120,312,27987,5,6,1:1:0:0:
256,192,28169,12,0,30169,0:0:0:0:
