osu file format v14

[General]
AudioFilename: audio.mp3
AudioLeadIn: 0
PreviewTime: 10532
Countdown: 0
SampleSet: Soft
StackLeniency: 0.7
Mode: 2
LetterboxInBreaks: 0
WidescreenStoryboard: 0

[Editor]
Bookmarks: 14350
DistanceSpacing: 1.2
BeatDivisor: 6
GridSize: 32
TimelineZoom: 2

[Metadata]
Title:Happy birthday to You (M2U Version)
TitleUnicode:Happy birthday to You (M2U Version)
Artist:M2U
ArtistUnicode:M2U
Creator:Stardust Prism
Version:Cup
Source:
Tags:kukkai bigh bighzonda upbeat swing carol instrumental electronic karcher [karcher] bday party
BeatmapID:3560941
BeatmapSetID:1741881

[Difficulty]
HPDrainRate:2
CircleSize:2.5
OverallDifficulty:6
ApproachRate:6
SliderMultiplier:1.97
SliderTickRate:0.5

[Events]
//Background and Video events
0,0,"a.jpg",0,0
//Break Periods
//Storyboard Layer 0 (Background)
//Storyboard Layer 1 (Fail)
//Storyboard Layer 2 (Pass)
//Storyboard Layer 3 (Foreground)
//Storyboard Layer 4 (Overlay)
//Storyboard Sound Samples

[TimingPoints]
169,545.454545454546,4,2,2,30,1,0
896,-100,4,2,2,30,0,0
1259,-100,4,2,1,60,0,0
2350,-100,4,2,1,45,0,0
5623,-100,4,2,1,55,0,0
5896,-100,4,2,1,65,0,0
6169,-100,4,2,1,60,0,0
6441,-100,4,2,2,55,0,0
6714,-100,4,2,1,50,0,0
7259,-100,4,2,1,50,0,0
7532,-100,4,2,1,50,0,0
7805,-100,4,2,1,60,0,0
9078,-100,4,2,1,65,0,0
9441,-100,4,2,1,70,0,0
9987,-100,4,2,1,75,0,0
10441,-100,4,2,1,85,0,0
11078,-100,4,2,1,70,0,0
11805,-100,4,2,1,70,0,0
12350,-100,4,2,1,70,0,0
13259,-100,4,2,1,70,0,0
13987,-100,4,2,1,70,0,0
14532,-100,4,2,1,70,0,0
15441,-100,4,2,1,80,0,0
16987,-100,4,2,1,80,0,0
17350,-100,4,2,1,80,0,0
17623,-100,4,2,1,80,0,0
18078,-100,4,2,1,80,0,0
18350,-100,4,2,1,80,0,0
18623,-100,4,2,3,80,0,0
18987,-100,4,2,1,80,0,0
19260,-100,4,2,1,80,0,0
19805,-100,4,2,1,70,0,0
20532,-100,4,2,1,70,0,0
21169,-100,4,2,1,70,0,0
21441,-100,4,2,1,70,0,0
21714,-100,4,2,1,70,0,0
21987,-100,4,2,1,70,0,0
22714,-100,4,2,1,70,0,0
24169,-100,4,2,1,80,0,0
25714,-100,4,2,1,80,0,0
26078,-100,4,2,1,80,0,0
26350,-100,4,2,1,80,0,0
27350,-100,4,2,1,70,0,0
27987,-100,4,2,1,90,0,0
28169,-100,4,2,1,60,0,0
28532,-100,4,2,1,45,0,0
29078,-100,4,2,1,30,0,0
29623,-100,4,2,1,15,0,0
30169,-100,4,2,1,5,0,0

[Colours]
Combo1 : 255,128,192
Combo2 : 0,255,255

[HitObjects]
119,217,169,5,2,0:0:0:0:
119,217,714,1,2,0:0:0:0:
316,346,1259,6,0,L|316:240,1,98.5,4|8,1:2|0:0,0:0:0:0:
217,259,1805,2,0,L|217:148,1,98.5,8|2,0:0|1:2,0:0:0:0:
335,229,2350,6,0,P|386:142|306:88,1,197,6|0,1:2|1:2,0:0:0:0:
129,113,3441,2,0,L|-28:113,2,98.5,2|2|2,1:2|0:0|1:2,0:0:0:0:
309,104,4441,6,0,P|394:174|304:248,1,229.833333333333,2|2,0:0|1:2,0:0:0:0:
135,285,5623,1,0,1:2:0:0:
27,286,5896,1,10,0:1:0:0:
135,285,6169,1,10,0:1:0:0:
243,288,6441,1,10,0:1:0:0:
125,227,6714,5,6,1:2:0:0:
322,295,7259,2,0,L|322:185,1,98.5,10|10,0:0|0:3,0:0:0:0:
213,156,7805,2,0,L|329:156,1,98.5,10|10,0:0|0:0,0:0:0:0:
410,158,8350,2,0,L|410:82,1,65.6666666666667,2|10,0:0|0:0,0:0:0:0:
213,93,9078,5,2,0:0:0:0:
357,337,9441,2,0,L|356:209,1,98.5,2|2,0:0|0:0,0:0:0:0:
237,231,9987,1,2,0:0:0:0:
434,233,10441,1,6,0:0:0:0:
302,279,10805,1,2,1:2:0:0:
184,275,11078,6,0,P|132:201|216:141,1,197,6|8,1:2|0:0,0:0:0:0:
396,206,12169,2,0,L|177:206,1,197,0|8,0:0|0:0,0:0:0:0:
298,169,12987,1,2,0:0:0:0:
406,207,13259,6,0,P|459:165|359:88,1,197,2|8,1:2|0:0,0:0:0:0:
202,260,14350,2,0,L|410:259,1,197,0|8,0:0|0:0,0:0:0:0:
300,222,15169,1,2,1:2:0:0:
182,231,15441,6,0,P|133:167|197:119,1,164.166666666667,6|2,1:2|0:0,0:0:0:0:
314,121,16259,1,2,0:0:0:0:
422,73,16532,2,0,L|249:74,1,164.166666666667,10|14,0:0|0:3,0:0:0:0:
389,120,17350,1,2,1:2:0:0:
261,296,17623,6,0,P|213:242|277:185,1,164.166666666667,6|2,1:2|0:0,0:0:0:0:
360,176,18350,1,10,0:0:0:0:
468,315,18623,2,0,L|467:80,1,229.833333333333,6|8,1:2|0:0,0:0:0:0:
230,256,19805,6,0,L|16:257,1,197,6|8,1:2|0:0,0:0:0:0:
250,315,20896,1,2,1:2:0:0:
358,308,21169,2,0,L|359:200,1,98.5,2|10,1:1|0:1,0:0:0:0:
260,189,21714,1,2,1:2:0:0:
152,160,21987,6,0,L|365:160,1,197,2|8,1:2|0:0,0:0:0:0:
152,327,23078,1,2,1:2:0:0:
48,282,23350,1,0,1:2:0:0:
48,282,23623,1,8,0:0:0:0:
145,328,23896,1,2,1:2:0:0:
263,327,24169,6,0,P|307:262|246:200,1,164.166666666667,6|2,1:2|0:0,0:0:0:0:
129,216,24987,1,2,0:0:0:0:
21,170,25259,2,0,L|212:170,1,164.166666666667,10|14,0:0|0:3,0:0:0:0:
317,169,26078,1,2,1:2:0:0:
199,309,26350,6,0,P|150:257|222:224,1,164.166666666667,6|2,1:2|0:0,0:0:0:0:
309,165,27078,1,10,0:0:0:0:
210,138,27350,1,2,1:2:0:0:
441,105,27987,5,6,1:1:0:0:
256,192,28259,12,0,30169,0:0:0:0:
