osu file format v14

[General]
AudioFilename: audio.mp3
AudioLeadIn: 0
PreviewTime: 40125
Countdown: 0
SampleSet: None
StackLeniency: 0.7
Mode: 3
LetterboxInBreaks: 0
SpecialStyle: 0
WidescreenStoryboard: 0

[Editor]
Bookmarks: 25005,40365,55725,71085,86445,101805,117165,132525,148605
DistanceSpacing: 1.1
BeatDivisor: 4
GridSize: 32
TimelineZoom: 2.3

[Metadata]
Title:Gypsy Tronic
TitleUnicode:Gypsy Tronic
Artist:M2U
ArtistUnicode:M2U
Creator:Raveille
Version:By The Hand
Source:O2jam
Tags:
BeatmapID:1780158
BeatmapSetID:851610

[Difficulty]
HPDrainRate:8
CircleSize:4
OverallDifficulty:7
ApproachRate:5
SliderMultiplier:1.4
SliderTickRate:1

[Events]
//Background and Video events
0,0,"691377.jpg",0,0
//Break Periods
//Storyboard Layer 0 (Background)
//Storyboard Layer 1 (Fail)
//Storyboard Layer 2 (Pass)
//Storyboard Layer 3 (Foreground)
//Storyboard Sound Samples

[TimingPoints]
3885,480,4,1,0,25,1,0
40365,-100,4,1,0,25,0,1
55725,-100,4,1,0,25,0,0
117165,-100,4,1,0,25,0,1
132525,-100,4,1,0,25,0,0

[HitObjects]
64,192,3885,128,0,4365:0:0:0:0:
192,192,4125,128,0,4205:0:0:0:0:
320,192,4205,128,0,4285:0:0:0:0:
448,192,4285,128,0,4365:0:0:0:0:
192,192,4365,128,0,4845:0:0:0:0:
320,192,4485,128,0,4605:0:0:0:0:
448,192,4605,128,0,4725:0:0:0:0:
320,192,4725,128,0,4845:0:0:0:0:
64,192,4845,128,0,4925:0:0:0:0:
448,192,4845,128,0,4925:0:0:0:0:
64,192,5005,128,0,5085:0:0:0:0:
448,192,5005,128,0,5085:0:0:0:0:
64,192,5165,128,0,5245:0:0:0:0:
448,192,5165,128,0,5245:0:0:0:0:
64,192,5325,128,0,5685:0:0:0:0:
448,192,5325,128,0,5685:0:0:0:0:
192,192,5685,128,0,5805:0:0:0:0:
320,192,5805,128,0,5925:0:0:0:0:
448,192,5805,128,0,5925:0:0:0:0:
320,192,6045,128,0,6165:0:0:0:0:
448,192,6045,128,0,6165:0:0:0:0:
320,192,6285,1,0,0:0:0:0:
448,192,6285,1,0,0:0:0:0:
320,192,6405,128,0,6525:0:0:0:0:
448,192,6405,128,0,6525:0:0:0:0:
64,192,6525,1,0,0:0:0:0:
192,192,6645,128,0,6765:0:0:0:0:
320,192,6645,128,0,6765:0:0:0:0:
448,192,6765,1,0,0:0:0:0:
64,192,6885,128,0,7005:0:0:0:0:
192,192,6885,128,0,7005:0:0:0:0:
320,192,7005,1,0,0:0:0:0:
64,192,7125,1,0,0:0:0:0:
192,192,7125,1,0,0:0:0:0:
64,192,7245,128,0,7365:0:0:0:0:
192,192,7245,128,0,7365:0:0:0:0:
64,192,7485,128,0,7605:0:0:0:0:
448,192,7485,128,0,7605:0:0:0:0:
64,192,7725,128,0,7845:0:0:0:0:
192,192,7725,128,0,7845:0:0:0:0:
64,192,7965,128,0,8085:0:0:0:0:
192,192,7965,128,0,8085:0:0:0:0:
64,192,8205,1,0,0:0:0:0:
192,192,8205,1,0,0:0:0:0:
64,192,8325,128,0,8445:0:0:0:0:
192,192,8325,128,0,8445:0:0:0:0:
448,192,8445,1,0,0:0:0:0:
192,192,8565,128,0,8685:0:0:0:0:
320,192,8565,128,0,8685:0:0:0:0:
64,192,8685,1,0,0:0:0:0:
320,192,8805,128,0,8925:0:0:0:0:
448,192,8805,128,0,8925:0:0:0:0:
192,192,8925,1,0,0:0:0:0:
320,192,9045,1,0,0:0:0:0:
448,192,9045,1,0,0:0:0:0:
320,192,9165,128,0,9285:0:0:0:0:
448,192,9165,128,0,9285:0:0:0:0:
64,192,9405,128,0,9525:0:0:0:0:
448,192,9405,128,0,9525:0:0:0:0:
192,192,9525,128,0,9645:0:0:0:0:
320,192,9645,128,0,9765:0:0:0:0:
448,192,9645,128,0,9765:0:0:0:0:
320,192,9885,128,0,10005:0:0:0:0:
448,192,9885,128,0,10005:0:0:0:0:
64,192,10005,128,0,10125:0:0:0:0:
320,192,10125,1,0,0:0:0:0:
448,192,10125,1,0,0:0:0:0:
320,192,10245,128,0,10365:0:0:0:0:
448,192,10245,128,0,10365:0:0:0:0:
64,192,10365,128,0,10485:0:0:0:0:
192,192,10485,128,0,10605:0:0:0:0:
320,192,10485,128,0,10605:0:0:0:0:
448,192,10605,1,0,0:0:0:0:
64,192,10725,128,0,10845:0:0:0:0:
192,192,10725,128,0,10845:0:0:0:0:
320,192,10845,1,0,0:0:0:0:
64,192,10965,1,0,0:0:0:0:
192,192,10965,1,0,0:0:0:0:
64,192,11085,128,0,11205:0:0:0:0:
192,192,11085,128,0,11205:0:0:0:0:
64,192,11325,128,0,11445:0:0:0:0:
448,192,11325,128,0,11445:0:0:0:0:
320,192,11445,128,0,11565:0:0:0:0:
448,192,11565,128,0,11805:0:0:0:0:
192,192,11565,128,0,12045:0:0:0:0:
320,192,11805,128,0,12045:0:0:0:0:
64,192,12045,128,0,12285:0:0:0:0:
448,192,12045,128,0,12405:0:0:0:0:
192,192,12285,128,0,12525:0:0:0:0:
320,192,12405,128,0,12525:0:0:0:0:
64,192,12525,128,0,13005:0:0:0:0:
448,192,12525,128,0,12765:0:0:0:0:
192,192,12765,128,0,13005:0:0:0:0:
320,192,13005,128,0,13245:0:0:0:0:
448,192,13125,128,0,13365:0:0:0:0:
192,192,13245,128,0,13485:0:0:0:0:
64,192,13365,128,0,13605:0:0:0:0:
448,192,13485,128,0,13605:0:0:0:0:
320,192,13485,128,0,13605:0:0:0:0:
448,192,13725,128,0,13845:0:0:0:0:
320,192,13725,128,0,13845:0:0:0:0:
448,192,13965,1,0,0:0:0:0:
320,192,13965,1,0,0:0:0:0:
448,192,14085,128,0,14205:0:0:0:0:
320,192,14085,128,0,14205:0:0:0:0:
64,192,14205,1,0,0:0:0:0:
320,192,14325,128,0,14445:0:0:0:0:
192,192,14325,128,0,14445:0:0:0:0:
448,192,14445,1,0,0:0:0:0:
192,192,14565,128,0,14685:0:0:0:0:
64,192,14565,128,0,14685:0:0:0:0:
320,192,14685,1,0,0:0:0:0:
192,192,14805,1,0,0:0:0:0:
64,192,14805,1,0,0:0:0:0:
192,192,14925,128,0,15045:0:0:0:0:
64,192,14925,128,0,15045:0:0:0:0:
448,192,15165,128,0,15285:0:0:0:0:
64,192,15165,128,0,15285:0:0:0:0:
64,192,15405,128,0,15525:0:0:0:0:
192,192,15405,128,0,15525:0:0:0:0:
64,192,15645,128,0,15765:0:0:0:0:
192,192,15645,128,0,15765:0:0:0:0:
64,192,15885,1,0,0:0:0:0:
192,192,15885,1,0,0:0:0:0:
64,192,16005,128,0,16125:0:0:0:0:
192,192,16005,128,0,16125:0:0:0:0:
448,192,16125,128,0,16245:0:0:0:0:
192,192,16245,128,0,16365:0:0:0:0:
320,192,16245,128,0,16365:0:0:0:0:
64,192,16365,128,0,16845:0:0:0:0:
320,192,16485,128,0,16605:0:0:0:0:
448,192,16485,128,0,16605:0:0:0:0:
192,192,16605,1,0,0:0:0:0:
320,192,16725,1,0,0:0:0:0:
448,192,16725,1,0,0:0:0:0:
448,192,16845,128,0,16965:0:0:0:0:
320,192,16845,128,0,17085:0:0:0:0:
192,192,16965,1,0,0:0:0:0:
448,192,17085,128,0,17205:0:0:0:0:
64,192,17085,128,0,17325:0:0:0:0:
192,192,17205,1,0,0:0:0:0:
320,192,17325,128,0,17445:0:0:0:0:
448,192,17325,128,0,17445:0:0:0:0:
320,192,17565,128,0,17685:0:0:0:0:
448,192,17565,128,0,17685:0:0:0:0:
320,192,17805,1,0,0:0:0:0:
448,192,17805,1,0,0:0:0:0:
320,192,17925,128,0,18045:0:0:0:0:
448,192,17925,128,0,18045:0:0:0:0:
64,192,18045,1,0,0:0:0:0:
192,192,18165,128,0,18285:0:0:0:0:
320,192,18165,128,0,18285:0:0:0:0:
448,192,18285,1,0,0:0:0:0:
64,192,18405,128,0,18525:0:0:0:0:
192,192,18405,128,0,18525:0:0:0:0:
320,192,18525,1,0,0:0:0:0:
64,192,18645,1,0,0:0:0:0:
192,192,18645,1,0,0:0:0:0:
64,192,18765,128,0,18885:0:0:0:0:
192,192,18765,128,0,18885:0:0:0:0:
64,192,19005,128,0,19125:0:0:0:0:
448,192,19005,128,0,19125:0:0:0:0:
64,192,19245,128,0,19725:0:0:0:0:
320,192,19245,128,0,19485:0:0:0:0:
192,192,19485,128,0,19725:0:0:0:0:
320,192,19725,128,0,19965:0:0:0:0:
448,192,19725,128,0,20085:0:0:0:0:
64,192,19965,128,0,20205:0:0:0:0:
192,192,20085,128,0,20205:0:0:0:0:
320,192,20205,128,0,20445:0:0:0:0:
448,192,20205,128,0,20685:0:0:0:0:
192,192,20445,128,0,20685:0:0:0:0:
64,192,20685,128,0,20745:0:0:0:0:
192,192,20745,128,0,20805:0:0:0:0:
320,192,20805,128,0,20865:0:0:0:0:
448,192,20865,128,0,20925:0:0:0:0:
192,192,20925,128,0,20985:0:0:0:0:
64,192,20985,128,0,21045:0:0:0:0:
320,192,21045,128,0,21105:0:0:0:0:
192,192,21105,128,0,21165:0:0:0:0:
64,192,21165,1,0,0:0:0:0:
448,192,21165,1,0,0:0:0:0:
320,192,21405,1,0,0:0:0:0:
192,192,21645,1,0,0:0:0:0:
64,192,21645,1,0,0:0:0:0:
448,192,21645,1,0,0:0:0:0:
320,192,21765,1,0,0:0:0:0:
192,192,22005,1,0,0:0:0:0:
64,192,22125,1,0,0:0:0:0:
448,192,22125,1,0,0:0:0:0:
320,192,22365,1,0,0:0:0:0:
64,192,22605,1,0,0:0:0:0:
192,192,22605,1,0,0:0:0:0:
448,192,22605,1,0,0:0:0:0:
320,192,22845,1,0,0:0:0:0:
192,192,22845,1,0,0:0:0:0:
64,192,23085,1,0,0:0:0:0:
448,192,23085,1,0,0:0:0:0:
192,192,23325,1,0,0:0:0:0:
64,192,23565,1,0,0:0:0:0:
320,192,23565,1,0,0:0:0:0:
448,192,23565,1,0,0:0:0:0:
192,192,23685,1,0,0:0:0:0:
320,192,23805,1,0,0:0:0:0:
448,192,23885,1,0,0:0:0:0:
320,192,23965,1,0,0:0:0:0:
64,192,24045,1,0,0:0:0:0:
192,192,24045,1,0,0:0:0:0:
448,192,24165,1,0,0:0:0:0:
320,192,24285,1,0,0:0:0:0:
192,192,24285,1,0,0:0:0:0:
64,192,24405,1,0,0:0:0:0:
192,192,24525,1,0,0:0:0:0:
320,192,24525,1,0,0:0:0:0:
448,192,24525,1,0,0:0:0:0:
448,192,24765,1,0,0:0:0:0:
64,192,24765,128,0,25005:0:0:0:0:
320,192,25005,128,0,25485:0:0:0:0:
448,192,25005,128,0,25245:0:0:0:0:
192,192,25245,128,0,25485:0:0:0:0:
64,192,25485,128,0,25725:0:0:0:0:
448,192,25485,128,0,25845:0:0:0:0:
320,192,25605,128,0,25725:0:0:0:0:
192,192,25725,128,0,25845:0:0:0:0:
64,192,25845,128,0,25965:0:0:0:0:
320,192,25965,128,0,26205:0:0:0:0:
448,192,25965,128,0,26325:0:0:0:0:
64,192,26205,128,0,26325:0:0:0:0:
192,192,26325,128,0,26385:0:0:0:0:
320,192,26385,128,0,26445:0:0:0:0:
64,192,26445,128,0,26685:0:0:0:0:
448,192,26445,128,0,26805:0:0:0:0:
320,192,26565,128,0,26685:0:0:0:0:
192,192,26685,128,0,26805:0:0:0:0:
64,192,26805,128,0,26925:0:0:0:0:
192,192,26925,128,0,27405:0:0:0:0:
448,192,26925,128,0,27165:0:0:0:0:
320,192,27165,128,0,27405:0:0:0:0:
64,192,27405,128,0,27645:0:0:0:0:
448,192,27405,128,0,27885:0:0:0:0:
192,192,27645,128,0,27765:0:0:0:0:
320,192,27765,128,0,27885:0:0:0:0:
64,192,27885,128,0,28125:0:0:0:0:
192,192,27885,128,0,28365:0:0:0:0:
320,192,28125,128,0,28365:0:0:0:0:
64,192,28365,128,0,28485:0:0:0:0:
448,192,28365,128,0,28725:0:0:0:0:
64,192,28605,128,0,28845:0:0:0:0:
192,192,28725,128,0,28845:0:0:0:0:
320,192,28845,128,0,29325:0:0:0:0:
448,192,28845,128,0,29085:0:0:0:0:
192,192,29085,128,0,29325:0:0:0:0:
64,192,29325,128,0,29565:0:0:0:0:
448,192,29325,128,0,29565:0:0:0:0:
320,192,29565,128,0,29685:0:0:0:0:
192,192,29685,128,0,29745:0:0:0:0:
64,192,29745,128,0,29805:0:0:0:0:
320,192,29805,128,0,29925:0:0:0:0:
448,192,29805,128,0,30165:0:0:0:0:
192,192,29925,128,0,30045:0:0:0:0:
320,192,30045,128,0,30165:0:0:0:0:
192,192,30165,128,0,30285:0:0:0:0:
64,192,30285,128,0,30645:0:0:0:0:
448,192,30285,128,0,30525:0:0:0:0:
320,192,30525,128,0,30645:0:0:0:0:
192,192,30645,128,0,30705:0:0:0:0:
448,192,30705,128,0,30765:0:0:0:0:
64,192,30765,128,0,31005:0:0:0:0:
320,192,30765,128,0,31245:0:0:0:0:
192,192,31005,128,0,31245:0:0:0:0:
64,192,31245,128,0,31725:0:0:0:0:
448,192,31245,128,0,31485:0:0:0:0:
192,192,31485,128,0,31605:0:0:0:0:
320,192,31605,128,0,31725:0:0:0:0:
192,192,31725,128,0,31965:0:0:0:0:
448,192,31725,128,0,32085:0:0:0:0:
320,192,31965,128,0,32085:0:0:0:0:
192,192,32085,128,0,32205:0:0:0:0:
64,192,32205,128,0,32445:0:0:0:0:
448,192,32205,128,0,32445:0:0:0:0:
192,192,32445,128,0,32565:0:0:0:0:
320,192,32445,128,0,32565:0:0:0:0:
192,192,32685,128,0,33165:0:0:0:0:
64,192,32685,128,0,32925:0:0:0:0:
320,192,32925,128,0,33165:0:0:0:0:
448,192,33165,128,0,33405:0:0:0:0:
64,192,33165,128,0,33525:0:0:0:0:
192,192,33285,128,0,33405:0:0:0:0:
320,192,33405,128,0,33525:0:0:0:0:
448,192,33525,128,0,33645:0:0:0:0:
192,192,33645,128,0,33885:0:0:0:0:
64,192,33645,128,0,34005:0:0:0:0:
448,192,33885,128,0,34005:0:0:0:0:
320,192,34005,128,0,34065:0:0:0:0:
192,192,34065,128,0,34125:0:0:0:0:
448,192,34125,128,0,34365:0:0:0:0:
64,192,34125,128,0,34485:0:0:0:0:
192,192,34245,128,0,34365:0:0:0:0:
320,192,34365,128,0,34485:0:0:0:0:
448,192,34485,128,0,34605:0:0:0:0:
320,192,34605,128,0,35085:0:0:0:0:
64,192,34605,128,0,34845:0:0:0:0:
192,192,34845,128,0,35085:0:0:0:0:
448,192,35085,128,0,35325:0:0:0:0:
64,192,35085,128,0,35565:0:0:0:0:
320,192,35325,128,0,35445:0:0:0:0:
192,192,35445,128,0,35565:0:0:0:0:
448,192,35565,128,0,35805:0:0:0:0:
320,192,35565,128,0,36045:0:0:0:0:
192,192,35805,128,0,36045:0:0:0:0:
448,192,36045,128,0,36165:0:0:0:0:
64,192,36045,128,0,36405:0:0:0:0:
448,192,36285,128,0,36525:0:0:0:0:
320,192,36405,128,0,36525:0:0:0:0:
192,192,36525,128,0,37005:0:0:0:0:
64,192,36525,128,0,36765:0:0:0:0:
320,192,36765,128,0,37005:0:0:0:0:
448,192,37005,128,0,37245:0:0:0:0:
64,192,37005,128,0,37245:0:0:0:0:
192,192,37245,128,0,37365:0:0:0:0:
320,192,37365,128,0,37425:0:0:0:0:
448,192,37425,128,0,37485:0:0:0:0:
192,192,37485,128,0,37605:0:0:0:0:
64,192,37485,128,0,37845:0:0:0:0:
448,192,37605,128,0,37725:0:0:0:0:
192,192,37725,128,0,37845:0:0:0:0:
320,192,37845,128,0,37965:0:0:0:0:
448,192,37965,128,0,38325:0:0:0:0:
64,192,37965,128,0,38205:0:0:0:0:
320,192,38085,128,0,38205:0:0:0:0:
192,192,38205,128,0,38325:0:0:0:0:
320,192,38325,128,0,38445:0:0:0:0:
448,192,38445,128,0,38685:0:0:0:0:
192,192,38445,128,0,38805:0:0:0:0:
320,192,38805,128,0,38865:0:0:0:0:
192,192,38865,128,0,38925:0:0:0:0:
448,192,38925,128,0,39405:0:0:0:0:
64,192,38925,128,0,39045:0:0:0:0:
192,192,39045,128,0,39165:0:0:0:0:
320,192,39165,128,0,39285:0:0:0:0:
192,192,39285,128,0,39405:0:0:0:0:
320,192,39405,128,0,39645:0:0:0:0:
64,192,39405,128,0,39765:0:0:0:0:
448,192,39525,128,0,39645:0:0:0:0:
192,192,39645,128,0,39765:0:0:0:0:
320,192,39765,128,0,39885:0:0:0:0:
64,192,39885,128,0,40245:0:0:0:0:
448,192,39885,128,0,40245:0:0:0:0:
192,192,40005,128,0,40125:0:0:0:0:
320,192,40125,128,0,40245:0:0:0:0:
192,192,40245,128,0,40365:0:0:0:0:
320,192,40365,128,0,40485:0:0:0:0:
448,192,40365,128,0,40725:0:0:0:0:
192,192,40605,128,0,40725:0:0:0:0:
320,192,40605,128,0,40725:0:0:0:0:
64,192,40845,128,0,41085:0:0:0:0:
448,192,40845,128,0,41205:0:0:0:0:
192,192,41085,128,0,41205:0:0:0:0:
64,192,41205,128,0,41325:0:0:0:0:
192,192,41325,128,0,41445:0:0:0:0:
320,192,41325,128,0,41685:0:0:0:0:
192,192,41565,128,0,41685:0:0:0:0:
64,192,41565,128,0,41685:0:0:0:0:
64,192,41805,128,0,42165:0:0:0:0:
448,192,41805,128,0,42165:0:0:0:0:
192,192,42045,128,0,42165:0:0:0:0:
320,192,42165,128,0,42285:0:0:0:0:
192,192,42285,128,0,42645:0:0:0:0:
448,192,42285,128,0,42645:0:0:0:0:
64,192,42525,128,0,42645:0:0:0:0:
320,192,42525,128,0,42645:0:0:0:0:
64,192,42765,128,0,43005:0:0:0:0:
448,192,42765,128,0,43125:0:0:0:0:
192,192,43005,128,0,43125:0:0:0:0:
64,192,43125,128,0,43245:0:0:0:0:
320,192,43245,128,0,43365:0:0:0:0:
448,192,43245,128,0,43365:0:0:0:0:
320,192,43485,128,0,43725:0:0:0:0:
448,192,43485,128,0,43605:0:0:0:0:
192,192,43605,128,0,43725:0:0:0:0:
64,192,43725,128,0,43965:0:0:0:0:
448,192,43725,128,0,43965:0:0:0:0:
192,192,43965,128,0,44085:0:0:0:0:
320,192,43965,128,0,44085:0:0:0:0:
448,192,44085,128,0,44145:0:0:0:0:
320,192,44145,128,0,44205:0:0:0:0:
192,192,44205,128,0,44325:0:0:0:0:
64,192,44205,128,0,44565:0:0:0:0:
320,192,44445,128,0,44565:0:0:0:0:
192,192,44445,128,0,44565:0:0:0:0:
448,192,44685,128,0,44925:0:0:0:0:
64,192,44685,128,0,45045:0:0:0:0:
320,192,44925,128,0,45045:0:0:0:0:
448,192,45045,128,0,45165:0:0:0:0:
320,192,45165,128,0,45285:0:0:0:0:
192,192,45165,128,0,45525:0:0:0:0:
320,192,45405,128,0,45525:0:0:0:0:
448,192,45405,128,0,45525:0:0:0:0:
448,192,45645,128,0,46005:0:0:0:0:
64,192,45645,128,0,46005:0:0:0:0:
320,192,45885,128,0,46005:0:0:0:0:
192,192,46005,128,0,46125:0:0:0:0:
64,192,46125,128,0,46485:0:0:0:0:
320,192,46125,128,0,46245:0:0:0:0:
448,192,46245,128,0,46365:0:0:0:0:
192,192,46365,128,0,46485:0:0:0:0:
320,192,46485,128,0,46605:0:0:0:0:
448,192,46605,128,0,46845:0:0:0:0:
64,192,46605,128,0,46965:0:0:0:0:
320,192,46845,128,0,46965:0:0:0:0:
448,192,46965,128,0,47025:0:0:0:0:
192,192,47025,128,0,47085:0:0:0:0:
64,192,47085,128,0,47205:0:0:0:0:
320,192,47085,128,0,47205:0:0:0:0:
192,192,47325,128,0,47565:0:0:0:0:
64,192,47325,128,0,47445:0:0:0:0:
320,192,47445,128,0,47565:0:0:0:0:
448,192,47565,128,0,47805:0:0:0:0:
64,192,47565,128,0,47805:0:0:0:0:
192,192,47685,128,0,47805:0:0:0:0:
320,192,47805,128,0,47925:0:0:0:0:
448,192,47925,128,0,48045:0:0:0:0:
64,192,48045,128,0,48405:0:0:0:0:
192,192,48045,128,0,48165:0:0:0:0:
192,192,48285,128,0,48405:0:0:0:0:
320,192,48285,128,0,48405:0:0:0:0:
64,192,48525,128,0,48885:0:0:0:0:
448,192,48525,128,0,48765:0:0:0:0:
320,192,48765,128,0,48885:0:0:0:0:
448,192,48885,128,0,49005:0:0:0:0:
192,192,49005,128,0,49365:0:0:0:0:
320,192,49005,128,0,49125:0:0:0:0:
448,192,49245,128,0,49365:0:0:0:0:
320,192,49245,128,0,49365:0:0:0:0:
64,192,49485,128,0,49845:0:0:0:0:
448,192,49485,128,0,49845:0:0:0:0:
320,192,49725,128,0,49845:0:0:0:0:
192,192,49845,128,0,49965:0:0:0:0:
64,192,49965,128,0,50325:0:0:0:0:
320,192,49965,128,0,50325:0:0:0:0:
192,192,50205,128,0,50325:0:0:0:0:
448,192,50205,128,0,50325:0:0:0:0:
64,192,50445,128,0,50805:0:0:0:0:
448,192,50445,128,0,50685:0:0:0:0:
320,192,50685,128,0,50805:0:0:0:0:
448,192,50805,128,0,50925:0:0:0:0:
64,192,50925,128,0,51045:0:0:0:0:
192,192,50925,128,0,51045:0:0:0:0:
64,192,51165,128,0,51285:0:0:0:0:
192,192,51165,128,0,51405:0:0:0:0:
320,192,51285,128,0,51405:0:0:0:0:
64,192,51405,128,0,51645:0:0:0:0:
448,192,51405,128,0,51645:0:0:0:0:
192,192,51645,128,0,51765:0:0:0:0:
320,192,51645,128,0,51765:0:0:0:0:
64,192,51765,128,0,51825:0:0:0:0:
192,192,51825,128,0,51885:0:0:0:0:
320,192,51885,128,0,52005:0:0:0:0:
448,192,51885,128,0,52245:0:0:0:0:
192,192,52125,128,0,52245:0:0:0:0:
320,192,52125,128,0,52245:0:0:0:0:
64,192,52365,128,0,52605:0:0:0:0:
448,192,52365,128,0,52725:0:0:0:0:
192,192,52605,128,0,52725:0:0:0:0:
64,192,52725,128,0,52845:0:0:0:0:
192,192,52845,128,0,52965:0:0:0:0:
320,192,52845,128,0,53205:0:0:0:0:
192,192,53085,128,0,53205:0:0:0:0:
64,192,53085,128,0,53205:0:0:0:0:
64,192,53325,128,0,53685:0:0:0:0:
448,192,53325,128,0,53685:0:0:0:0:
192,192,53565,128,0,53685:0:0:0:0:
320,192,53685,128,0,53805:0:0:0:0:
192,192,53805,128,0,53925:0:0:0:0:
448,192,53805,128,0,54165:0:0:0:0:
320,192,53925,128,0,54045:0:0:0:0:
64,192,54045,128,0,54165:0:0:0:0:
192,192,54045,128,0,54165:0:0:0:0:
320,192,54165,128,0,54285:0:0:0:0:
64,192,54285,128,0,54405:0:0:0:0:
448,192,54285,128,0,54645:0:0:0:0:
64,192,54525,128,0,54765:0:0:0:0:
192,192,54525,128,0,54765:0:0:0:0:
320,192,54765,128,0,54885:0:0:0:0:
448,192,54765,128,0,54885:0:0:0:0:
64,192,54885,128,0,55125:0:0:0:0:
192,192,54885,128,0,55125:0:0:0:0:
448,192,55005,128,0,55125:0:0:0:0:
320,192,55125,128,0,55245:0:0:0:0:
64,192,55245,128,0,55485:0:0:0:0:
448,192,55245,128,0,55485:0:0:0:0:
192,192,55485,128,0,55605:0:0:0:0:
320,192,55485,128,0,55605:0:0:0:0:
448,192,55605,128,0,55725:0:0:0:0:
192,192,55725,128,0,56205:0:0:0:0:
64,192,55725,128,0,55965:0:0:0:0:
320,192,55965,128,0,56205:0:0:0:0:
448,192,56205,128,0,56445:0:0:0:0:
64,192,56205,128,0,56565:0:0:0:0:
192,192,56325,128,0,56445:0:0:0:0:
320,192,56445,128,0,56565:0:0:0:0:
448,192,56565,128,0,56685:0:0:0:0:
192,192,56685,128,0,56925:0:0:0:0:
64,192,56685,128,0,57045:0:0:0:0:
448,192,56925,128,0,57045:0:0:0:0:
320,192,57045,128,0,57105:0:0:0:0:
192,192,57105,128,0,57165:0:0:0:0:
448,192,57165,128,0,57405:0:0:0:0:
64,192,57165,128,0,57525:0:0:0:0:
192,192,57285,128,0,57405:0:0:0:0:
320,192,57405,128,0,57525:0:0:0:0:
448,192,57525,128,0,57645:0:0:0:0:
320,192,57645,128,0,58125:0:0:0:0:
64,192,57645,128,0,57885:0:0:0:0:
192,192,57885,128,0,58125:0:0:0:0:
448,192,58125,128,0,58365:0:0:0:0:
64,192,58125,128,0,58605:0:0:0:0:
320,192,58365,128,0,58485:0:0:0:0:
192,192,58485,128,0,58605:0:0:0:0:
448,192,58605,128,0,58845:0:0:0:0:
320,192,58605,128,0,59085:0:0:0:0:
192,192,58845,128,0,59085:0:0:0:0:
448,192,59085,128,0,59205:0:0:0:0:
64,192,59085,128,0,59445:0:0:0:0:
448,192,59325,128,0,59565:0:0:0:0:
320,192,59445,128,0,59565:0:0:0:0:
192,192,59565,128,0,60045:0:0:0:0:
64,192,59565,128,0,59805:0:0:0:0:
320,192,59805,128,0,60045:0:0:0:0:
448,192,60045,128,0,60285:0:0:0:0:
64,192,60045,128,0,60285:0:0:0:0:
192,192,60285,128,0,60405:0:0:0:0:
320,192,60405,128,0,60465:0:0:0:0:
448,192,60465,128,0,60525:0:0:0:0:
192,192,60525,128,0,60645:0:0:0:0:
64,192,60525,128,0,60885:0:0:0:0:
320,192,60645,128,0,60765:0:0:0:0:
192,192,60765,128,0,60885:0:0:0:0:
320,192,60885,128,0,61005:0:0:0:0:
448,192,61005,128,0,61365:0:0:0:0:
64,192,61005,128,0,61245:0:0:0:0:
192,192,61245,128,0,61365:0:0:0:0:
320,192,61365,128,0,61485:0:0:0:0:
448,192,61485,128,0,61725:0:0:0:0:
192,192,61485,128,0,61965:0:0:0:0:
320,192,61725,128,0,61965:0:0:0:0:
448,192,61965,128,0,62445:0:0:0:0:
64,192,61965,128,0,62205:0:0:0:0:
320,192,62205,128,0,62325:0:0:0:0:
192,192,62325,128,0,62445:0:0:0:0:
64,192,62445,128,0,62685:0:0:0:0:
320,192,62445,128,0,62565:0:0:0:0:
320,192,62685,128,0,62805:0:0:0:0:
448,192,62685,128,0,62805:0:0:0:0:
64,192,62805,1,0,0:0:0:0:
192,192,62805,128,0,62925:0:0:0:0:
448,192,62925,128,0,63285:0:0:0:0:
64,192,62925,128,0,63285:0:0:0:0:
320,192,63165,128,0,63285:0:0:0:0:
192,192,63165,128,0,63285:0:0:0:0:
320,192,63405,128,0,63885:0:0:0:0:
448,192,63405,128,0,63645:0:0:0:0:
192,192,63645,128,0,63885:0:0:0:0:
64,192,63885,128,0,64125:0:0:0:0:
448,192,63885,128,0,64245:0:0:0:0:
320,192,64005,128,0,64125:0:0:0:0:
192,192,64125,128,0,64245:0:0:0:0:
64,192,64245,128,0,64365:0:0:0:0:
320,192,64365,128,0,64605:0:0:0:0:
448,192,64365,128,0,64725:0:0:0:0:
64,192,64605,128,0,64725:0:0:0:0:
192,192,64725,128,0,64785:0:0:0:0:
320,192,64785,128,0,64845:0:0:0:0:
64,192,64845,128,0,65085:0:0:0:0:
448,192,64845,128,0,65205:0:0:0:0:
320,192,64965,128,0,65085:0:0:0:0:
192,192,65085,128,0,65205:0:0:0:0:
64,192,65205,128,0,65325:0:0:0:0:
192,192,65325,128,0,65805:0:0:0:0:
448,192,65325,128,0,65565:0:0:0:0:
320,192,65565,128,0,65805:0:0:0:0:
64,192,65805,128,0,66045:0:0:0:0:
448,192,65805,128,0,66285:0:0:0:0:
192,192,66045,128,0,66165:0:0:0:0:
320,192,66165,128,0,66285:0:0:0:0:
64,192,66285,128,0,66525:0:0:0:0:
192,192,66285,128,0,66765:0:0:0:0:
320,192,66525,128,0,66765:0:0:0:0:
64,192,66765,128,0,66885:0:0:0:0:
448,192,66765,128,0,67125:0:0:0:0:
64,192,67005,128,0,67245:0:0:0:0:
192,192,67125,128,0,67245:0:0:0:0:
320,192,67245,128,0,67725:0:0:0:0:
448,192,67245,128,0,67485:0:0:0:0:
192,192,67485,128,0,67725:0:0:0:0:
64,192,67725,128,0,67965:0:0:0:0:
448,192,67725,128,0,67965:0:0:0:0:
320,192,67965,128,0,68085:0:0:0:0:
192,192,68085,128,0,68205:0:0:0:0:
320,192,68205,128,0,68325:0:0:0:0:
448,192,68205,128,0,68565:0:0:0:0:
64,192,68325,128,0,68445:0:0:0:0:
320,192,68445,128,0,68565:0:0:0:0:
192,192,68565,128,0,68685:0:0:0:0:
64,192,68685,128,0,69045:0:0:0:0:
448,192,68685,128,0,68925:0:0:0:0:
320,192,68925,128,0,69045:0:0:0:0:
192,192,69045,128,0,69165:0:0:0:0:
64,192,69165,128,0,69405:0:0:0:0:
320,192,69165,128,0,69525:0:0:0:0:
192,192,69405,128,0,69525:0:0:0:0:
448,192,69525,128,0,69645:0:0:0:0:
64,192,69645,128,0,70125:0:0:0:0:
192,192,69645,128,0,69765:0:0:0:0:
448,192,69765,128,0,69885:0:0:0:0:
192,192,69885,128,0,70005:0:0:0:0:
320,192,70005,128,0,70125:0:0:0:0:
192,192,70125,128,0,70365:0:0:0:0:
448,192,70125,128,0,70485:0:0:0:0:
64,192,70245,128,0,70365:0:0:0:0:
320,192,70365,128,0,70485:0:0:0:0:
192,192,70485,128,0,70605:0:0:0:0:
448,192,70605,128,0,70965:0:0:0:0:
64,192,70605,128,0,70965:0:0:0:0:
320,192,70725,128,0,70845:0:0:0:0:
192,192,70845,128,0,70965:0:0:0:0:
320,192,70965,128,0,71085:0:0:0:0:
64,192,71085,128,0,71445:0:0:0:0:
192,192,71085,128,0,71445:0:0:0:0:
320,192,71205,128,0,71325:0:0:0:0:
448,192,71325,128,0,71445:0:0:0:0:
320,192,71445,128,0,71565:0:0:0:0:
64,192,71565,128,0,71805:0:0:0:0:
448,192,71565,128,0,71925:0:0:0:0:
320,192,71685,128,0,71925:0:0:0:0:
192,192,71805,128,0,71925:0:0:0:0:
64,192,71925,128,0,72045:0:0:0:0:
320,192,72045,128,0,72405:0:0:0:0:
448,192,72045,128,0,72405:0:0:0:0:
192,192,72165,128,0,72285:0:0:0:0:
64,192,72285,128,0,72405:0:0:0:0:
192,192,72405,128,0,72525:0:0:0:0:
64,192,72525,128,0,72885:0:0:0:0:
448,192,72525,128,0,72765:0:0:0:0:
192,192,72645,128,0,72885:0:0:0:0:
320,192,72765,128,0,72885:0:0:0:0:
448,192,72885,128,0,73005:0:0:0:0:
64,192,73005,128,0,73365:0:0:0:0:
192,192,73005,128,0,73365:0:0:0:0:
320,192,73125,128,0,73245:0:0:0:0:
448,192,73245,128,0,73365:0:0:0:0:
320,192,73365,128,0,73485:0:0:0:0:
64,192,73485,128,0,73845:0:0:0:0:
448,192,73485,128,0,73845:0:0:0:0:
192,192,73605,128,0,73725:0:0:0:0:
320,192,73725,128,0,73845:0:0:0:0:
192,192,73845,128,0,73965:0:0:0:0:
64,192,73965,128,0,74085:0:0:0:0:
320,192,73965,128,0,74085:0:0:0:0:
448,192,74085,128,0,74205:0:0:0:0:
64,192,74205,128,0,74325:0:0:0:0:
320,192,74205,128,0,74325:0:0:0:0:
448,192,74325,128,0,74445:0:0:0:0:
64,192,74445,128,0,74565:0:0:0:0:
320,192,74445,128,0,74565:0:0:0:0:
192,192,74565,128,0,74685:0:0:0:0:
64,192,74685,128,0,74805:0:0:0:0:
320,192,74685,128,0,74805:0:0:0:0:
192,192,74805,128,0,74925:0:0:0:0:
320,192,74925,128,0,75285:0:0:0:0:
448,192,74925,128,0,75285:0:0:0:0:
192,192,75045,128,0,75165:0:0:0:0:
64,192,75165,128,0,75285:0:0:0:0:
192,192,75285,128,0,75405:0:0:0:0:
64,192,75405,128,0,75765:0:0:0:0:
448,192,75405,128,0,75645:0:0:0:0:
192,192,75525,128,0,75765:0:0:0:0:
320,192,75645,128,0,75765:0:0:0:0:
448,192,75765,128,0,75885:0:0:0:0:
64,192,75885,128,0,76245:0:0:0:0:
192,192,75885,128,0,76245:0:0:0:0:
320,192,76005,128,0,76125:0:0:0:0:
448,192,76125,128,0,76245:0:0:0:0:
320,192,76245,128,0,76365:0:0:0:0:
64,192,76365,128,0,76605:0:0:0:0:
448,192,76365,128,0,76725:0:0:0:0:
320,192,76485,128,0,76725:0:0:0:0:
192,192,76605,128,0,76725:0:0:0:0:
64,192,76725,128,0,76845:0:0:0:0:
320,192,76845,128,0,77205:0:0:0:0:
448,192,76845,128,0,77205:0:0:0:0:
192,192,76965,128,0,77085:0:0:0:0:
64,192,77085,128,0,77205:0:0:0:0:
192,192,77205,128,0,77325:0:0:0:0:
64,192,77325,128,0,77565:0:0:0:0:
448,192,77325,128,0,77685:0:0:0:0:
320,192,77445,128,0,77565:0:0:0:0:
192,192,77565,128,0,77685:0:0:0:0:
64,192,77685,128,0,77745:0:0:0:0:
192,192,77745,128,0,77805:0:0:0:0:
320,192,77805,128,0,77925:0:0:0:0:
448,192,77805,128,0,78165:0:0:0:0:
320,192,78045,128,0,78165:0:0:0:0:
192,192,78045,128,0,78165:0:0:0:0:
64,192,78165,128,0,78285:0:0:0:0:
192,192,78285,128,0,78645:0:0:0:0:
320,192,78405,128,0,78525:0:0:0:0:
448,192,78525,128,0,78645:0:0:0:0:
320,192,78645,128,0,78705:0:0:0:0:
192,192,78705,128,0,78765:0:0:0:0:
64,192,78765,128,0,79125:0:0:0:0:
448,192,78765,128,0,79125:0:0:0:0:
320,192,79005,128,0,79125:0:0:0:0:
192,192,79125,128,0,79245:0:0:0:0:
64,192,79245,128,0,79605:0:0:0:0:
448,192,79245,128,0,79365:0:0:0:0:
448,192,79485,128,0,79605:0:0:0:0:
320,192,79605,128,0,79665:0:0:0:0:
192,192,79665,128,0,79725:0:0:0:0:
64,192,79725,128,0,80085:0:0:0:0:
448,192,79725,128,0,80085:0:0:0:0:
192,192,79965,128,0,80085:0:0:0:0:
64,192,80205,128,0,80565:0:0:0:0:
448,192,80205,128,0,80565:0:0:0:0:
192,192,80445,128,0,80565:0:0:0:0:
320,192,80565,128,0,80685:0:0:0:0:
64,192,80655,1,0,0:0:0:0:
192,192,80685,128,0,80925:0:0:0:0:
448,192,80685,128,0,81045:0:0:0:0:
320,192,80925,128,0,81045:0:0:0:0:
192,192,81045,128,0,81165:0:0:0:0:
64,192,81165,128,0,81525:0:0:0:0:
448,192,81165,128,0,81525:0:0:0:0:
320,192,81405,128,0,81525:0:0:0:0:
192,192,81525,128,0,81645:0:0:0:0:
64,192,81645,128,0,81885:0:0:0:0:
320,192,81645,128,0,81765:0:0:0:0:
320,192,81885,128,0,82005:0:0:0:0:
448,192,81885,128,0,82005:0:0:0:0:
64,192,82005,128,0,82085:0:0:0:0:
192,192,82045,128,0,82125:0:0:0:0:
320,192,82085,128,0,82165:0:0:0:0:
64,192,82125,128,0,82485:0:0:0:0:
448,192,82125,128,0,82365:0:0:0:0:
192,192,82365,128,0,82485:0:0:0:0:
320,192,82365,128,0,82485:0:0:0:0:
448,192,82485,128,0,82605:0:0:0:0:
64,192,82605,128,0,82965:0:0:0:0:
320,192,82605,128,0,82965:0:0:0:0:
448,192,82845,128,0,82965:0:0:0:0:
192,192,82965,128,0,83085:0:0:0:0:
64,192,83085,128,0,83205:0:0:0:0:
448,192,83085,128,0,83445:0:0:0:0:
320,192,83205,128,0,83445:0:0:0:0:
64,192,83325,128,0,83445:0:0:0:0:
64,192,83565,128,0,83925:0:0:0:0:
192,192,83565,128,0,83925:0:0:0:0:
448,192,83685,128,0,83925:0:0:0:0:
320,192,83925,128,0,84045:0:0:0:0:
64,192,84045,128,0,84405:0:0:0:0:
448,192,84045,128,0,84405:0:0:0:0:
192,192,84285,128,0,84405:0:0:0:0:
320,192,84405,128,0,84525:0:0:0:0:
64,192,84525,128,0,84645:0:0:0:0:
192,192,84525,128,0,84645:0:0:0:0:
448,192,84645,128,0,84765:0:0:0:0:
192,192,84765,128,0,84885:0:0:0:0:
64,192,84765,128,0,84885:0:0:0:0:
320,192,84885,128,0,85125:0:0:0:0:
448,192,84885,128,0,85125:0:0:0:0:
64,192,85005,128,0,85245:0:0:0:0:
192,192,85005,128,0,85245:0:0:0:0:
320,192,85245,128,0,85365:0:0:0:0:
448,192,85245,128,0,85365:0:0:0:0:
64,192,85365,128,0,85605:0:0:0:0:
192,192,85365,128,0,85485:0:0:0:0:
320,192,85485,128,0,85725:0:0:0:0:
448,192,85485,128,0,85845:0:0:0:0:
192,192,85605,128,0,85845:0:0:0:0:
64,192,85725,128,0,85845:0:0:0:0:
320,192,85845,128,0,85965:0:0:0:0:
64,192,85965,128,0,86325:0:0:0:0:
448,192,85965,128,0,86325:0:0:0:0:
320,192,86205,128,0,86325:0:0:0:0:
192,192,86325,128,0,86445:0:0:0:0:
448,192,86445,128,0,86805:0:0:0:0:
320,192,86685,128,0,87045:0:0:0:0:
192,192,86805,128,0,86925:0:0:0:0:
64,192,86925,128,0,87165:0:0:0:0:
192,192,87045,128,0,87285:0:0:0:0:
320,192,87165,128,0,87285:0:0:0:0:
448,192,87285,128,0,87525:0:0:0:0:
320,192,87405,128,0,87765:0:0:0:0:
192,192,87765,128,0,88005:0:0:0:0:
192,192,88125,128,0,88185:0:0:0:0:
64,192,88185,128,0,88245:0:0:0:0:
192,192,88245,128,0,88365:0:0:0:0:
320,192,88365,128,0,88605:0:0:0:0:
448,192,88485,128,0,88725:0:0:0:0:
192,192,88605,128,0,88725:0:0:0:0:
64,192,88725,128,0,88965:0:0:0:0:
192,192,88845,128,0,89085:0:0:0:0:
320,192,88965,128,0,89205:0:0:0:0:
64,192,89085,128,0,89325:0:0:0:0:
192,192,89205,128,0,89325:0:0:0:0:
448,192,89325,128,0,89385:0:0:0:0:
320,192,89385,128,0,89445:0:0:0:0:
448,192,89445,128,0,89565:0:0:0:0:
320,192,89565,128,0,89805:0:0:0:0:
64,192,89685,128,0,89925:0:0:0:0:
192,192,89805,128,0,90045:0:0:0:0:
320,192,89925,128,0,90165:0:0:0:0:
448,192,90045,128,0,90165:0:0:0:0:
64,192,90165,128,0,90285:0:0:0:0:
448,192,90285,128,0,91005:0:0:0:0:
64,192,90885,128,0,91125:0:0:0:0:
192,192,91005,128,0,91245:0:0:0:0:
320,192,91125,128,0,91365:0:0:0:0:
448,192,91245,128,0,91485:0:0:0:0:
192,192,91485,128,0,91725:0:0:0:0:
320,192,91605,128,0,91845:0:0:0:0:
448,192,91725,128,0,91965:0:0:0:0:
64,192,91965,128,0,92205:0:0:0:0:
192,192,92085,128,0,92205:0:0:0:0:
320,192,92205,128,0,92445:0:0:0:0:
448,192,92205,128,0,92445:0:0:0:0:
64,192,92325,128,0,92445:0:0:0:0:
192,192,92365,128,0,92445:0:0:0:0:
320,192,92565,128,0,92685:0:0:0:0:
448,192,92605,128,0,92685:0:0:0:0:
64,192,92685,128,0,92925:0:0:0:0:
192,192,92685,128,0,92925:0:0:0:0:
448,192,92805,128,0,93045:0:0:0:0:
320,192,92925,128,0,93045:0:0:0:0:
192,192,93045,128,0,93165:0:0:0:0:
320,192,93165,128,0,93225:0:0:0:0:
448,192,93165,128,0,93225:0:0:0:0:
320,192,93285,128,0,93345:0:0:0:0:
448,192,93285,128,0,93345:0:0:0:0:
64,192,93405,128,0,93465:0:0:0:0:
192,192,93405,128,0,93465:0:0:0:0:
64,192,93525,128,0,93585:0:0:0:0:
192,192,93525,128,0,93585:0:0:0:0:
320,192,93585,128,0,93645:0:0:0:0:
64,192,93645,128,0,93705:0:0:0:0:
448,192,93645,128,0,93705:0:0:0:0:
320,192,93765,128,0,93825:0:0:0:0:
192,192,93765,128,0,93825:0:0:0:0:
192,192,93885,128,0,93945:0:0:0:0:
320,192,93885,128,0,93945:0:0:0:0:
192,192,94005,128,0,94065:0:0:0:0:
320,192,94005,128,0,94065:0:0:0:0:
64,192,94125,128,0,94485:0:0:0:0:
448,192,94125,128,0,94485:0:0:0:0:
192,192,94185,128,0,94605:0:0:0:0:
64,192,94605,128,0,94845:0:0:0:0:
192,192,94725,128,0,94965:0:0:0:0:
448,192,94965,128,0,95205:0:0:0:0:
320,192,95205,128,0,95445:0:0:0:0:
192,192,95325,128,0,95445:0:0:0:0:
64,192,95445,128,0,95685:0:0:0:0:
192,192,95565,128,0,95685:0:0:0:0:
192,192,95805,128,0,96045:0:0:0:0:
320,192,95925,128,0,96045:0:0:0:0:
448,192,96045,128,0,96405:0:0:0:0:
320,192,96165,128,0,96405:0:0:0:0:
192,192,96285,128,0,96405:0:0:0:0:
64,192,96405,128,0,96525:0:0:0:0:
192,192,96525,128,0,96585:0:0:0:0:
320,192,96585,128,0,96645:0:0:0:0:
192,192,96645,128,0,96765:0:0:0:0:
64,192,96765,128,0,97005:0:0:0:0:
192,192,96885,128,0,97005:0:0:0:0:
448,192,97005,128,0,97245:0:0:0:0:
192,192,97125,128,0,97365:0:0:0:0:
320,192,97245,128,0,97365:0:0:0:0:
64,192,97365,128,0,97605:0:0:0:0:
320,192,97485,128,0,97725:0:0:0:0:
192,192,97605,128,0,97845:0:0:0:0:
448,192,97725,128,0,97845:0:0:0:0:
320,192,97845,128,0,97905:0:0:0:0:
448,192,97905,128,0,98085:0:0:0:0:
192,192,98085,128,0,98325:0:0:0:0:
64,192,98205,128,0,98445:0:0:0:0:
320,192,98325,128,0,98565:0:0:0:0:
448,192,98445,128,0,98685:0:0:0:0:
64,192,98685,128,0,98805:0:0:0:0:
320,192,98805,128,0,98865:0:0:0:0:
448,192,98865,128,0,99045:0:0:0:0:
192,192,99045,128,0,99285:0:0:0:0:
64,192,99165,128,0,99405:0:0:0:0:
320,192,99285,128,0,99405:0:0:0:0:
448,192,99405,128,0,99465:0:0:0:0:
320,192,99465,128,0,99525:0:0:0:0:
448,192,99525,128,0,99705:0:0:0:0:
192,192,99725,128,0,99805:0:0:0:0:
320,192,99805,128,0,99885:0:0:0:0:
448,192,99885,128,0,99965:0:0:0:0:
192,192,99965,128,0,100045:0:0:0:0:
64,192,100045,128,0,100125:0:0:0:0:
448,192,100125,128,0,100205:0:0:0:0:
320,192,100205,128,0,100285:0:0:0:0:
64,192,100285,128,0,100365:0:0:0:0:
448,192,100365,128,0,100445:0:0:0:0:
192,192,100445,128,0,100525:0:0:0:0:
64,192,100525,128,0,100605:0:0:0:0:
448,192,100605,128,0,100685:0:0:0:0:
320,192,100685,128,0,100765:0:0:0:0:
64,192,100765,128,0,100845:0:0:0:0:
192,192,100845,128,0,101005:0:0:0:0:
320,192,100925,128,0,101005:0:0:0:0:
448,192,101005,128,0,101085:0:0:0:0:
64,192,101085,128,0,101245:0:0:0:0:
192,192,101165,128,0,101245:0:0:0:0:
448,192,101245,128,0,101325:0:0:0:0:
64,192,101325,128,0,101485:0:0:0:0:
320,192,101405,128,0,101485:0:0:0:0:
448,192,101485,128,0,101565:0:0:0:0:
64,192,101565,128,0,101725:0:0:0:0:
192,192,101645,128,0,101725:0:0:0:0:
448,192,101725,128,0,101805:0:0:0:0:
64,192,101805,128,0,101925:0:0:0:0:
192,192,101805,128,0,101925:0:0:0:0:
64,192,102285,128,0,102645:0:0:0:0:
448,192,102285,128,0,102645:0:0:0:0:
320,192,102765,128,0,102885:0:0:0:0:
448,192,102765,128,0,102885:0:0:0:0:
64,192,103245,128,0,103605:0:0:0:0:
448,192,103245,128,0,103605:0:0:0:0:
64,192,103725,128,0,103845:0:0:0:0:
192,192,103725,128,0,103845:0:0:0:0:
64,192,104205,128,0,104565:0:0:0:0:
448,192,104205,128,0,104565:0:0:0:0:
320,192,104685,128,0,104805:0:0:0:0:
448,192,104685,128,0,104805:0:0:0:0:
64,192,104925,128,0,105045:0:0:0:0:
448,192,104925,128,0,105045:0:0:0:0:
64,192,105165,128,0,105525:0:0:0:0:
448,192,105165,128,0,105525:0:0:0:0:
320,192,105405,128,0,105525:0:0:0:0:
192,192,105525,128,0,105645:0:0:0:0:
64,192,105645,128,0,106005:0:0:0:0:
320,192,105645,128,0,106005:0:0:0:0:
192,192,105885,128,0,106005:0:0:0:0:
448,192,105885,128,0,106005:0:0:0:0:
64,192,106125,128,0,106485:0:0:0:0:
448,192,106125,128,0,106485:0:0:0:0:
192,192,106365,128,0,106485:0:0:0:0:
320,192,106365,128,0,106485:0:0:0:0:
64,192,106605,128,0,106965:0:0:0:0:
320,192,106605,128,0,106965:0:0:0:0:
192,192,106845,128,0,106965:0:0:0:0:
448,192,106845,128,0,106965:0:0:0:0:
64,192,107085,128,0,107445:0:0:0:0:
448,192,107085,128,0,107445:0:0:0:0:
192,192,107325,128,0,107445:0:0:0:0:
320,192,107325,128,0,107445:0:0:0:0:
64,192,107565,128,0,107925:0:0:0:0:
320,192,107565,128,0,107925:0:0:0:0:
192,192,107805,128,0,107925:0:0:0:0:
448,192,107805,128,0,107925:0:0:0:0:
64,192,108045,128,0,108405:0:0:0:0:
448,192,108045,128,0,108285:0:0:0:0:
192,192,108285,128,0,108405:0:0:0:0:
320,192,108285,128,0,108405:0:0:0:0:
448,192,108405,128,0,108525:0:0:0:0:
64,192,108525,128,0,108885:0:0:0:0:
192,192,108525,128,0,108765:0:0:0:0:
320,192,108645,128,0,108885:0:0:0:0:
448,192,108765,128,0,108885:0:0:0:0:
192,192,108885,128,0,109005:0:0:0:0:
64,192,109005,128,0,109245:0:0:0:0:
448,192,109005,128,0,109365:0:0:0:0:
320,192,109125,128,0,109365:0:0:0:0:
192,192,109245,128,0,109365:0:0:0:0:
64,192,109365,128,0,109485:0:0:0:0:
320,192,109485,128,0,109605:0:0:0:0:
448,192,109485,128,0,109605:0:0:0:0:
64,192,109965,128,0,110325:0:0:0:0:
448,192,109965,128,0,110325:0:0:0:0:
64,192,110445,128,0,110565:0:0:0:0:
192,192,110445,128,0,110565:0:0:0:0:
64,192,110925,128,0,111285:0:0:0:0:
448,192,110925,128,0,111285:0:0:0:0:
320,192,111405,128,0,111525:0:0:0:0:
448,192,111405,128,0,111525:0:0:0:0:
64,192,111885,128,0,112245:0:0:0:0:
448,192,111885,128,0,112245:0:0:0:0:
64,192,112365,128,0,112485:0:0:0:0:
192,192,112365,128,0,112485:0:0:0:0:
64,192,112845,128,0,113205:0:0:0:0:
448,192,112845,128,0,113205:0:0:0:0:
192,192,113085,128,0,113205:0:0:0:0:
320,192,113205,128,0,113325:0:0:0:0:
192,192,113325,128,0,113685:0:0:0:0:
448,192,113325,128,0,113685:0:0:0:0:
320,192,113565,128,0,113685:0:0:0:0:
64,192,113565,128,0,113685:0:0:0:0:
64,192,113805,128,0,114165:0:0:0:0:
448,192,113805,128,0,114165:0:0:0:0:
320,192,114045,128,0,114165:0:0:0:0:
192,192,114165,128,0,114225:0:0:0:0:
320,192,114225,128,0,114285:0:0:0:0:
64,192,114285,128,0,114525:0:0:0:0:
448,192,114285,128,0,114405:0:0:0:0:
320,192,114405,128,0,114645:0:0:0:0:
192,192,114525,128,0,114645:0:0:0:0:
448,192,114525,128,0,114645:0:0:0:0:
64,192,114645,128,0,114885:0:0:0:0:
320,192,114765,128,0,114885:0:0:0:0:
448,192,114765,128,0,115005:0:0:0:0:
192,192,114885,128,0,115125:0:0:0:0:
64,192,115005,128,0,115125:0:0:0:0:
320,192,115005,128,0,115125:0:0:0:0:
448,192,115125,128,0,115245:0:0:0:0:
64,192,115245,128,0,115485:0:0:0:0:
192,192,115245,128,0,115485:0:0:0:0:
192,192,115605,128,0,115665:0:0:0:0:
320,192,115665,128,0,115725:0:0:0:0:
448,192,115725,128,0,115845:0:0:0:0:
64,192,115725,128,0,116205:0:0:0:0:
320,192,115845,128,0,115965:0:0:0:0:
192,192,115965,128,0,116085:0:0:0:0:
320,192,116085,128,0,116205:0:0:0:0:
448,192,116205,128,0,116565:0:0:0:0:
192,192,116205,128,0,116445:0:0:0:0:
64,192,116325,128,0,116445:0:0:0:0:
320,192,116445,128,0,116565:0:0:0:0:
192,192,116565,128,0,116685:0:0:0:0:
64,192,116685,128,0,117045:0:0:0:0:
448,192,116685,128,0,117045:0:0:0:0:
320,192,116805,128,0,116925:0:0:0:0:
192,192,116925,128,0,117045:0:0:0:0:
320,192,117045,128,0,117165:0:0:0:0:
192,192,117165,128,0,117285:0:0:0:0:
64,192,117165,128,0,117525:0:0:0:0:
320,192,117405,128,0,117525:0:0:0:0:
192,192,117405,128,0,117525:0:0:0:0:
448,192,117645,128,0,117885:0:0:0:0:
64,192,117645,128,0,118005:0:0:0:0:
320,192,117885,128,0,118005:0:0:0:0:
448,192,118005,128,0,118125:0:0:0:0:
320,192,118125,128,0,118245:0:0:0:0:
192,192,118125,128,0,118485:0:0:0:0:
320,192,118365,128,0,118485:0:0:0:0:
448,192,118365,128,0,118485:0:0:0:0:
448,192,118605,128,0,118965:0:0:0:0:
64,192,118605,128,0,118965:0:0:0:0:
320,192,118845,128,0,118965:0:0:0:0:
192,192,118965,128,0,119085:0:0:0:0:
320,192,119085,128,0,119445:0:0:0:0:
64,192,119085,128,0,119445:0:0:0:0:
448,192,119325,128,0,119445:0:0:0:0:
192,192,119325,128,0,119445:0:0:0:0:
448,192,119565,128,0,119805:0:0:0:0:
64,192,119565,128,0,119925:0:0:0:0:
320,192,119805,128,0,119925:0:0:0:0:
448,192,119925,128,0,120045:0:0:0:0:
192,192,120045,128,0,120165:0:0:0:0:
64,192,120045,128,0,120165:0:0:0:0:
192,192,120285,128,0,120525:0:0:0:0:
64,192,120285,128,0,120405:0:0:0:0:
320,192,120405,128,0,120525:0:0:0:0:
448,192,120525,128,0,120765:0:0:0:0:
64,192,120525,128,0,120765:0:0:0:0:
320,192,120765,128,0,120885:0:0:0:0:
192,192,120765,128,0,120885:0:0:0:0:
64,192,120885,128,0,120945:0:0:0:0:
192,192,120945,128,0,121005:0:0:0:0:
320,192,121005,128,0,121125:0:0:0:0:
448,192,121005,128,0,121365:0:0:0:0:
192,192,121245,128,0,121365:0:0:0:0:
320,192,121245,128,0,121365:0:0:0:0:
64,192,121485,128,0,121725:0:0:0:0:
448,192,121485,128,0,121845:0:0:0:0:
192,192,121725,128,0,121845:0:0:0:0:
64,192,121845,128,0,121965:0:0:0:0:
192,192,121965,128,0,122085:0:0:0:0:
320,192,121965,128,0,122325:0:0:0:0:
192,192,122205,128,0,122325:0:0:0:0:
64,192,122205,128,0,122325:0:0:0:0:
64,192,122445,128,0,122805:0:0:0:0:
448,192,122445,128,0,122805:0:0:0:0:
192,192,122685,128,0,122805:0:0:0:0:
320,192,122805,128,0,122925:0:0:0:0:
448,192,122925,128,0,123285:0:0:0:0:
192,192,122925,128,0,123045:0:0:0:0:
64,192,123045,128,0,123165:0:0:0:0:
320,192,123165,128,0,123285:0:0:0:0:
192,192,123285,128,0,123405:0:0:0:0:
64,192,123405,128,0,123645:0:0:0:0:
448,192,123405,128,0,123765:0:0:0:0:
192,192,123645,128,0,123765:0:0:0:0:
64,192,123765,128,0,123825:0:0:0:0:
320,192,123825,128,0,123885:0:0:0:0:
448,192,123885,128,0,124005:0:0:0:0:
192,192,123885,128,0,124005:0:0:0:0:
320,192,124125,128,0,124365:0:0:0:0:
448,192,124125,128,0,124245:0:0:0:0:
192,192,124245,128,0,124365:0:0:0:0:
64,192,124365,128,0,124605:0:0:0:0:
448,192,124365,128,0,124605:0:0:0:0:
320,192,124485,128,0,124605:0:0:0:0:
192,192,124605,128,0,124725:0:0:0:0:
64,192,124725,128,0,124845:0:0:0:0:
448,192,124845,128,0,125205:0:0:0:0:
320,192,124845,128,0,124965:0:0:0:0:
320,192,125085,128,0,125205:0:0:0:0:
192,192,125085,128,0,125205:0:0:0:0:
448,192,125325,128,0,125685:0:0:0:0:
64,192,125325,128,0,125565:0:0:0:0:
192,192,125565,128,0,125685:0:0:0:0:
64,192,125685,128,0,125805:0:0:0:0:
320,192,125805,128,0,126165:0:0:0:0:
192,192,125805,128,0,125925:0:0:0:0:
64,192,126045,128,0,126165:0:0:0:0:
192,192,126045,128,0,126165:0:0:0:0:
448,192,126285,128,0,126645:0:0:0:0:
64,192,126285,128,0,126645:0:0:0:0:
192,192,126525,128,0,126645:0:0:0:0:
320,192,126645,128,0,126765:0:0:0:0:
448,192,126765,128,0,127125:0:0:0:0:
192,192,126765,128,0,127125:0:0:0:0:
320,192,127005,128,0,127125:0:0:0:0:
64,192,127005,128,0,127125:0:0:0:0:
448,192,127245,128,0,127605:0:0:0:0:
64,192,127245,128,0,127485:0:0:0:0:
192,192,127485,128,0,127605:0:0:0:0:
64,192,127605,128,0,127725:0:0:0:0:
448,192,127725,128,0,127845:0:0:0:0:
320,192,127725,128,0,127845:0:0:0:0:
448,192,127965,128,0,128085:0:0:0:0:
320,192,127965,128,0,128205:0:0:0:0:
192,192,128085,128,0,128205:0:0:0:0:
448,192,128205,128,0,128445:0:0:0:0:
64,192,128205,128,0,128445:0:0:0:0:
320,192,128445,128,0,128565:0:0:0:0:
192,192,128445,128,0,128565:0:0:0:0:
448,192,128565,128,0,128625:0:0:0:0:
320,192,128625,128,0,128685:0:0:0:0:
192,192,128685,128,0,128805:0:0:0:0:
64,192,128685,128,0,129045:0:0:0:0:
320,192,128925,128,0,129045:0:0:0:0:
192,192,128925,128,0,129045:0:0:0:0:
448,192,129165,128,0,129405:0:0:0:0:
64,192,129165,128,0,129525:0:0:0:0:
320,192,129405,128,0,129525:0:0:0:0:
448,192,129525,128,0,129645:0:0:0:0:
320,192,129645,128,0,129765:0:0:0:0:
192,192,129645,128,0,130005:0:0:0:0:
320,192,129885,128,0,130005:0:0:0:0:
448,192,129885,128,0,130005:0:0:0:0:
448,192,130125,128,0,130485:0:0:0:0:
64,192,130125,128,0,130485:0:0:0:0:
320,192,130365,128,0,130485:0:0:0:0:
192,192,130485,128,0,130605:0:0:0:0:
320,192,130605,128,0,130725:0:0:0:0:
64,192,130605,128,0,130965:0:0:0:0:
192,192,130725,128,0,130845:0:0:0:0:
448,192,130845,128,0,130965:0:0:0:0:
320,192,130845,128,0,130965:0:0:0:0:
192,192,130965,128,0,131085:0:0:0:0:
448,192,131085,128,0,131205:0:0:0:0:
64,192,131085,128,0,131445:0:0:0:0:
448,192,131325,128,0,131565:0:0:0:0:
320,192,131325,128,0,131565:0:0:0:0:
192,192,131565,128,0,131685:0:0:0:0:
64,192,131565,128,0,131685:0:0:0:0:
448,192,131685,128,0,131925:0:0:0:0:
320,192,131685,128,0,131925:0:0:0:0:
64,192,131805,128,0,131925:0:0:0:0:
192,192,131925,128,0,132045:0:0:0:0:
448,192,132045,128,0,132285:0:0:0:0:
64,192,132045,128,0,132285:0:0:0:0:
320,192,132285,128,0,132405:0:0:0:0:
192,192,132285,128,0,132405:0:0:0:0:
64,192,132405,128,0,132525:0:0:0:0:
320,192,132525,128,0,132765:0:0:0:0:
448,192,132645,128,0,132885:0:0:0:0:
192,192,132765,128,0,133005:0:0:0:0:
320,192,132885,128,0,133005:0:0:0:0:
64,192,133005,128,0,133365:0:0:0:0:
448,192,133005,128,0,133125:0:0:0:0:
192,192,133125,128,0,133365:0:0:0:0:
448,192,133245,128,0,133365:0:0:0:0:
320,192,133365,128,0,133485:0:0:0:0:
64,192,133485,128,0,133845:0:0:0:0:
320,192,133605,128,0,133725:0:0:0:0:
192,192,133725,128,0,133845:0:0:0:0:
320,192,133845,128,0,133965:0:0:0:0:
64,192,133965,128,0,134205:0:0:0:0:
448,192,133965,128,0,134085:0:0:0:0:
192,192,134085,128,0,134325:0:0:0:0:
448,192,134205,128,0,134325:0:0:0:0:
64,192,134325,128,0,134445:0:0:0:0:
320,192,134445,128,0,134685:0:0:0:0:
192,192,134565,128,0,134805:0:0:0:0:
448,192,134685,128,0,134805:0:0:0:0:
320,192,134805,128,0,134925:0:0:0:0:
64,192,134925,128,0,135285:0:0:0:0:
448,192,134925,128,0,135285:0:0:0:0:
192,192,135045,128,0,135165:0:0:0:0:
320,192,135165,128,0,135285:0:0:0:0:
192,192,135285,128,0,135405:0:0:0:0:
64,192,135405,128,0,135525:0:0:0:0:
448,192,135405,128,0,135645:0:0:0:0:
320,192,135525,128,0,135645:0:0:0:0:
64,192,135645,128,0,135765:0:0:0:0:
192,192,135645,128,0,135885:0:0:0:0:
320,192,135765,128,0,135885:0:0:0:0:
64,192,135885,128,0,136125:0:0:0:0:
448,192,135885,128,0,136005:0:0:0:0:
192,192,136005,128,0,136125:0:0:0:0:
320,192,136125,128,0,136245:0:0:0:0:
448,192,136125,128,0,136245:0:0:0:0:
192,192,136245,128,0,136305:0:0:0:0:
320,192,136305,128,0,136365:0:0:0:0:
448,192,136365,128,0,136725:0:0:0:0:
64,192,136485,128,0,136605:0:0:0:0:
320,192,136605,128,0,136725:0:0:0:0:
192,192,136725,128,0,136845:0:0:0:0:
64,192,136845,128,0,137085:0:0:0:0:
448,192,136845,128,0,137205:0:0:0:0:
320,192,136965,128,0,137205:0:0:0:0:
192,192,137085,128,0,137205:0:0:0:0:
64,192,137205,128,0,137325:0:0:0:0:
192,192,137325,128,0,137565:0:0:0:0:
320,192,137445,128,0,137685:0:0:0:0:
448,192,137565,128,0,137685:0:0:0:0:
192,192,137685,128,0,137805:0:0:0:0:
64,192,137805,128,0,138045:0:0:0:0:
448,192,137805,128,0,138165:0:0:0:0:
320,192,137925,128,0,138165:0:0:0:0:
192,192,138045,128,0,138165:0:0:0:0:
64,192,138165,128,0,138285:0:0:0:0:
320,192,138285,128,0,138525:0:0:0:0:
448,192,138405,128,0,138645:0:0:0:0:
192,192,138525,128,0,138765:0:0:0:0:
320,192,138645,128,0,138765:0:0:0:0:
64,192,138765,128,0,139125:0:0:0:0:
448,192,138765,128,0,139125:0:0:0:0:
192,192,138885,128,0,139005:0:0:0:0:
320,192,139005,128,0,139125:0:0:0:0:
192,192,139125,128,0,139185:0:0:0:0:
320,192,139185,128,0,139245:0:0:0:0:
64,192,139245,128,0,139605:0:0:0:0:
448,192,139245,128,0,139605:0:0:0:0:
192,192,139485,128,0,139605:0:0:0:0:
320,192,139485,128,0,139605:0:0:0:0:
64,192,139725,128,0,140085:0:0:0:0:
192,192,139845,128,0,140085:0:0:0:0:
320,192,139965,128,0,140085:0:0:0:0:
448,192,140085,128,0,140165:0:0:0:0:
320,192,140125,128,0,140205:0:0:0:0:
192,192,140165,128,0,140245:0:0:0:0:
64,192,140205,128,0,140565:0:0:0:0:
448,192,140205,128,0,140565:0:0:0:0:
192,192,140445,128,0,140565:0:0:0:0:
320,192,140445,128,0,140565:0:0:0:0:
64,192,140685,128,0,141045:0:0:0:0:
448,192,140685,128,0,140805:0:0:0:0:
448,192,140925,128,0,141045:0:0:0:0:
192,192,140925,128,0,141045:0:0:0:0:
320,192,141045,128,0,141105:0:0:0:0:
192,192,141105,128,0,141165:0:0:0:0:
64,192,141165,128,0,141525:0:0:0:0:
448,192,141165,128,0,141525:0:0:0:0:
192,192,141405,128,0,141525:0:0:0:0:
320,192,141405,128,0,141525:0:0:0:0:
64,192,141645,128,0,141765:0:0:0:0:
448,192,141645,128,0,142005:0:0:0:0:
64,192,141885,128,0,142005:0:0:0:0:
192,192,141885,128,0,142005:0:0:0:0:
320,192,142005,128,0,142125:0:0:0:0:
64,192,142125,128,0,142245:0:0:0:0:
448,192,142125,128,0,142485:0:0:0:0:
192,192,142245,128,0,142365:0:0:0:0:
64,192,142365,128,0,142485:0:0:0:0:
320,192,142365,128,0,142485:0:0:0:0:
192,192,142485,128,0,142605:0:0:0:0:
64,192,142605,128,0,142965:0:0:0:0:
448,192,142605,128,0,142725:0:0:0:0:
320,192,142725,128,0,142845:0:0:0:0:
192,192,142845,128,0,142965:0:0:0:0:
448,192,142845,128,0,142965:0:0:0:0:
320,192,142965,128,0,143085:0:0:0:0:
64,192,143085,128,0,143325:0:0:0:0:
448,192,143085,128,0,143205:0:0:0:0:
192,192,143205,128,0,143325:0:0:0:0:
320,192,143325,128,0,143445:0:0:0:0:
448,192,143325,128,0,143445:0:0:0:0:
64,192,143445,128,0,143525:0:0:0:0:
192,192,143485,128,0,143565:0:0:0:0:
320,192,143525,128,0,143605:0:0:0:0:
64,192,143565,128,0,143685:0:0:0:0:
448,192,143565,128,0,143925:0:0:0:0:
64,192,143805,128,0,143925:0:0:0:0:
192,192,143805,128,0,144045:0:0:0:0:
320,192,143925,128,0,144045:0:0:0:0:
64,192,144045,128,0,144285:0:0:0:0:
448,192,144045,128,0,144165:0:0:0:0:
192,192,144285,128,0,144525:0:0:0:0:
448,192,144285,128,0,144405:0:0:0:0:
320,192,144405,128,0,144525:0:0:0:0:
64,192,144525,128,0,144645:0:0:0:0:
448,192,144525,128,0,144765:0:0:0:0:
192,192,144645,128,0,144765:0:0:0:0:
320,192,144765,128,0,145005:0:0:0:0:
64,192,144765,128,0,144885:0:0:0:0:
192,192,144885,128,0,145005:0:0:0:0:
64,192,145005,128,0,145125:0:0:0:0:
448,192,145005,128,0,145245:0:0:0:0:
320,192,145125,128,0,145245:0:0:0:0:
64,192,145245,128,0,145365:0:0:0:0:
192,192,145245,128,0,145485:0:0:0:0:
320,192,145365,128,0,145485:0:0:0:0:
64,192,145485,128,0,145605:0:0:0:0:
448,192,145485,128,0,145725:0:0:0:0:
64,192,145725,128,0,145845:0:0:0:0:
192,192,145725,128,0,145965:0:0:0:0:
320,192,145845,128,0,145965:0:0:0:0:
64,192,145965,128,0,146205:0:0:0:0:
448,192,145965,128,0,146085:0:0:0:0:
192,192,146085,128,0,146205:0:0:0:0:
320,192,146205,128,0,146325:0:0:0:0:
448,192,146205,128,0,146325:0:0:0:0:
64,192,146325,128,0,146405:0:0:0:0:
192,192,146365,128,0,146445:0:0:0:0:
320,192,146405,128,0,146485:0:0:0:0:
64,192,146445,128,0,146685:0:0:0:0:
448,192,146445,128,0,146685:0:0:0:0:
320,192,146685,128,0,146805:0:0:0:0:
192,192,146685,128,0,146805:0:0:0:0:
64,192,146805,128,0,146865:0:0:0:0:
192,192,146865,128,0,146925:0:0:0:0:
320,192,146925,128,0,147045:0:0:0:0:
448,192,146925,128,0,147045:0:0:0:0:
64,192,147165,128,0,147345:0:0:0:0:
192,192,147165,128,0,147345:0:0:0:0:
320,192,147165,128,0,147345:0:0:0:0:
448,192,147165,128,0,147345:0:0:0:0:
64,192,147405,128,0,148605:0:0:0:0:
192,192,147405,128,0,148605:0:0:0:0:
320,192,147405,128,0,148605:0:0:0:0:
448,192,147405,128,0,148605:0:0:0:0:
