osu file format v14

[General]
AudioFilename: Gypsy Tronic ( )_M2U_ (O2Jam Analog) - Gypsy Tronic.mp3
AudioLeadIn: 0
PreviewTime: -1
Countdown: 0
SampleSet: Soft
StackLeniency: 0.7
Mode: 0
LetterboxInBreaks: 1
WidescreenStoryboard: 1

[Editor]
Bookmarks: 35250,95250,118050,140370
DistanceSpacing: 0.8
BeatDivisor: 8
GridSize: 4
TimelineZoom: 3.399999

[Metadata]
Title:Gypsy Tronic
TitleUnicode:Gypsy Tronic
Artist:M2U
ArtistUnicode:M2U
Creator:HanzeR
Version:Procarbazine
Source:O2jam Analog
Tags:
BeatmapID:1447537
BeatmapSetID:683966

[Difficulty]
HPDrainRate:6
CircleSize:4
OverallDifficulty:8
ApproachRate:9.6
SliderMultiplier:1.76
SliderTickRate:1

[Events]
//Background and Video events
0,0,"bg.jpg",0,0
//Break Periods
2,99529,102181
2,106730,109861
//Storyboard Layer 0 (Background)
//Storyboard Layer 1 (Fail)
//Storyboard Layer 2 (Pass)
//Storyboard Layer 3 (Foreground)
//Storyboard Sound Samples

[TimingPoints]
930,240,4,1,0,45,1,0
2880,-100,4,2,2,50,0,0
9900,-100,4,2,2,50,0,0
10500,-100,4,1,0,40,0,0
10560,-100,4,2,2,51,0,0
16740,-100,4,2,1,80,0,0
16800,-100,4,2,0,65,0,0
18180,-100,4,1,0,40,0,0
18420,-100,4,2,0,65,0,0
18450,-200,4,2,0,65,0,0
19620,-100,4,2,1,80,0,0
19680,-100,4,2,0,65,0,0
20370,-200,4,2,0,65,0,0
20580,-100,4,2,1,80,0,0
20640,-100,4,2,0,70,0,0
20820,-100,4,1,1,45,0,0
21000,-100,4,1,1,50,0,0
21540,-100,4,2,1,80,0,0
22020,-133.333333333333,4,2,0,60,0,0
25170,-100,4,2,0,50,0,0
25410,-200,4,2,0,70,0,0
25650,-133.333333333333,4,2,0,60,0,0
26970,-133.333333333333,4,2,0,60,0,0
32850,-133.333333333333,4,2,0,50,0,0
33090,-133.333333333333,4,2,0,70,0,0
33330,-133.333333333333,4,2,0,60,0,0
36240,-100,4,1,1,55,0,0
36600,-100,4,2,0,60,0,0
36900,-100,4,2,0,70,0,0
37380,-80,4,2,0,50,0,0
40770,-66.6666666666667,4,2,0,50,0,0
41250,-80,4,2,0,50,0,0
45060,-200,4,1,0,40,0,0
48450,-200,4,1,0,40,0,0
50850,-100,4,1,0,40,0,0
51780,-100,4,1,1,50,0,0
52200,-100,4,2,0,70,0,0
52500,-100,4,2,0,80,0,0
52740,-100,4,1,0,40,0,1
52980,-100,4,2,1,70,0,1
53700,-100,4,1,1,70,0,1
53760,-100,4,2,1,70,0,1
54660,-100,4,1,1,70,0,1
54720,-100,4,2,1,70,0,1
55650,-100,4,1,1,70,0,1
55710,-100,4,2,1,70,0,1
56580,-100,4,1,1,70,0,1
56640,-100,4,2,1,70,0,1
57570,-100,4,1,1,70,0,1
57630,-100,4,2,1,70,0,1
58500,-100,4,1,1,70,0,1
58560,-100,4,2,1,70,0,1
59460,-100,4,1,1,70,0,1
59520,-100,4,2,1,70,0,1
60420,-100,4,1,1,70,0,1
60480,-100,4,2,1,70,0,1
61380,-100,4,1,1,70,0,1
61440,-100,4,2,1,70,0,1
62340,-100,4,1,1,70,0,1
62400,-100,4,2,1,70,0,1
63300,-100,4,1,1,70,0,1
63360,-100,4,2,1,70,0,1
64260,-100,4,1,1,70,0,1
64320,-100,4,2,1,70,0,1
65220,-100,4,1,1,70,0,1
65280,-100,4,2,1,70,0,1
66180,-100,4,1,1,70,0,1
66240,-100,4,2,1,70,0,1
67080,-100,4,1,1,40,0,1
67860,-100,4,2,1,60,0,1
68340,-100,4,2,1,70,0,0
70980,-80,4,2,1,70,0,0
71940,-100,4,2,1,70,0,0
74820,-80,4,2,1,70,0,0
75780,-100,4,2,1,70,0,0
81390,-100,4,1,1,50,0,0
81690,-100,4,2,1,50,0,0
81810,-100,4,1,1,50,0,0
81930,-100,4,2,1,50,0,0
82050,-100,4,1,1,50,0,0
82230,-100,4,2,1,50,0,0
82290,-100,4,1,1,50,0,0
82410,-100,4,2,1,50,0,0
82770,-100,4,1,1,50,0,0
82890,-100,4,2,1,50,0,0
83010,-100,4,1,1,70,0,0
83190,-100,4,2,1,50,0,0
83460,-100,4,2,0,80,0,1
83700,-100,4,2,0,50,0,1
84900,-100,4,1,1,30,0,1
86340,-100,4,2,1,50,0,1
86580,-100,4,1,1,30,0,1
86640,-100,4,2,1,50,0,1
87780,-100,4,1,1,30,0,1
88260,-100,4,2,1,50,0,1
88530,-80,4,2,1,50,0,1
89220,-100,4,1,0,50,0,1
89280,-100,4,2,1,50,0,1
89760,-100,4,1,0,50,0,1
89820,-100,4,2,1,50,0,1
90660,-100,4,1,0,50,0,1
90720,-100,4,2,0,50,0,1
91140,-100,4,1,0,50,0,1
91170,-100,4,1,0,50,0,1
91200,-66.6666666666667,4,2,0,50,0,1
92370,-100,4,2,0,50,0,1
94500,-100,4,1,1,80,0,1
94560,-100,4,2,1,50,0,1
94980,-100,4,1,1,50,0,1
95040,-100,4,2,1,50,0,1
95460,-100,4,1,1,80,0,1
95520,-100,4,2,1,50,0,0
96780,-100,4,2,0,70,0,0
97170,-111.111111111111,4,2,0,70,0,0
97410,-125,4,2,0,70,0,0
97650,-142.857142857143,4,2,0,70,0,0
97890,-166.666666666667,4,2,0,70,0,0
98130,-200,4,2,0,70,0,0
98370,-242,4,2,0,70,0,0
98610,-340,4,2,0,80,0,0
102660,-133.333333333333,4,2,0,80,0,0
104850,-80,4,2,0,80,0,0
105090,-57.1428571428571,4,2,0,80,0,0
105480,-57.1428571428571,4,1,1,50,0,0
105690,-133.333333333333,4,1,1,50,0,0
106050,-80,4,1,1,50,0,0
106260,-133.333333333333,4,2,0,80,0,0
106290,-66.6666666666667,4,2,0,80,0,0
109890,-133.333333333333,4,2,1,80,0,0
110250,-133.333333333333,4,2,0,80,0,0
112980,-133.333333333333,4,1,1,50,0,0
113700,-133.333333333333,4,2,1,80,0,0
114180,-100,4,2,0,60,0,1
114210,-66.6666666666667,4,2,0,60,0,1
117570,-57.1428571428571,4,2,0,60,0,1
118050,-66.6666666666667,4,2,0,60,0,1
120900,-66.6666666666667,4,2,0,80,0,0
121380,-100,4,2,0,80,0,0
121890,-66.6666666666667,4,2,0,80,0,1
121890,-66.6666666666667,4,2,0,80,0,1
124770,-66.6666666666667,4,2,0,80,0,1
125250,-57.1428571428571,4,2,0,80,0,1
125460,-100,4,2,0,80,0,0
125490,-57.1428571428571,4,2,0,80,0,0
125730,-66.6666666666667,4,2,0,80,0,0
127380,-100,4,1,1,50,0,1
127620,-100,4,1,1,80,0,1
127680,-100,4,1,1,50,0,1
127860,-100,4,2,1,80,0,1
127920,-100,4,1,1,50,0,1
128100,-100,4,1,1,80,0,1
128130,-57.1428571428571,4,1,1,80,0,1
128460,-57.1428571428571,4,1,1,50,0,1
129060,-66.6666666666667,4,2,0,80,0,1
129300,-100,4,1,1,50,0,1
129540,-100,4,2,1,80,0,0
132450,-66.6666666666667,4,2,1,80,0,0
136260,-66.6666666666667,4,2,0,80,0,0
136500,-66.6666666666667,4,2,0,80,0,0
141450,-76.9230769230769,4,2,0,80,0,0
141810,-90.9090909090909,4,2,0,80,0,0
142170,-111.111111111111,4,2,0,80,0,0
142530,-142.857142857143,4,2,0,80,0,0
143490,-66.6666666666667,4,2,0,80,0,0
143820,-66.6666666666667,4,1,1,30,0,0
144180,-66.6666666666667,4,2,1,80,0,0
144420,-100,4,2,1,100,0,0

[Colours]
Combo1 : 187,255,255
Combo2 : 193,255,132
Combo3 : 255,255,155
Combo4 : 149,255,149

[HitObjects]
72,48,930,6,0,P|124:80|120:144,1,132
100,156,1170,2,0,P|72:160|56:184,3,44
88,184,1410,2,0,P|71:206|76:234,3,44,0|0|0|0,0:0|0:0|0:0|0:0,3:0:0:0:
92,212,1650,2,0,P|95:240|119:256,3,44,0|0|0|0,0:0|0:0|0:0|0:0,3:0:0:0:
128,256,1890,5,0,0:0:0:0:
256,284,2050,1,0,0:0:0:0:
204,216,2210,1,0,0:0:0:0:
160,368,2370,5,0,0:0:0:0:
228,308,2490,1,0,0:0:0:0:
316,296,2610,1,0,0:0:0:0:
392,340,2730,1,0,0:0:0:0:
460,284,2850,6,0,B|464:232|464:232|512:208|500:136,1,132
500,152,3090,2,0,P|480:112|432:96,1,88
428,168,3330,2,0,L|328:148,1,88
52,112,3570,1,0,0:0:0:0:
52,112,3690,2,0,P|72:56|156:56,1,132
168,64,3930,2,0,L|276:48,1,88
255,185,4170,5,0,3:0:0:0:
214,136,4290,1,0,3:0:0:0:
272,136,4410,1,0,3:0:0:0:
313,184,4530,1,0,3:0:0:0:
68,368,4770,6,0,B|75:324|75:324|68:311|68:311|85:216,1,132
68,219,5010,2,0,P|136:232|177:184,1,132
112,168,5250,1,0,0:0:0:0:
216,300,5370,1,0,0:0:0:0:
68,176,5490,1,0,0:0:0:0:
200,328,5610,6,0,P|268:324|292:252,1,132
316,264,5850,2,0,P|272:252|252:216,1,88
320,184,6090,1,0,0:0:0:0:
480,244,6210,1,0,0:0:0:0:
368,336,6330,1,0,0:0:0:0:
416,180,6450,6,0,B|423:148|423:148|436:136|436:136|444:92,1,88
444,84,6630,1,0,0:0:0:0:
452,92,6690,2,0,P|384:96|344:32,1,132
348,36,6930,2,0,P|364:16|408:4,1,44
276,96,7050,2,0,B|253:81|227:99|227:99|204:45|142:56,1,132
152,56,7290,2,0,P|129:77|136:105,1,44
136,100,7410,2,0,B|156:148|156:148|120:180|136:232,1,132
144,232,7650,6,0,P|180:240|220:192,1,88
48,196,7890,2,0,L|64:288,1,88
108,360,8130,1,0,0:0:0:0:
192,328,8250,1,0,0:0:0:0:
140,320,8370,1,0,0:0:0:0:
472,328,8610,6,0,P|400:328|372:272,1,132
388,272,8850,2,0,B|408:192|408:192|388:128,1,132
384,128,9090,2,0,L|332:112,1,44
324,192,9210,1,0,0:0:0:0:
472,112,9330,1,0,0:0:0:0:
372,40,9450,6,0,L|276:12,1,88
120,100,9690,2,0,L|216:72,1,88
384,128,9930,1,0,0:0:0:0:
384,128,10050,2,0,L|288:100,1,88
132,188,10290,2,0,L|228:160,1,88
40,132,10530,6,0,B|52:160|52:160|44:240|44:240|64:284,1,132
64,272,10770,2,0,B|80:292|80:292|72:368,1,88
226,246,11010,2,0,B|210:226|210:226|218:150,1,88
292,208,11250,1,0,0:0:0:0:
292,288,11370,2,0,P|256:336|184:332,1,132
168,324,11610,2,0,P|220:328|244:360,1,88
452,304,11850,5,0,0:0:0:0:
368,324,11970,1,0,0:0:0:0:
459,194,12090,5,0,0:0:0:0:
392,248,12210,1,0,0:0:0:0:
421,90,12330,5,0,0:0:0:0:
384,168,12450,2,0,B|336:180|336:180|240:152,1,132
236,152,12690,2,0,B|224:132|224:132|204:204,1,88
292,84,12930,1,0,0:0:0:0:
208,44,13050,1,0,0:0:0:0:
144,112,13170,1,0,0:0:0:0:
244,200,13290,1,0,0:0:0:0:
84,52,13410,6,0,P|56:92|64:136,1,88
96,336,13650,2,0,B|120:364|120:364|136:268,1,132
112,272,13890,2,0,P|152:260|172:212,1,88
100,200,14130,1,0,0:0:0:0:
184,324,14250,2,0,L|256:308,1,44
240,312,14370,2,0,B|288:300|288:300|336:320|376:284,1,132
388,284,14610,2,0,L|372:340,1,44
480,204,14760,6,0,P|528:256|484:328,1,132
512,348,14970,2,0,L|499:305,1,44
480,216,15090,2,0,B|388:196|388:196|348:164,1,132
336,180,15330,2,0,L|360:80,1,88
436,52,15570,5,0,0:0:0:0:
268,116,15690,1,0,0:0:0:0:
325,14,15810,1,0,0:0:0:0:
357,94,15930,1,0,0:0:0:0:
284,216,16050,1,0,0:0:0:0:
184,104,16170,1,0,0:0:0:0:
460,140,16290,1,0,0:0:0:0:
80,300,16530,6,0,P|68:256|104:228,1,88,0|0,0:0|0:0,0:0:0:0:
188,244,16770,2,0,L|56:224,1,132
36,224,17010,2,0,P|16:244|16:284,1,44
220,324,17130,5,0,0:0:0:0:
272,256,17250,1,0,0:0:0:0:
201,53,17370,5,0,0:0:0:0:
134,105,17490,1,0,0:0:0:0:
216,140,17610,1,0,0:0:0:0:
372,196,17730,6,0,P|372:188|360:172,1,22,0|0,0:0|0:0,0:0:0:0:
360,208,17790,6,0,P|360:216|372:232,1,22,0|0,0:0|0:0,0:0:0:0:
392,212,17850,6,0,P|388:204|370:195,1,22,0|0,0:0|0:0,0:0:0:0:
386,227,17910,6,0,P|389:234|407:243,1,22,0|0,0:0|0:0,0:0:0:0:
416,216,17970,6,0,P|409:210|389:209,1,22,0|0,0:0|0:0,0:0:0:0:
416,232,18030,6,0,P|422:237|442:238,1,22,0|0,0:0|0:0,0:0:0:0:
448,212,18090,6,0,P|440:209|421:217,1,22,0|0,0:0|0:0,0:0:0:0:
454,226,18150,6,0,P|461:228|480:220,1,22,0|0,0:0|0:0,0:0:0:0:
468,204,18210,1,0,0:0:0:0:
160,144,18450,6,0,L|36:120,1,110
268,80,18810,2,0,L|144:56,1,110
368,32,19170,2,0,P|412:64|404:136,1,132
352,96,19650,2,0,P|412:100|372:160,1,132
364,136,19890,6,0,B|372:180|372:180|368:200|368:200|384:288,1,132
364,292,20130,2,0,P|400:288|456:364,1,132
388,356,20370,2,0,L|264:332,1,110
284,256,20730,6,0,L|160:232,1,88
96,240,20930,1,0,0:0:0:0:
104,260,21010,1,0,0:0:0:0:
112,284,21090,1,0,0:0:0:0:
200,320,21210,1,0,0:0:0:0:
24,284,21330,1,0,0:0:0:0:
184,236,21450,1,0,0:0:0:0:
8,200,21570,1,0,0:0:0:0:
380,128,21810,6,0,P|440:128|476:64,1,132
324,72,22050,2,0,P|296:112|308:148,1,66.0000025177003
328,204,22290,1,0,0:0:0:0:
312,232,22530,6,0,L|396:220,1,66.0000025177003
512,284,22770,2,0,L|428:296,1,66.0000025177003
240,328,23010,1,0,0:0:0:0:
212,316,23250,6,0,P|200:288|220:236,1,66.0000025177003
216,240,23430,1,0,0:0:0:0:
228,252,23490,2,0,L|152:240,1,66.0000025177003
28,296,23730,2,0,L|104:284,1,66.0000025177003
280,176,23970,2,0,L|180:160,1,99.0000037765504
0,216,24210,2,0,L|99:200,1,99.0000037765504
288,184,24450,2,0,B|328:64|328:64|288:80,1,165.000006294251
276,84,24810,1,0,0:0:0:0:
376,176,24930,6,0,P|424:184|468:148,1,99.0000037765504
312,244,25170,2,0,P|271:216|216:230,1,88,0|0,0:0|0:0,3:0:0:0:
440,304,25410,2,0,P|448:288|408:288,1,66
364,340,25650,2,0,P|328:352|288:340,1,66.0000025177003
68,288,25890,5,0,0:0:0:0:
52,260,26130,2,0,B|56:233|56:233|56:212|56:212|68:148,1,99.0000037765504
88,128,26370,2,0,P|28:136|52:204,1,132.000005035401
156,172,26730,5,0,0:0:0:0:
168,164,26790,1,0,0:0:0:0:
176,148,26850,2,0,L|152:56,1,66.0000025177003
332,176,27090,2,0,L|356:268,1,66.0000025177003
240,228,27330,2,0,L|271:86,1,132.000005035401
328,184,27690,5,0,0:0:0:0:
340,200,27810,2,0,P|369:217|417:205,1,66.0000025177003
176,136,28050,2,0,P|146:118|99:130,1,66.0000025177003
304,280,28290,2,0,P|312:313|353:338,1,66.0000025177003
159,208,28530,2,0,P|127:216|103:255,1,66.0000025177003
188,316,28770,1,0,0:0:0:0:
432,136,29010,2,0,L|408:56,1,66.0000025177003
336,32,29250,5,0,0:0:0:0:
332,48,29490,2,0,L|248:56,1,66.0000025177003
120,100,29730,1,0,0:0:0:0:
140,116,29970,2,0,L|224:108,1,66.0000025177003
80,32,30210,2,0,P|48:56|52:104,1,66.0000025177003
100,252,30450,2,0,P|132:228|128:180,1,66.0000025177003
68,188,30690,5,0,0:0:0:0:
68,188,30930,2,0,P|36:212|40:260,1,66.0000025177003
40,256,31110,1,0,0:0:0:0:
52,276,31170,2,0,L|40:360,1,66.0000025177003
176,200,31410,2,0,L|188:116,1,66.0000025177003
296,252,31650,6,0,L|279:366,1,99.0000037765504
448,216,31890,2,0,L|464:101,1,99.0000037765504
188,112,32130,2,0,B|166:241|166:241|222:221,1,165.000006294251
220,224,32490,1,0,0:0:0:0:
100,136,32610,2,0,P|80:120|16:120,1,66.0000025177003
268,148,32850,2,0,P|289:134|311:74,1,66.0000025177003,0|0,0:0|0:0,3:0:0:0:
188,96,33090,1,0,0:0:0:0:
72,264,33330,6,0,L|88:332,1,66.0000025177003
232,312,33570,2,0,B|158:284|158:284|164:316,1,99.0000037765504
416,284,33810,2,0,B|489:311|489:311|484:280,1,99.0000037765504
220,224,34050,1,0,0:0:0:0:
192,200,34290,6,0,L|172:128,1,66.0000025177003
168,116,34470,1,0,0:0:0:0:
160,96,34530,1,0,0:0:0:0:
100,148,34650,1,0,0:0:0:0:
256,104,34770,1,0,0:0:0:0:
316,52,34890,1,0,0:0:0:0:
80,160,35010,5,0,0:0:0:0:
47,232,35130,1,0,0:0:0:0:
336,104,35250,1,0,0:0:0:0:
369,32,35370,1,0,0:0:0:0:
396,352,35490,1,0,0:0:0:0:
408,344,35850,5,0,0:0:0:0:
448,308,35910,1,0,0:0:0:0:
416,312,35970,2,0,L|336:304,1,66.0000025177003
128,288,36210,2,0,L|88:324,3,33.0000012588501
204,248,36450,2,0,P|172:212|116:216,1,88
39,228,36690,5,0,0:0:0:0:
224,148,36810,1,0,0:0:0:0:
96,44,36930,2,0,L|108:144,1,88
416,340,37170,2,0,L|404:240,1,88
268,21,37410,6,0,P|285:90|375:82,1,165
392,80,37650,2,0,B|335:87|316:157|316:157|328:210,1,165
496,280,37890,1,0,0:0:0:0:
200,260,38130,5,0,0:0:0:0:
36,288,38250,1,0,0:0:0:0:
112,304,38370,2,0,B|140:188|140:188|120:212|92:216,1,165
116,240,38610,2,0,P|72:200|116:104,1,165
268,20,38850,1,0,0:0:0:0:
456,76,39090,5,0,0:0:0:0:
296,104,39210,1,0,0:0:0:0:
380,36,39330,2,0,B|372:76|372:76|376:104|376:104|356:200,1,165
352,220,39570,2,0,P|400:288|476:268,1,165
424,220,39810,1,0,0:0:0:0:
16,76,40050,5,0,3:0:0:0:
176,32,40170,1,0,3:0:0:0:
96,32,40290,2,0,B|83:54|105:80|105:80|60:128|94:189,1,165,0|0,0:0|0:0,3:0:0:0:
108,196,40530,2,0,P|184:208|232:132,1,165
156,136,40770,6,0,B|140:280|140:280|172:288|188:240,1,198.000007553101
356,248,41010,2,0,B|372:104|372:104|340:96|324:144,1,198.000007553101
104,280,41250,6,0,B|220:300|220:300|180:260,1,165
256,232,41490,2,0,P|296:284|232:372,1,165
32,324,41730,1,0,0:0:0:0:
256,52,41970,5,0,0:0:0:0:
464,128,42090,1,0,0:0:0:0:
352,168,42210,2,0,B|332:48|332:48|384:88,1,165
388,88,42450,2,0,B|380:144|380:144|392:168|392:168|364:208|376:252,1,165
484,360,42690,1,0,0:0:0:0:
140,348,42930,5,0,0:0:0:0:
28,276,43050,1,0,0:0:0:0:
144,212,43170,1,0,0:0:0:0:
104,280,43290,5,0,0:0:0:0:
192,140,43410,1,0,0:0:0:0:
336,216,43530,1,0,0:0:0:0:
252,360,43650,1,0,0:0:0:0:
0,32,43890,6,0,L|108:104,1,110
108,104,44070,1,0,0:0:0:0:
124,116,44130,2,0,B|168:144|168:144|320:116,1,165
308,120,44370,2,0,B|268:88|268:88|292:208,1,165
332,365,44610,5,0,3:0:0:0:
371,230,44730,1,0,3:0:0:0:
292,214,44850,1,0,3:0:0:0:
236,270,44970,1,0,3:0:0:0:
316,288,45090,5,0,3:0:0:0:
323,290,45330,1,0,0:0:0:0:
331,292,45570,1,0,0:0:0:0:
484,232,45810,5,0,0:0:0:0:
360,132,45930,1,0,0:0:0:0:
196,96,46050,5,0,3:0:0:0:
189,94,46290,1,0,0:0:0:0:
181,92,46530,1,0,0:0:0:0:
28,152,46770,5,0,0:0:0:0:
152,252,46890,1,0,0:0:0:0:
316,288,47010,5,0,3:0:0:0:
323,290,47250,1,0,0:0:0:0:
331,292,47490,1,0,0:0:0:0:
484,232,47730,5,0,0:0:0:0:
360,132,47850,1,0,0:0:0:0:
181,92,47970,6,0,L|132:82,1,44
331,292,48210,2,0,L|379:301,1,44
156,267,48450,2,0,L|145:321,1,44
356,117,48690,2,0,L|367:59,1,44
84,212,48930,5,0,0:0:0:0:
92,208,49170,1,0,0:0:0:0:
100,204,49410,1,0,0:0:0:0:
280,188,49650,5,0,0:0:0:0:
212,320,49770,1,0,0:0:0:0:
428,172,49890,5,0,0:0:0:0:
420,176,50130,1,0,0:0:0:0:
412,180,50370,1,0,0:0:0:0:
232,196,50610,5,0,0:0:0:0:
300,64,50730,1,0,0:0:0:0:
224,108,50850,5,0,0:0:0:0:
384,80,50970,1,0,0:0:0:0:
300,164,51090,1,0,0:0:0:0:
460,136,51210,1,0,0:0:0:0:
288,260,51330,6,0,B|248:288|248:288|156:264,1,132
88,264,51570,2,0,B|40:312|40:312|104:312,1,132
128,196,51810,2,0,P|136:152|100:100,1,88
168,52,52050,1,0,0:0:0:0:
56,164,52170,1,0,0:0:0:0:
244,104,52290,2,0,L|352:64,1,88
500,184,52530,2,0,L|392:144,1,88
256,356,52770,6,0,B|296:348|296:348|320:352|320:352|396:336,1,132
408,332,53010,2,0,P|432:280|384:232,1,132
408,232,53250,2,0,L|304:252,1,88
24,332,53490,2,0,L|128:312,1,88
200,240,53730,2,0,P|152:244|112:148,1,132
112,164,53970,2,0,P|132:124|112:68,1,88
108,68,54150,5,0,0:0:0:0:
108,88,54210,2,0,L|168:96,1,44
204,160,54330,2,0,L|252:123,1,44
364,152,54450,2,0,L|329:125,1,44
460,80,54570,2,0,L|416:85,1,44
276,64,54690,6,0,L|284:228,1,132
284,216,54930,2,0,P|328:232|340:340,1,132
284,288,55170,2,0,B|260:297|260:297|396:312,1,132
512,236,55410,2,0,L|412:224,1,88
8,336,55650,2,0,L|108:324,1,88
240,216,55890,2,0,B|208:219|208:219|180:196|145:202|145:202|119:183,1,132
160,280,56130,5,0,0:0:0:0:
264,192,56250,1,0,0:0:0:0:
116,160,56370,1,0,0:0:0:0:
152,304,56490,1,0,0:0:0:0:
200,128,56610,6,0,B|240:108|240:108|336:128,1,132
348,132,56850,2,0,P|368:80|452:64,1,132
408,224,57090,2,0,B|424:132|424:132|446:163,1,132
468,276,57330,2,0,P|428:304|380:296,1,88
324,248,57510,1,0,0:0:0:0:
324,248,57570,2,0,L|220:236,1,88
148,232,57810,1,0,0:0:0:0:
264,320,57930,1,0,0:0:0:0:
280,168,58050,1,0,0:0:0:0:
20,160,58290,5,0,0:0:0:0:
180,84,58410,1,0,0:0:0:0:
80,84,58530,1,0,0:0:0:0:
256,348,58770,1,0,0:0:0:0:
432,84,59010,1,0,0:0:0:0:
56,48,59250,6,0,L|68:156,1,88
72,304,59490,2,0,B|104:312|104:312|92:196,1,132
76,212,59730,2,0,P|120:200|136:136,1,88
424,12,59970,2,0,P|380:24|364:88,1,88
216,80,60210,2,0,P|248:136|328:124,1,132
300,152,60450,6,0,P|348:132|396:156,1,88
396,264,60690,2,0,P|348:284|300:260,1,88
348,208,60930,1,0,0:0:0:0:
480,288,61050,1,0,0:0:0:0:
400,348,61170,1,0,0:0:0:0:
264,208,61290,1,0,0:0:0:0:
448,196,61410,1,0,0:0:0:0:
76,336,61650,6,0,B|72:304|72:304|60:280|60:280|56:224,1,88
56,232,61830,1,0,0:0:0:0:
52,220,61890,2,0,L|72:276,1,44
68,100,62010,2,0,L|48:44,1,44
184,176,62130,2,0,L|204:232,1,44
200,56,62250,2,0,L|180:0,1,44
248,280,62370,6,0,B|262:255|288:252|288:252|269:212|299:163,1,132,0|0,0:0|0:0,3:0:0:0:
360,132,62610,2,0,P|372:172|348:228,1,88
216,356,62850,2,0,P|172:320|172:276,1,88
208,88,63090,2,0,L|308:64,1,88
500,312,63330,2,0,B|396:292|396:292|428:260,1,132
332,256,63570,2,0,P|320:300|344:340,1,88
480,228,63810,1,0,0:0:0:0:
68,40,64050,6,0,L|80:136,1,88,0|0,0:0|0:0,0:0:0:0:
44,304,64290,2,0,B|78:299|78:299|128:308|128:308|178:294,1,132
188,288,64530,2,0,B|144:264|144:264|176:232|164:176,1,132
92,208,64770,1,0,0:0:0:0:
268,352,65010,6,0,L|364:336,1,88
464,324,65250,1,0,0:0:0:0:
308,268,65370,1,0,0:0:0:0:
376,332,65490,1,0,0:0:0:0:
404,248,65610,1,0,0:0:0:0:
432,168,65730,2,0,B|452:80|452:80|440:24,1,132
428,28,65970,2,0,L|404:136,1,88
256,352,66210,5,0,0:0:0:0:
256,336,66450,5,0,0:0:0:0:
208,264,66570,1,0,0:0:0:0:
316,248,66690,5,0,0:0:0:0:
364,176,66810,1,0,0:0:0:0:
200,136,66930,5,0,0:0:0:0:
152,64,67050,2,0,L|136:32,2,22
112,144,67170,6,0,L|72:244,1,88
168,240,67410,2,0,B|180:268|180:268|192:268|192:268|184:276|184:276|200:312,1,88
314,307,67650,2,0,B|328:276|328:276|320:268|320:268|332:268|332:268|344:240,1,88
432,225,67891,2,0,L|400:144,1,88
312,104,68130,5,0,3:0:0:0:
311,94,68250,1,0,3:0:0:0:
233,88,68370,5,0,3:0:0:0:
234,72,68490,1,0,3:0:0:0:
149,76,68610,5,0,3:0:0:0:
151,48,68730,1,0,3:0:0:0:
65,65,68850,5,0,3:0:0:0:
68,29,68970,1,0,3:0:0:0:
25,188,69090,5,0,3:0:0:0:
26,178,69210,1,0,3:0:0:0:
104,172,69330,5,0,3:0:0:0:
103,156,69450,1,0,3:0:0:0:
188,160,69570,5,0,3:0:0:0:
186,132,69690,1,0,3:0:0:0:
272,149,69810,5,0,3:0:0:0:
269,113,69930,1,0,3:0:0:0:
312,272,70050,5,0,3:0:0:0:
311,262,70170,1,0,3:0:0:0:
233,256,70290,5,0,3:0:0:0:
234,240,70410,1,0,3:0:0:0:
149,244,70530,5,0,3:0:0:0:
151,216,70650,1,0,3:0:0:0:
65,233,70770,5,0,3:0:0:0:
68,197,70890,1,0,3:0:0:0:
104,320,71010,6,0,B|148:352|148:352|288:332,1,165
284,332,71250,2,0,B|260:288|304:244|304:244|312:228|300:176,1,165
416,300,71490,2,0,P|384:364|284:340,1,165
346,305,71730,2,0,P|378:241|474:261,1,165
496,323,71970,5,0,3:0:0:0:
492,332,72090,1,0,3:0:0:0:
396,256,72210,5,0,3:0:0:0:
372,264,72330,1,0,3:0:0:0:
332,148,72450,5,0,3:0:0:0:
308,136,72570,1,0,3:0:0:0:
368,28,72690,5,0,3:0:0:0:
357,3,72810,1,0,3:0:0:0:
480,52,72930,5,0,3:0:0:0:
489,56,73050,1,0,3:0:0:0:
413,152,73170,5,0,3:0:0:0:
421,176,73290,1,0,3:0:0:0:
305,216,73410,5,0,3:0:0:0:
293,240,73530,1,0,3:0:0:0:
185,180,73650,5,0,3:0:0:0:
160,191,73770,1,0,3:0:0:0:
31,138,73890,5,0,0:0:0:0:
117,160,74010,1,0,0:0:0:0:
201,129,74130,1,0,0:0:0:0:
249,57,74250,1,0,0:0:0:0:
160,56,74370,5,0,0:0:0:0:
290,129,74490,1,0,0:0:0:0:
416,48,74610,1,0,0:0:0:0:
268,20,74730,1,0,0:0:0:0:
356,268,74850,6,0,B|380:168|380:168|364:96,1,165,0|0,0:0|0:0,0:0:0:0:
348,128,75090,2,0,P|416:152|412:248,1,165
352,348,75330,5,0,0:0:0:0:
264,340,75450,1,0,0:0:0:0:
176,328,75570,1,0,0:0:0:0:
88,316,75690,1,0,0:0:0:0:
172,296,75810,6,0,P|204:236|152:172,1,132
160,196,76050,2,0,P|124:200|84:160,1,88
12,48,76290,2,0,P|48:44|88:84,1,88
278,106,76530,2,0,L|148:124,1,132
244,136,76770,2,0,B|292:148|292:148|404:124,1,132
396,128,77010,2,0,P|420:168|408:216,1,88
288,260,77250,2,0,P|334:253|391:346,1,132
320,328,77490,5,0,0:0:0:0:
236,320,77610,1,0,0:0:0:0:
196,244,77730,1,0,0:0:0:0:
324,340,77970,5,0,0:0:0:0:
214,330,78090,1,0,0:0:0:0:
179,225,78210,1,0,0:0:0:0:
328,352,78450,5,0,0:0:0:0:
196,340,78570,1,0,0:0:0:0:
156,204,78690,1,0,0:0:0:0:
330,360,78930,5,0,0:0:0:0:
171,345,79050,2,0,L|116:332,1,44
128,188,79170,2,0,L|80:88,1,88
422,108,79410,2,0,L|384:188,1,88
204,260,79650,6,0,P|144:260|80:216,1,132
80,200,79890,1,0,0:0:0:0:
312,236,80010,6,0,P|366:210|405:143,1,132
399,129,80250,1,0,0:0:0:0:
176,216,80370,6,0,P|121:190|82:123,1,132
89,109,80610,1,0,0:0:0:0:
320,188,80730,6,0,P|358:142|365:64,1,132
353,54,80970,1,0,0:0:0:0:
204,36,81090,6,0,L|248:192,1,132
292,364,81330,1,0,0:0:0:0:
251,205,81450,6,0,L|228:127,2,44
292,364,81690,1,0,0:0:0:0:
356,304,81810,1,0,0:0:0:0:
212,340,81930,1,0,0:0:0:0:
416,360,82050,6,0,B|436:350|439:317|439:317|492:320|516:276,1,132,2|0,0:0|0:0,0:0:0:0:
440,168,82290,2,0,L|428:252,1,44
444,232,82410,1,0,0:0:0:0:
512,128,82530,1,0,0:0:0:0:
384,96,82650,2,0,P|336:92|296:120,1,88
120,336,82890,5,0,0:0:0:0:
169,263,83010,1,0,0:0:0:0:
114,193,83130,1,0,0:0:0:0:
204,336,83250,5,0,0:0:0:0:
312,376,83370,1,0,0:0:0:0:
420,335,83490,6,0,B|452:323|464:297|464:297|436:275|443:228,1,132,0|0,0:0|0:0,3:0:0:0:
456,208,83730,2,0,P|408:208|376:180,1,88,0|0,3:0|0:0,0:0:0:0:
360,104,83970,1,0,0:0:0:0:
412,44,84090,1,0,0:0:0:0:
440,124,84210,5,0,0:0:0:0:
332,28,84330,1,0,0:0:0:0:
196,64,84450,2,0,B|160:80|160:116|160:116|200:168,1,132
208,144,84690,1,0,0:0:0:0:
236,248,84810,6,0,P|176:256|120:200,1,132
120,192,85050,1,0,0:0:0:0:
288,180,85170,6,0,P|304:192|320:232,1,44
396,200,85290,2,0,P|398:219|381:259,1,44
324,292,85410,5,0,0:0:0:0:
316,212,85530,1,0,0:0:0:0:
391,242,85650,1,0,0:0:0:0:
396,324,85770,1,0,0:0:0:0:
328,368,85890,1,0,0:0:0:0:
256,336,86010,1,0,0:0:0:0:
248,260,86130,1,0,0:0:0:0:
324,292,86250,1,0,0:0:0:0:
176,304,86370,5,0,0:0:0:0:
164,300,86430,1,0,0:0:0:0:
152,296,86490,1,0,0:0:0:0:
124,224,86610,1,0,0:0:0:0:
208,228,86730,1,0,0:0:0:0:
88,340,86850,6,0,L|104:384,1,44
36,248,86970,2,0,L|16:290,1,44
56,128,87090,2,0,L|72:172,1,44
24,24,87210,2,0,L|4:66,1,44
168,36,87330,6,0,B|154:65|121:79|121:79|110:45|124:15,1,132
228,96,87570,2,0,P|272:100|320:68,1,88
256,20,87810,1,0,0:0:0:0:
164,144,87930,1,0,0:0:0:0:
316,168,88050,1,0,0:0:0:0:
208,280,88170,1,0,0:0:0:0:
248,212,88290,6,0,P|157:209|129:264,1,132
88,260,88530,2,0,B|130:271|130:271|127:266|127:266|122:269|122:269|125:274|125:274|126:270|126:270|173:282,1,110
268,304,88770,6,0,P|358:306|386:251,1,132
480,192,89010,1,0,0:0:0:0:
428,256,89130,2,0,B|385:244|385:244|388:249|388:249|393:246|393:246|390:241|390:241|389:245|389:245|342:233,1,110
200,68,89370,2,0,P|256:44|288:52,1,88
84,124,89610,2,0,P|23:122|-2:101,1,88
168,156,89850,2,0,L|196:252,1,88
220,328,90090,5,0,0:0:0:0:
224,336,90210,1,0,0:0:0:0:
304,308,90330,5,0,0:0:0:0:
314,315,90450,1,0,0:0:0:0:
372,248,90570,5,0,0:0:0:0:
390,251,90690,1,0,0:0:0:0:
408,172,90810,5,0,0:0:0:0:
434,164,90930,1,0,0:0:0:0:
404,88,91050,5,0,0:0:0:0:
436,56,91170,2,0,B|381:70|381:70|378:71|378:71|382:74|382:74|385:69|385:69|380:66|380:66|378:71|378:71|302:91,1,132
344,228,91410,2,0,P|268:188|312:92,1,198.000007553101
432,204,91650,2,0,L|368:224,1,66.0000025177003
334,158,91770,6,0,P|410:198|384:296,1,198.000007553101
360,300,92010,2,0,B|312:312|312:312|309:317|309:317|304:314|304:314|307:309|307:309|312:312|312:312|308:313|308:313|254:328,1,132
168,344,92250,1,0,0:0:0:0:
88,320,92370,2,0,L|-4:288,1,88
176,264,92610,2,0,L|192:120,1,132
196,44,92850,6,0,P|168:64|140:64,1,44
136,64,92970,1,0,0:0:0:0:
216,56,93090,1,0,0:0:0:0:
264,120,93210,1,0,0:0:0:0:
264,196,93330,5,0,0:0:0:0:
343,199,93450,1,0,0:0:0:0:
388,133,93570,2,0,L|440:112,2,44
224,264,93810,2,0,L|172:243,2,44
396,272,94050,5,0,0:0:0:0:
408,268,94170,1,0,0:0:0:0:
449,173,94290,5,0,0:0:0:0:
456,192,94410,1,0,0:0:0:0:
352,144,94530,5,0,0:0:0:0:
371,136,94650,1,0,0:0:0:0:
320,248,94770,5,0,0:0:0:0:
304,224,94890,2,0,L|162:185,1,132
65,309,95130,1,0,0:0:0:0:
65,309,95250,2,0,L|148:261,1,88
140,31,95490,2,0,L|188:114,1,88
64,159,95730,1,0,0:0:0:0:
64,159,95850,2,0,L|156:183,1,88
348,104,96090,5,0,0:0:0:0:
348,104,96210,2,0,L|264:152,1,88
273,382,96450,2,0,L|225:298,1,88
356,260,96690,5,0,0:0:0:0:
336,252,96750,1,0,0:0:0:0:
316,244,96810,1,0,0:0:0:0:
296,236,96870,1,0,0:0:0:0:
208,220,96930,6,0,L|152:240,3,44
264,160,97170,6,0,L|216:132,3,39.5999987915039
344,164,97410,6,0,L|336:116,3,35.2
400,224,97650,6,0,L|431:187,3,30.7999990600586
384,304,97890,6,0,L|428:304,3,26.399999194336
312,348,98130,6,0,L|336:380,3,22
236,312,98370,6,0,L|227:343,3,18.1818181818182
212,232,98610,6,0,L|192:241,3,12.9411764705882
332,244,98850,6,0,P|290:263|299:224,1,103.529411764706
76,52,102690,6,0,L|88:124,1,66.0000025177003
88,132,102870,1,0,0:0:0:0:
100,124,102930,2,0,P|160:132|180:160,1,99.0000037765504
216,336,103170,2,0,B|108:284|108:284|160:268,1,165.000006294251
164,268,103530,1,0,0:0:0:0:
156,256,103590,1,0,0:0:0:0:
144,240,103650,2,0,L|176:172,1,66.0000025177003
72,216,103890,5,0,0:0:0:0:
216,336,104010,1,0,0:0:0:0:
292,296,104130,2,0,L|424:280,1,132.000005035401
496,324,104490,1,0,0:0:0:0:
276,152,104610,6,0,P|260:112|308:128,1,99.0000037765504
379,71,104850,6,0,P|440:79|385:128,1,165
408,238,105090,6,0,P|356:303|348:206,1,231.000002202988
301,109,105330,5,0,0:0:0:0:
392,132,105450,1,0,0:0:0:0:
344,208,105570,1,0,0:0:0:0:
164,180,105690,1,0,0:0:0:0:
120,104,105810,6,0,L|152:36,1,66.0000025177003
208,256,106050,2,0,B|156:364|156:364|144:316,1,165
204,172,106290,6,0,P|260:184|236:332,1,198.000007553101
128,240,106530,1,0,0:0:0:0:
256,192,110370,12,0,114090,0:0:0:0:
80,40,114210,6,0,B|106:90|97:134|97:134|92:131|92:131|95:127|95:127|99:129|99:129|40:144|28:186,1,198.000007553101
152,268,114450,2,0,P|52:272|32:188,1,198.000007553101
100,212,114690,1,0,0:0:0:0:
420,192,114930,5,0,0:0:0:0:
264,260,115050,1,0,0:0:0:0:
344,132,115170,2,0,B|331:202|331:202|352:247|352:247|332:357,1,198.000007553101
344,356,115410,2,0,B|295:332|246:356|246:356|207:316|150:319,1,198.000007553101
432,276,115650,1,0,0:0:0:0:
20,336,115890,5,0,0:0:0:0:
132,236,116010,1,0,0:0:0:0:
40,248,116130,2,0,B|68:124|68:124|108:104|136:136,1,198.000007553101
240,158,116370,2,0,P|160:158|120:56,1,198.000007553101
204,80,116610,1,0,0:0:0:0:
416,348,116850,5,0,0:0:0:0:
284,236,116970,1,0,0:0:0:0:
404,144,117090,2,0,B|409:174|364:192|364:192|397:265|336:311,1,198.000007553101
224,296,117330,2,0,P|196:216|280:156,1,198.000007553101
284,236,117570,6,0,B|370:311|370:311|272:371,1,231.000002202988
136,140,117810,2,0,B|49:64|49:64|147:4,1,231.000002202988
472,52,118050,6,0,B|504:192|504:192|481:161|448:156,1,198.000007553101
386,165,118290,2,0,P|336:212|388:324,1,198.000007553101
424,244,118530,1,0,0:0:0:0:
272,36,118770,5,0,0:0:0:0:
48,128,118890,1,0,0:0:0:0:
168,180,119010,2,0,B|192:33|192:33|129:82,1,198.000007553101
124,82,119250,2,0,B|136:128|136:128|119:179|119:179|160:224|148:276,1,198.000007553101
24,344,119490,1,0,0:0:0:0:
344,300,119730,5,0,0:0:0:0:
352,212,119850,1,0,0:0:0:0:
432,260,119970,1,0,0:0:0:0:
416,340,120090,5,0,0:0:0:0:
280,248,120210,1,0,0:0:0:0:
428,176,120330,1,0,0:0:0:0:
476,36,120450,6,0,P|420:24|368:148,1,198.000007553101
400,272,120690,2,0,B|360:136|360:136|336:196,1,198.000007553101
348,168,120930,2,0,B|295:147|295:147|431:107,1,198.000007553101
460,336,121170,2,0,P|392:360|320:268,1,198.000007553101
204,96,121410,5,0,0:0:0:0:
218,174,121530,1,0,0:0:0:0:
237,253,121650,1,0,0:0:0:0:
256,328,121770,1,0,0:0:0:0:
144,320,121890,6,0,B|112:164|112:164|92:208,1,198.000007553101
84,224,122130,2,0,P|46:147|130:83,1,198.000007553101
484,100,122370,1,0,0:0:0:0:
192,128,122610,5,0,0:0:0:0:
400,56,122730,1,0,0:0:0:0:
292,60,122850,2,0,B|276:86|302:117|302:117|248:175|289:248,1,198.000007553101,0|0,0:0|0:0,3:0:0:0:
306,256,123090,2,0,P|397:270|454:179,1,198.000007553101
364,188,123330,1,0,0:0:0:0:
100,264,123570,5,0,0:0:0:0:
260,352,123690,1,0,0:0:0:0:
176,308,123810,2,0,B|84:288|84:288|28:288|20:356|64:336,1,198.000007553101
84,328,124050,2,0,P|136:284|56:176,1,198.000007553101
24,228,124290,1,0,0:0:0:0:
360,56,124530,5,0,0:0:0:0:
228,100,124650,1,0,0:0:0:0:
452,24,124770,2,0,B|331:65|331:65|377:102|368:158,1,198.000007553101
348,144,125010,2,0,P|316:212|408:276,1,198.000007553101
396,200,125250,6,0,B|456:200|468:136|468:136|416:68|456:20,1,231.000002202988
228,100,125490,2,0,B|168:112|156:176|156:176|220:224|192:312,1,231.000002202988
52,384,125730,6,0,B|31:308|31:308|72:360|140:340,1,198.000007553101
164,328,125970,2,0,P|200:268|120:168,1,198.000007553101
108,256,126210,1,0,0:0:0:0:
308,76,126450,5,0,0:0:0:0:
40,144,126570,1,0,0:0:0:0:
32,56,126690,2,0,B|102:68|102:68|138:50|138:50|244:69,1,198.000007553101
248,68,126930,2,0,P|300:136|228:216,1,198.000007553101
224,140,127170,1,0,0:0:0:0:
408,284,127410,5,0,0:0:0:0:
472,232,127530,2,0,P|492:252|524:256,1,44
396,204,127650,2,0,P|344:220|328:252,1,88
464,352,127890,1,0,0:0:0:0:
408,284,128010,1,0,0:0:0:0:
332,352,128130,6,0,B|292:324|240:339|240:339|257:321|256:300|256:300|236:352|184:352,1,231.000002202988
108,328,128370,2,0,B|67:286|70:225|70:225|137:220|176:265,1,231.000002202988
392,264,128610,2,0,B|340:261|340:261|308:225|308:225|292:222|292:222|279:211|279:211|231:211|231:211|196:172,1,231.000002202988
12,164,128850,2,0,B|53:132|53:132|106:142|106:142|144:112,1,154.000001468658
372,32,129090,5,0,0:0:0:0:
492,172,129210,1,0,0:0:0:0:
460,28,129330,1,0,0:0:0:0:
512,88,129450,1,0,0:0:0:0:
364,152,129570,6,0,L|367:130,1,22
384,116,129690,2,0,L|380:137,1,22
272,120,129810,6,0,L|280:88,1,22
304,80,129930,2,0,L|296:112,1,22
168,84,130050,6,0,L|176:52,1,22
212,36,130170,2,0,L|204:68,1,22
56,60,130290,6,0,L|64:28,1,22
108,0,130410,2,0,L|100:32,1,22
56,228,130530,6,0,L|50:206,1,22
16,152,130650,2,0,L|21:173,1,22
160,204,130770,6,0,L|154:182,1,22
108,120,130890,2,0,L|113:141,1,22
264,168,131010,6,0,L|258:146,1,22
208,84,131130,2,0,L|213:105,1,22
376,144,131250,6,0,L|370:122,1,22
312,60,131370,2,0,L|317:81,1,22
376,312,131490,6,0,L|381:290,1,22
444,220,131610,2,0,L|438:241,1,22
272,288,131730,6,0,L|277:266,1,22
336,184,131850,2,0,L|330:205,1,22
168,252,131970,6,0,L|173:230,1,22
232,144,132090,2,0,L|226:165,1,22
56,228,132210,6,0,L|61:206,1,22
120,100,132330,2,0,L|114:121,1,22
4,292,132450,6,0,P|32:360|160:336,1,198.000007553101
184,204,132690,2,0,B|156:344|156:344|212:312,1,198.000007553101
284,328,132930,2,0,L|52:296,1,198.000007553101
288,248,133170,2,0,B|268:214|268:214|365:234,1,132.000005035401
436,352,133350,1,0,0:0:0:0:
436,336,133410,6,0,L|412:359,1,33.0000012588501
390,340,133530,2,0,L|362:356,1,33.0000012588501
288,316,133650,6,0,L|234:335,1,33.0000012588501
223,301,133770,2,0,L|192:312,1,33.0000012588501
184,228,133890,6,0,L|127:222,1,33.0000012588501
128,190,134010,2,0,L|96:188,1,33.0000012588501
136,112,134130,6,0,L|86:82,1,33.0000012588501
112,16,134250,2,0,L|84:0,1,33.0000012588501
20,148,134370,6,0,L|17:181,1,33.0000012588501
63,238,134491,2,0,L|69:271,1,33.0000012588501
104,212,134611,6,0,L|115:242,1,33.0000012588501
183,288,134731,2,0,L|195:319,1,33.0000012588501
216,216,134851,6,0,L|247:226,1,33.0000012588501
326,250,134971,2,0,L|348:276,1,33.0000012588501,0|0,2:0|0:0,0:0:0:0:
332,168,135091,6,0,L|363:178,1,33.0000012588501
431,131,135211,2,0,L|464:128,1,33.0000012588501
429,25,135330,5,0,0:0:0:0:
355,79,135450,1,0,0:0:0:0:
332,168,135570,1,0,0:0:0:0:
366,252,135690,1,0,0:0:0:0:
392,344,135810,5,0,0:0:0:0:
375,227,135930,1,0,0:0:0:0:
291,141,136050,1,0,0:0:0:0:
172,128,136170,1,0,0:0:0:0:
80,164,136290,6,0,P|56:240|144:308,1,198.000007553101
311,309,136530,2,0,P|227:233|147:301,1,198.000007553101
228,316,136770,5,0,0:0:0:0:
311,309,136890,1,0,0:0:0:0:
392,300,137010,1,0,0:0:0:0:
476,288,137130,2,0,L|520:320,2,44.0000016784669
472,304,137250,6,0,B|436:168|436:168|460:192|500:192,1,198.000007553101
356,168,137490,2,0,P|316:88|396:24,1,198.000007553101
396,100,137730,1,0,0:0:0:0:
424,84,137970,1,0,0:0:0:0:
188,112,138090,2,0,L|120:128,1,66.0000025177003
216,104,138210,6,0,B|180:240|180:240|204:216|244:216,1,198.000007553101
248,296,138450,2,0,B|288:148|288:148|219:187,1,198.000007553101
169,319,138690,2,0,P|103:361|116:284,1,198.000007553101
36,248,138930,2,0,L|72:121,1,132.000005035401
252,20,139170,5,0,0:0:0:0:
184,68,139290,1,0,0:0:0:0:
372,68,139410,5,0,0:0:0:0:
291,83,139530,1,0,0:0:0:0:
440,164,139650,5,0,0:0:0:0:
360,143,139770,1,0,0:0:0:0:
456,276,139890,5,0,0:0:0:0:
392,223,140010,1,0,0:0:0:0:
420,384,140130,5,0,0:0:0:0:
384,308,140250,1,0,0:0:0:0:
508,204,140370,5,0,0:0:0:0:
336,376,140490,2,0,L|304:352,3,33.0000012588501
288,356,140610,6,0,B|272:312|256:248|256:248|304:276|360:252,1,198.000007553101
184,192,140850,2,0,P|96:192|36:276,1,198.000007553101
160,328,141090,6,0,P|113:295|171:321,1,198.000007553101
336,307,141330,5,0,0:0:0:0:
336,307,141450,2,0,P|297:334|334:296,1,171.599992144776
368,162,141690,5,0,0:0:0:0:
368,162,141810,2,0,P|378:200|359:160,1,145.200004431152
264,60,142050,5,0,0:0:0:0:
264,60,142170,2,0,P|296:62|260:66,1,118.799996374512
144,136,142410,5,0,0:0:0:0:
144,136,142530,2,0,P|155:110|147:140,1,92.3999971801759
132,228,142770,1,0,0:0:0:0:
48,240,142890,1,0,0:0:0:0:
0,172,143010,1,0,0:0:0:0:
212,208,143130,5,0,0:0:0:0:
12,316,143250,1,0,0:0:0:0:
176,288,143370,1,0,0:0:0:0:
268,340,143490,6,0,B|128:316|128:316|188:280,1,198.000007553101
332,200,143730,2,0,P|372:272|280:340,1,198.000007553101
112,368,143970,6,0,B|152:248|152:248|212:224|212:288,1,198.000007553101
400,16,144210,2,0,B|360:136|360:136|300:160|300:96,1,198.000007553101
256,192,144450,5,0,0:0:0:0:
