osu file format v14

[General]
AudioFilename: audio.mp3
AudioLeadIn: 0
PreviewTime: 63728
Countdown: 0
SampleSet: Normal
StackLeniency: 0.2
Mode: 0
LetterboxInBreaks: 0
WidescreenStoryboard: 0

[Editor]
Bookmarks: 18728,48728,63728,93728,108728,123728,138728
DistanceSpacing: 3.2
BeatDivisor: 4
GridSize: 8
TimelineZoom: 3.299999

[Metadata]
Title:Gravity
TitleUnicode:Gravity
Artist:M2U
ArtistUnicode:M2U
Creator:Cxk224
Version:CHAOS Lv.12
Source:Cytus II
Tags:Cytus2; Cytus II; M2U; Paff; #PrayForPaff; Ambigious spacing and sliders
BeatmapID:1813919
BeatmapSetID:867743

[Difficulty]
HPDrainRate:7
CircleSize:4
OverallDifficulty:7.5
ApproachRate:9.2
SliderMultiplier:2
SliderTickRate:1

[Events]
//Background and Video events
//Break Periods
//Storyboard Layer 0 (Background)
//Storyboard Layer 1 (Fail)
//Storyboard Layer 2 (Pass)
//Storyboard Layer 3 (Foreground)
//Storyboard Sound Samples

[TimingPoints]
1853,468.75,4,1,0,30,1,0
1853,-50,4,1,0,30,0,0
2321,-100,4,1,0,30,0,0
3259,-200,4,1,0,30,0,0
5603,-100,4,1,0,40,0,0
7478,-100,4,1,0,50,0,0
9353,-100,4,1,0,60,0,0
14978,-100,4,1,0,70,0,0
17087,-80,4,1,0,70,0,0
17321,-36.3636363636364,4,1,0,70,0,0
17673,-100,4,1,0,70,0,0
18259,-133.333333333333,4,1,0,80,0,0
18728,-71.4285714285714,4,1,0,70,0,0
20134,-100,4,1,0,70,0,0
20603,-57.1428571428571,4,1,0,70,0,0
23181,-66.6666666666667,4,1,0,70,0,0
27399,-100,4,1,0,70,0,0
27868,-66.6666666666667,4,1,0,70,0,0
29274,-100,4,1,0,70,0,0
31618,-66.6666666666667,4,1,0,70,0,0
34431,-95.2380952380952,4,1,0,70,0,0
37243,-50,4,1,0,70,0,0
40290,-74.0740740740741,4,1,0,70,0,0
42399,-66.6666666666667,4,1,0,70,0,0
45446,-114.285714285714,4,1,0,70,0,0
46149,-58.8235294117647,4,1,0,70,0,0
47087,-66.6666666666667,4,1,0,70,0,0
47556,-57.1428571428571,4,1,0,70,0,0
47790,-105.263157894737,4,1,0,70,0,0
49665,-181.818181818182,4,1,0,70,0,0
53415,-166.666666666667,4,1,0,70,0,0
55290,-181.818181818182,4,1,0,70,0,0
59978,-100,4,1,0,70,0,0
60915,-181.818181818182,4,1,0,70,0,0
62790,-66.6666666666667,4,1,0,70,0,0
63259,-44.6428571428571,4,1,0,70,0,0
64665,-50,4,1,0,70,0,0
65603,-52.6315789473684,4,1,0,70,0,0
66071,-44.6428571428571,4,1,0,70,0,0
67478,-41.6666666666667,4,1,0,70,0,0
68767,-51.2820512820513,4,1,0,70,0,0
70290,-52.6315789473684,4,1,0,70,0,0
70642,-40,4,1,0,70,0,0
71228,-44.6428571428571,4,1,0,70,0,0
72165,-50,4,1,0,70,0,0
73103,-36.3636363636364,4,1,0,70,0,0
74040,-52.6315789473684,4,1,0,70,0,0
74978,-51.2820512820513,4,1,0,70,0,0
75446,-44.6428571428571,4,1,0,70,0,0
76267,-44.6428571428571,4,1,0,70,0,0
76853,-39.0625,4,1,0,70,0,0
78493,-50,4,1,0,70,0,0
78728,-46.5116279069767,4,1,0,70,0,0
81071,-52.6315789473684,4,1,0,70,0,0
81892,-50,4,1,0,70,0,0
82478,-46.5116279069767,4,1,0,70,0,0
84118,-50,4,1,0,70,0,0
86228,-44.6428571428571,4,1,0,70,0,0
88103,-52.6315789473684,4,1,0,70,0,0
89040,-46.5116279069767,4,1,0,70,0,0
89392,-40,4,1,0,70,0,0
89743,-52.6315789473684,4,1,0,70,0,0
90446,-44.6428571428571,4,1,0,70,0,0
90915,-42.5531914893617,4,1,0,70,0,0
91384,-52.6315789473684,4,1,0,70,0,0
93024,-44.6428571428571,4,1,0,70,0,0
93259,-52.6315789473684,4,1,0,70,0,0
105446,-200,4,1,0,70,0,0
105915,-133.333333333333,4,1,0,70,0,0
106149,-105.263157894737,4,1,0,70,0,0
108728,-55.5555555555556,4,1,0,70,0,0
110134,-100,4,1,0,70,0,0
110603,-44.6428571428571,4,1,0,70,0,0
112009,-66.6666666666667,4,1,0,70,0,0
112478,-40,4,1,0,70,0,0
113884,-66.6666666666667,4,1,0,70,0,0
114118,-57.1428571428571,4,1,0,70,0,0
115759,-100,4,1,0,70,0,0
115993,-50,4,1,0,70,0,0
116345,-100,4,1,0,70,0,0
118103,-66.6666666666667,4,1,0,70,0,0
119978,-50,4,1,0,70,0,0
121384,-66.6666666666667,4,1,0,70,0,0
122556,-100,4,1,0,70,0,0
123259,-66.6666666666667,4,1,0,70,0,0
127478,-50,4,1,0,70,0,0
128884,-100,4,1,0,70,0,0
129118,-66.6666666666667,4,1,0,70,0,0
129587,-50,4,1,0,70,0,0
130993,-100,4,1,0,70,0,0
131228,-50,4,1,0,70,0,0
132634,-66.6666666666667,4,1,0,70,0,0
136384,-50,4,1,0,70,0,0
138259,-100,4,1,0,70,0,0
138493,-50,4,1,0,70,0,0
138728,-55.5555555555556,4,1,0,70,0,0
140134,-100,4,1,0,70,0,0
140603,-44.6428571428571,4,1,0,70,0,0
142009,-66.6666666666667,4,1,0,70,0,0
142478,-50,4,1,0,70,0,0
143884,-100,4,1,0,70,0,0
144353,-66.6666666666667,4,1,0,70,0,0
146345,-66.6666666666667,4,1,0,70,0,0
147634,-100,4,1,0,70,0,0
148103,-80,4,1,0,70,0,0
149509,-100,4,1,0,70,0,0

[Colours]
Combo1 : 255,255,0
Combo2 : 0,255,255
Combo3 : 255,0,128

[HitObjects]
56,384,1853,6,0,P|55:344|37:288,1,100
64,288,2087,1,0,0:0:0:0:
243,192,2321,6,0,L|251:128,1,50
376,96,2556,1,0,0:0:0:0:
264,48,2673,6,0,L|268:24,2,25
72,48,2907,1,0,0:0:0:0:
128,96,3024,5,0,0:0:0:0:
112,144,3142,1,0,0:0:0:0:
168,192,3259,6,0,L|180:193,1,12.5
344,384,3728,1,0,0:0:0:0:
144,288,3962,5,0,0:0:0:0:
256,192,4196,1,0,0:0:0:0:
368,96,4431,1,0,0:0:0:0:
144,384,5603,5,0,0:0:0:0:
368,288,5837,5,0,0:0:0:0:
256,192,6071,1,0,0:0:0:0:
144,96,6306,1,0,0:0:0:0:
264,384,7478,5,0,0:0:0:0:
144,288,7712,5,0,0:0:0:0:
256,192,7946,1,0,0:0:0:0:
368,96,8181,1,0,0:0:0:0:
320,384,9353,5,0,0:0:0:0:
168,288,9587,5,0,0:0:0:0:
256,192,9821,1,0,0:0:0:0:
344,96,10056,1,0,0:0:0:0:
168,96,10524,6,0,P|184:152|176:192,1,100
320,288,10993,1,0,0:0:0:0:
224,384,11228,5,0,0:0:0:0:
104,288,11462,5,0,0:0:0:0:
256,192,11696,1,0,0:0:0:0:
408,96,11931,1,0,0:0:0:0:
216,384,13103,5,0,0:0:0:0:
424,288,13337,5,0,0:0:0:0:
256,192,13571,1,0,0:0:0:0:
88,96,13806,1,0,0:0:0:0:
248,384,14978,5,0,0:0:0:0:
72,288,15212,5,0,0:0:0:0:
256,192,15446,1,0,0:0:0:0:
440,96,15681,1,0,0:0:0:0:
312,0,15915,6,0,P|321:23|320:47,1,50
200,96,16149,2,0,P|191:119|192:143,1,50
344,192,16384,6,0,P|353:215|352:239,1,50
176,288,16618,2,0,P|167:311|168:335,1,50
320,384,16853,5,0,0:0:0:0:
32,288,17087,2,0,L|24:216,1,62.5
40,192,17321,6,0,B|120:176|120:176|161:139,1,137.500001311302
168,96,17556,1,0,0:0:0:0:
296,48,17673,6,0,L|312:24,2,25
176,48,17907,5,0,0:0:0:0:
272,88,18024,1,0,0:0:0:0:
240,144,18142,1,0,0:0:0:0:
296,192,18259,6,0,L|279:204,1,18.7500007152558
368,384,18728,6,0,P|434:344|432:288,1,139.999995727539
152,192,19196,1,0,0:0:0:0:
88,88,19431,1,0,0:0:0:0:
344,0,19665,5,0,0:0:0:0:
232,96,19899,1,0,0:0:0:0:
456,192,20134,6,0,L|404:193,1,50
168,288,20368,1,0,0:0:0:0:
336,384,20603,6,0,P|295:298|224:288,1,175.00000166893
112,192,21071,5,0,0:0:0:0:
248,96,21306,1,0,0:0:0:0:
280,0,21540,5,0,0:0:0:0:
192,96,21774,1,0,0:0:0:0:
384,192,22009,5,0,0:0:0:0:
176,288,22243,2,0,P|80:336|32:384,2,175.00000166893
8,192,22946,5,0,0:0:0:0:
144,96,23181,2,0,B|88:80|72:32|72:32|112:0,1,150.000005722046
352,96,23649,6,0,B|420:91|420:91|408:105,1,75.0000028610231
296,192,23884,2,0,B|350:233|350:233|352:240,1,75.0000028610231
160,288,24118,2,0,B|232:384|232:384|200:376,2,150.000005722046
256,192,24821,5,0,0:0:0:0:
464,96,25056,1,0,0:0:0:0:
256,0,25290,1,0,0:0:0:0:
48,96,25524,1,0,0:0:0:0:
256,192,25759,5,0,0:0:0:0:
368,288,25993,2,0,P|408:352|480:384,1,150.000005722046
224,288,26462,1,0,0:0:0:0:
80,192,26696,5,0,0:0:0:0:
168,96,26931,1,0,0:0:0:0:
368,0,27165,5,0,0:0:0:0:
360,48,27282,1,0,0:0:0:0:
328,88,27399,6,0,P|335:115|336:144,1,50
432,192,27634,1,0,0:0:0:0:
88,288,27868,6,0,B|88:352|56:384|56:384|88:344|163:336,1,225.000008583069
200,288,28337,2,0,P|224:256|254:241,1,75.0000028610231
104,192,28571,5,0,0:0:0:0:
256,96,28806,1,0,0:0:0:0:
80,0,29040,5,0,0:0:0:0:
96,48,29157,1,0,0:0:0:0:
112,96,29274,6,0,L|162:97,1,50
240,192,29509,1,0,0:0:0:0:
488,288,29743,6,0,P|499:351|488:384,1,100
256,288,30212,1,0,0:0:0:0:
96,192,30446,5,0,0:0:0:0:
40,96,30681,1,0,0:0:0:0:
232,0,30915,5,0,0:0:0:0:
368,96,31149,1,0,0:0:0:0:
260,192,31384,2,0,P|253:216|256:240,1,50
432,288,31618,6,0,P|368:312|344:384,1,150.000005722046
88,288,32087,1,0,0:0:0:0:
88,192,32321,5,0,0:0:0:0:
0,96,32556,1,0,0:0:0:0:
88,0,32790,5,0,0:0:0:0:
240,96,33024,1,0,0:0:0:0:
320,192,33259,1,0,0:0:0:0:
160,288,33493,6,0,B|216:368|272:384|272:384|328:368|384:288,1,300.000011444092
232,192,34196,1,0,0:0:0:0:
128,96,34431,2,0,P|107:27|88:0,1,104.999996795654
352,96,34899,6,0,P|331:165|312:192,1,104.999996795654
200,288,35368,1,0,0:0:0:0:
304,384,35603,5,0,0:0:0:0:
200,288,35837,1,0,0:0:0:0:
96,192,36071,1,0,0:0:0:0:
352,96,36306,5,0,0:0:0:0:
104,0,36540,2,0,L|48:1,1,52.4999983978272
200,96,36774,1,0,0:0:0:0:
392,192,37009,5,0,0:0:0:0:
184,288,37243,6,0,B|168:344|168:344|200:374|200:374|272:384|272:384|336:360|336:360|280:336,1,300
192,288,37712,5,0,0:0:0:0:
384,192,37946,1,0,0:0:0:0:
192,96,38181,1,0,0:0:0:0:
192,96,38649,5,0,0:0:0:0:
48,192,38884,1,0,0:0:0:0:
192,288,39118,5,0,0:0:0:0:
112,384,39353,1,0,0:0:0:0:
360,288,39587,1,0,0:0:0:0:
296,192,39821,1,0,0:0:0:0:
112,96,40056,5,0,0:0:0:0:
248,0,40290,2,0,P|276:17|287:48,1,67.5000002574921
272,96,40524,1,0,0:0:0:0:
344,192,40759,1,0,0:0:0:0:
144,288,40993,5,0,0:0:0:0:
144,288,41462,1,0,0:0:0:0:
376,192,41696,1,0,0:0:0:0:
80,96,41931,1,0,0:0:0:0:
80,96,42399,6,0,P|97:131|128:144,1,75.0000028610231
296,192,42634,1,0,0:0:0:0:
144,288,42868,5,0,0:0:0:0:
144,288,43337,1,0,0:0:0:0:
376,192,43571,1,0,0:0:0:0:
80,96,43806,1,0,0:0:0:0:
384,96,44274,5,0,0:0:0:0:
512,192,44509,1,0,0:0:0:0:
392,288,44743,1,0,0:0:0:0:
320,384,44978,5,0,0:0:0:0:
96,288,45212,1,0,0:0:0:0:
96,240,45329,1,0,0:0:0:0:
64,192,45446,6,0,L|64:144,1,43.7500004172325
280,96,45681,1,0,0:0:0:0:
184,0,45915,1,0,0:0:0:0:
368,96,46149,6,0,P|432:136|440:144,1,85.0000016212464
296,192,46384,2,0,P|256:224|224:240,1,85.0000016212464
440,288,46618,1,0,0:0:0:0:
376,384,46853,5,0,0:0:0:0:
128,288,47087,2,0,P|189:259|232:192,1,150
176,144,47438,1,0,0:0:0:0:
112,96,47556,6,0,L|112:0,1,87.500000834465
160,0,47790,2,0,L|160:288,1,284.999992389679
344,384,48728,5,0,0:0:0:0:
336,288,49196,5,0,0:0:0:0:
376,192,49665,6,0,L|376:136,1,55.0000016784668
376,120,50017,2,0,L|376:64,1,55.0000016784668
352,48,50368,1,0,0:0:0:0:
216,0,50603,5,0,0:0:0:0:
240,96,51071,5,0,0:0:0:0:
136,192,51540,6,0,L|136:248,1,55.0000016784668
120,264,51892,2,0,L|120:320,1,55.0000016784668
160,336,52243,1,0,0:0:0:0:
40,384,52478,5,0,0:0:0:0:
168,288,52946,5,0,0:0:0:0:
232,192,53415,6,0,P|218:161|232:144,1,59.9999981689454
336,120,53767,2,0,P|350:89|336:72,1,59.9999981689454
232,48,54118,1,0,0:0:0:0:
368,0,54353,5,0,0:0:0:0:
480,96,54821,5,0,0:0:0:0:
344,144,55056,1,0,0:0:0:0:
344,192,55290,6,0,L|344:248,1,55.0000016784668
264,264,55642,2,0,L|264:320,1,55.0000016784668
320,336,55993,1,0,0:0:0:0:
152,384,56228,6,0,L|152:352,4,27.5000008392334
160,288,56931,5,0,0:0:0:0:
96,192,57165,6,0,L|96:136,1,55.0000016784668
176,120,57517,2,0,L|176:64,1,55.0000016784668
256,48,57868,1,0,0:0:0:0:
416,0,58103,6,0,L|416:32,4,27.5000008392334
312,144,58806,1,0,0:0:0:0:
224,192,59040,6,0,L|224:248,1,55.0000016784668
104,256,59392,2,0,L|104:312,1,55.0000016784668
208,336,59743,1,0,0:0:0:0:
376,384,59978,6,0,L|400:336,4,50
152,240,60681,1,0,0:0:0:0:
56,192,60915,6,0,L|56:136,1,55.0000016784668
216,128,61267,2,0,L|216:72,1,55.0000016784668
56,48,61618,1,0,0:0:0:0:
264,0,61853,1,0,0:0:0:0:
304,24,61970,1,0,0:0:0:0:
328,48,62087,5,0,0:0:0:0:
344,72,62204,1,0,0:0:0:0:
352,96,62321,2,0,L|376:104,4,13.7500004196167
176,160,62673,1,0,0:0:0:0:
112,192,62790,5,0,0:0:0:0:
48,216,62907,1,0,0:0:0:0:
128,264,63024,5,0,0:0:0:0:
216,296,63142,1,0,0:0:0:0:
304,336,63259,6,0,L|359:334,1,56.0000006835938
304,384,63728,6,0,P|376:288|352:192,1,224.000002734375
80,0,64196,1,0,0:0:0:0:
112,192,64431,1,0,0:0:0:0:
160,384,64665,6,0,L|216:192,1,200
248,96,65017,2,0,L|208:0,2,100
360,192,65368,1,0,0:0:0:0:
360,382,65603,6,0,L|360:190,1,189.999994926453
120,8,66071,2,0,B|58:96|58:96|128:192,1,224.000002734375
144,384,66540,5,0,0:0:0:0:
120,192,66774,1,0,0:0:0:0:
144,96,66892,2,0,L|208:0,2,112.000001367188
216,192,67243,1,0,0:0:0:0:
360,384,67478,6,0,B|408:384|408:384|408:192,1,239.999992675781
448,0,67946,6,0,B|400:0|400:0|400:192,1,239.999992675781
200,384,68415,5,0,0:0:0:0:
176,288,68532,1,0,0:0:0:0:
152,192,68649,1,0,0:0:0:0:
128,96,68767,2,0,L|104:0,1,97.500000371933
400,192,69118,5,0,0:0:0:0:
200,384,69353,2,0,P|184:296|192:192,1,195.000000743866
264,0,69821,5,0,0:0:0:0:
352,192,70056,1,0,0:0:0:0:
112,384,70290,6,0,L|112:192,1,189.999994926453
64,96,70642,2,0,B|148:0|148:0|232:96,1,250
144,192,70993,1,0,0:0:0:0:
208,384,71228,6,0,P|136:288|160:192,1,224.000002734375
432,0,71696,1,0,0:0:0:0:
400,192,71931,1,0,0:0:0:0:
232,384,72165,6,0,L|176:192,1,200
88,96,72517,1,0,0:0:0:0:
168,8,72634,2,0,L|208:104,1,100
176,192,72868,1,0,0:0:0:0:
320,384,73103,6,0,B|424:304|424:304|334:191,1,275.000002622604
160,0,73571,1,0,0:0:0:0:
96,192,73806,1,0,0:0:0:0:
208,384,74040,6,0,L|208:192,1,189.999994926453
208,96,74392,2,0,L|208:0,1,94.9999974632264
440,192,74743,1,0,0:0:0:0:
312,384,74978,6,0,L|280:192,1,195.000000743866
88,0,75446,2,0,P|40:80|96:192,1,224.000002734375
312,384,75915,6,0,L|432:192,1,224.000002734375
336,96,76267,2,0,L|280:0,1,112.000001367188
40,192,76618,6,0,L|104:288,1,112.000001367188
312,384,76853,6,0,B|400:352|400:352|400:184,1,256
112,0,77321,5,0,0:0:0:0:
112,192,77556,1,0,0:0:0:0:
112,288,77673,1,0,0:0:0:0:
112,384,77790,5,0,0:0:0:0:
192,288,77907,1,0,0:0:0:0:
272,192,78024,1,0,0:0:0:0:
352,96,78142,1,0,0:0:0:0:
432,0,78259,6,0,L|440:56,1,56.0000006835938
448,192,78493,2,0,L|480:288,1,100
336,384,78728,6,0,P|280:296|296:192,1,215.00000328064
152,0,79196,1,0,0:0:0:0:
224,192,79431,1,0,0:0:0:0:
96,384,79665,6,0,P|40:288|64:192,1,215.00000328064
144,96,80017,2,0,P|200:48|224:0,1,107.50000164032
320,192,80368,1,0,0:0:0:0:
416,384,80603,6,0,B|467:319|467:319|432:192,1,215.00000328064
192,0,81071,2,0,L|192:192,1,189.999994926453
320,384,81540,1,0,0:0:0:0:
280,192,81774,1,0,0:0:0:0:
328,96,81892,2,0,L|368:0,1,100
280,192,82243,5,0,0:0:0:0:
144,384,82478,6,0,B|120:384|120:384|120:192,1,215.00000328064
144,0,82946,6,0,B|120:0|120:0|120:192,1,215.00000328064
104,384,83415,6,0,P|64:296|112:192,1,215.00000328064
160,96,83767,2,0,L|112:0,2,107.50000164032
248,192,84118,2,0,L|280:288,1,100
312,384,84353,5,0,0:0:0:0:
384,0,84821,2,0,L|344:96,1,100
368,192,85056,1,0,0:0:0:0:
224,384,85290,6,0,B|184:288|184:288|200:192,1,200
224,96,85642,1,0,0:0:0:0:
240,0,85759,1,0,0:0:0:0:
384,192,85993,5,0,0:0:0:0:
208,384,86228,6,0,P|136:288|160:192,1,224.000002734375
400,0,86696,1,0,0:0:0:0:
312,192,86931,1,0,0:0:0:0:
344,384,87165,6,0,L|288:288,1,112.000001367188
240,192,87399,1,0,0:0:0:0:
288,96,87517,6,0,L|344:0,2,112.000001367188
360,192,87868,1,0,0:0:0:0:
256,384,88103,6,0,L|256:192,1,189.999994926453
56,0,88571,2,0,L|56:192,1,189.999994926453
176,384,89040,6,0,B|240:312|240:312|232:192,1,215.00000328064
192,96,89392,2,0,B|276:0|276:0|360:96,1,250
304,192,89743,2,0,L|304:288,1,94.9999974632264
304,382,89978,6,0,L|304:190,1,189.999994926453
432,0,90446,6,0,B|489:97|489:97|432:192,1,224.000002734375
152,384,90915,2,0,B|84:291|84:291|152:192,1,234.999996414185
232,96,91267,1,0,0:0:0:0:
304,0,91384,2,0,L|304:96,1,94.9999974632264
368,192,91618,1,0,0:0:0:0:
120,384,91853,5,0,0:0:0:0:
120,0,92321,5,0,0:0:0:0:
120,192,92556,1,0,0:0:0:0:
120,288,92673,1,0,0:0:0:0:
120,384,92790,1,0,0:0:0:0:
256,192,93024,2,0,B|286:143|286:143|256:96,1,112.000001367188
192,0,93259,6,0,L|192:96,1,94.9999974632264
344,192,93493,1,0,0:0:0:0:
344,384,93728,5,0,0:0:0:0:
272,288,93962,1,0,0:0:0:0:
368,192,94196,5,0,0:0:0:0:
296,96,94430,1,0,0:0:0:0:
256,48,94548,1,0,0:0:0:0:
216,0,94665,5,0,0:0:0:0:
296,96,94899,1,0,0:0:0:0:
256,144,95016,1,0,0:0:0:0:
216,192,95134,1,0,0:0:0:0:
112,288,95368,1,0,0:0:0:0:
184,384,95602,5,0,0:0:0:0:
112,288,95837,1,0,0:0:0:0:
240,192,96071,5,0,0:0:0:0:
168,96,96305,1,0,0:0:0:0:
128,48,96423,1,0,0:0:0:0:
88,0,96540,5,0,0:0:0:0:
168,96,96774,1,0,0:0:0:0:
128,144,96892,1,0,0:0:0:0:
88,192,97009,1,0,0:0:0:0:
176,288,97243,1,0,0:0:0:0:
296,384,97478,5,0,0:0:0:0:
368,288,97713,1,0,0:0:0:0:
256,192,97946,5,0,0:0:0:0:
328,96,98181,1,0,0:0:0:0:
360,48,98298,1,0,0:0:0:0:
328,0,98415,5,0,0:0:0:0:
144,96,98649,1,0,0:0:0:0:
112,144,98766,1,0,0:0:0:0:
144,192,98883,1,0,0:0:0:0:
64,288,99118,1,0,0:0:0:0:
176,384,99353,5,0,0:0:0:0:
248,288,99588,1,0,0:0:0:0:
320,192,99821,5,0,0:0:0:0:
392,96,100056,1,0,0:0:0:0:
432,48,100173,1,0,0:0:0:0:
392,0,100290,5,0,0:0:0:0:
192,96,100524,1,0,0:0:0:0:
152,144,100641,1,0,0:0:0:0:
192,192,100758,1,0,0:0:0:0:
272,288,100993,1,0,0:0:0:0:
368,384,101228,5,0,0:0:0:0:
480,288,101462,1,0,0:0:0:0:
336,192,101696,5,0,0:0:0:0:
208,96,101930,1,0,0:0:0:0:
96,0,102165,5,0,0:0:0:0:
256,96,102399,1,0,0:0:0:0:
392,192,102634,5,0,0:0:0:0:
192,288,102868,1,0,0:0:0:0:
264,384,103103,5,0,0:0:0:0:
32,288,103337,1,0,0:0:0:0:
168,192,103571,5,0,0:0:0:0:
368,96,103806,1,0,0:0:0:0:
208,0,104040,5,0,0:0:0:0:
440,88,104274,1,0,0:0:0:0:
280,192,104509,5,0,0:0:0:0:
32,288,104743,1,0,0:0:0:0:
224,384,104978,5,0,0:0:0:0:
224,336,105095,1,0,0:0:0:0:
224,288,105212,1,0,0:0:0:0:
224,240,105329,1,0,0:0:0:0:
233,192,105446,6,0,L|249:192,1,12.5
208,144,105563,2,0,L|195:144,1,12.5
241,96,105680,2,0,L|257:96,1,12.5
207,48,105797,2,0,L|194:48,1,12.5
272,0,105915,6,0,L|280:32,1,18.7500007152558
360,48,106032,2,0,L|352:80,1,18.7500007152558
272,96,106149,6,0,L|272:192,1,94.9999974632264
408,288,106618,5,0,0:0:0:0:
40,384,106853,1,0,0:0:0:0:
128,288,108259,2,0,L|160:288,1,23.7499993658066
280,384,108728,6,0,B|224:352|224:352|248:336,1,89.9999972534181
328,288,108962,1,0,0:0:0:0:
144,192,109196,5,0,0:0:0:0:
104,144,109313,1,0,0:0:0:0:
168,96,109431,5,0,0:0:0:0:
352,0,109665,5,0,0:0:0:0:
376,48,109783,1,0,0:0:0:0:
320,96,109900,5,0,0:0:0:0:
160,192,110134,2,0,L|152:248,1,50
80,288,110368,2,0,L|72:344,1,50
192,384,110603,6,0,B|296:336|296:336|192:304,1,224.000002734375
40,256,111071,5,0,0:0:0:0:
0,192,111188,1,0,0:0:0:0:
80,160,111306,5,0,0:0:0:0:
264,96,111540,5,0,0:0:0:0:
304,160,111657,1,0,0:0:0:0:
224,192,111775,5,0,0:0:0:0:
88,248,112009,6,0,L|24:288,1,75.0000028610231
192,320,112243,2,0,L|128:360,1,75.0000028610231
352,384,112478,6,0,B|440:376|440:376|464:344,1,125
464,296,112712,1,0,0:0:0:0:
240,280,112946,5,0,0:0:0:0:
168,256,113063,1,0,0:0:0:0:
240,208,113181,5,0,0:0:0:0:
400,192,113415,5,0,0:0:0:0:
472,216,113532,1,0,0:0:0:0:
400,264,113650,5,0,0:0:0:0:
256,296,113884,6,0,P|304:307|336:320,1,75.0000028610231
136,336,114118,2,0,P|192:360|216:376,1,87.500000834465
16,384,114353,6,0,B|56:376|56:376|104:376,1,87.500000834465
184,344,114587,1,0,0:0:0:0:
360,312,114821,5,0,0:0:0:0:
448,304,114938,1,0,0:0:0:0:
360,288,115056,5,0,0:0:0:0:
128,288,115290,5,0,0:0:0:0:
40,304,115408,1,0,0:0:0:0:
128,304,115525,5,0,0:0:0:0:
256,240,115759,2,0,L|256:296,1,50
304,240,115993,6,0,B|256:152|256:152|208:240,1,200
104,288,116345,6,0,L|128:240,1,50
416,224,116696,5,0,0:0:0:0:
432,160,116813,1,0,0:0:0:0:
360,128,116931,5,0,0:0:0:0:
192,96,117165,5,0,0:0:0:0:
176,160,117282,1,0,0:0:0:0:
248,192,117400,5,0,0:0:0:0:
384,272,117634,6,0,L|328:280,1,50
296,328,117868,2,0,L|240:336,1,50
112,384,118103,6,0,L|56:320,1,75.0000028610231
160,288,118337,1,0,0:0:0:0:
352,264,118571,5,0,0:0:0:0:
432,240,118688,1,0,0:0:0:0:
336,208,118806,5,0,0:0:0:0:
128,192,119040,5,0,0:0:0:0:
48,216,119157,1,0,0:0:0:0:
136,208,119275,5,0,0:0:0:0:
272,312,119509,6,0,B|312:320|312:320|344:304,1,75.0000028610231
304,360,119743,2,0,B|344:368|344:368|376:352,1,75.0000028610231
112,384,119978,6,0,B|49:370|49:370|12:373|12:373|48:368|48:368|104:336,1,200
320,328,120446,5,0,0:0:0:0:
392,320,120563,1,0,0:0:0:0:
464,288,120681,5,0,0:0:0:0:
248,328,120915,5,0,0:0:0:0:
176,320,121032,1,0,0:0:0:0:
104,288,121150,5,0,0:0:0:0:
312,328,121384,6,0,L|392:344,1,75.0000028610231
256,360,121618,2,0,L|176:384,1,75.0000028610231
16,384,121853,5,0,0:0:0:0:
248,384,122087,1,0,0:0:0:0:
224,384,122204,1,0,0:0:0:0:
200,384,122321,1,0,0:0:0:0:
456,384,122556,2,0,L|512:384,1,50
264,384,122790,5,0,0:0:0:0:
120,384,123024,1,0,0:0:0:0:
360,384,123259,2,0,L|448:384,1,75.0000028610231
104,384,123728,6,0,B|96:360|67:347|67:347|96:352,1,75.0000028610231
184,288,123962,1,0,0:0:0:0:
392,192,124196,5,0,0:0:0:0:
392,120,124313,1,0,0:0:0:0:
392,48,124431,5,0,0:0:0:0:
200,192,124665,1,0,0:0:0:0:
200,120,124783,5,0,0:0:0:0:
200,48,124900,1,0,0:0:0:0:
336,192,125134,2,0,P|332:242|336:272,1,75.0000028610231
440,288,125368,2,0,P|436:338|440:368,1,75.0000028610231
208,384,125603,6,0,B|272:376|272:376|296:360,1,75.0000028610231
200,288,125837,2,0,B|135:292|135:292|112:280,1,75.0000028610231
40,192,126071,5,0,0:0:0:0:
40,118,126188,1,0,0:0:0:0:
40,40,126306,5,0,0:0:0:0:
240,192,126540,1,0,0:0:0:0:
240,118,126658,5,0,0:0:0:0:
240,40,126775,1,0,0:0:0:0:
416,200,127009,2,0,L|440:280,1,75.0000028610231
304,288,127243,2,0,L|297:371,1,75.0000028610231
112,384,127478,6,0,B|168:360|168:360|64:264,1,200
320,192,127946,5,0,0:0:0:0:
320,112,128063,1,0,0:0:0:0:
320,32,128181,5,0,0:0:0:0:
112,192,128415,1,0,0:0:0:0:
112,112,128533,5,0,0:0:0:0:
112,32,128650,1,0,0:0:0:0:
312,192,128884,2,0,L|320:232,2,25
392,288,129118,2,0,L|376:368,1,75.0000028610231
152,384,129353,6,0,L|72:360,1,75.0000028610231
192,288,129587,2,0,L|288:256,1,100
80,192,129821,5,0,0:0:0:0:
80,110,129938,1,0,0:0:0:0:
80,24,130056,5,0,0:0:0:0:
304,192,130290,1,0,0:0:0:0:
303,110,130408,5,0,0:0:0:0:
304,24,130525,1,0,0:0:0:0:
256,192,130759,2,0,L|288:240,1,50
440,288,130993,2,0,L|424:336,1,50
400,384,131228,6,0,B|440:360|440:360|296:288,1,200
456,192,131696,5,0,0:0:0:0:
456,104,131813,1,0,0:0:0:0:
456,16,131931,5,0,0:0:0:0:
224,192,132165,1,0,0:0:0:0:
224,104,132283,5,0,0:0:0:0:
224,16,132400,1,0,0:0:0:0:
224,192,132634,2,0,L|296:232,1,75.0000028610231
64,280,132868,2,0,L|136:320,1,75.0000028610231
328,384,133103,5,0,0:0:0:0:
184,288,133337,2,0,B|136:280|136:280|112:248,1,75.0000028610231
296,192,133571,5,0,0:0:0:0:
296,102,133688,1,0,0:0:0:0:
296,8,133806,5,0,0:0:0:0:
56,192,134040,1,0,0:0:0:0:
56,102,134158,5,0,0:0:0:0:
56,8,134275,1,0,0:0:0:0:
232,192,134509,2,0,B|200:216|200:216|184:248,1,75.0000028610231
384,288,134743,2,0,B|416:312|416:312|432:344,1,75.0000028610231
144,384,134978,6,0,B|128:352|128:352|136:312,1,75.0000028610231
280,288,135212,1,0,0:0:0:0:
472,192,135446,5,0,0:0:0:0:
472,96,135563,1,0,0:0:0:0:
472,0,135681,5,0,0:0:0:0:
216,192,135915,1,0,0:0:0:0:
216,96,136033,5,0,0:0:0:0:
216,0,136150,1,0,0:0:0:0:
32,192,136384,2,0,B|40:216|40:216|104:256,1,100
104,288,136618,5,0,0:0:0:0:
304,384,136853,1,0,0:0:0:0:
488,288,137087,1,0,0:0:0:0:
304,192,137321,1,0,0:0:0:0:
160,88,137556,2,0,B|208:0,4,100
264,192,138259,2,0,L|296:208,1,25
456,288,138493,6,0,L|416:384,1,100
280,384,138728,6,0,B|224:352|224:352|248:336,1,89.9999972534181
328,288,138962,1,0,0:0:0:0:
144,192,139196,5,0,0:0:0:0:
104,144,139313,1,0,0:0:0:0:
168,96,139431,5,0,0:0:0:0:
352,0,139665,5,0,0:0:0:0:
376,48,139783,1,0,0:0:0:0:
320,96,139900,5,0,0:0:0:0:
160,192,140134,2,0,L|152:248,1,50
80,288,140368,2,0,L|72:344,1,50
192,384,140603,6,0,B|296:336|296:336|192:304,1,224.000002734375
40,256,141071,5,0,0:0:0:0:
24,192,141188,1,0,0:0:0:0:
80,160,141306,5,0,0:0:0:0:
264,96,141540,5,0,0:0:0:0:
280,160,141657,1,0,0:0:0:0:
224,192,141775,5,0,0:0:0:0:
88,248,142009,6,0,L|24:288,1,75.0000028610231
192,320,142243,2,0,L|128:360,1,75.0000028610231
328,384,142478,6,0,B|400:376|400:376|440:344,1,100
392,288,142712,1,0,0:0:0:0:
216,280,142946,5,0,0:0:0:0:
184,256,143063,1,0,0:0:0:0:
216,208,143181,5,0,0:0:0:0:
384,192,143415,5,0,0:0:0:0:
416,216,143532,1,0,0:0:0:0:
384,264,143650,5,0,0:0:0:0:
256,296,143884,6,0,P|291:301|320:312,1,50
168,344,144118,2,0,P|210:362|216:368,1,50
64,384,144353,6,0,B|104:376|104:376|144:376,1,75.0000028610231
136,344,144587,1,0,0:0:0:0:
312,312,144821,5,0,0:0:0:0:
360,304,144938,1,0,0:0:0:0:
312,288,145056,5,0,0:0:0:0:
128,288,145290,5,0,0:0:0:0:
96,304,145408,1,0,0:0:0:0:
144,296,145525,5,0,0:0:0:0:
336,288,145759,2,0,L|336:248,1,37.5000014305115
272,192,145993,6,0,B|336:152|336:152|400:192,1,150.000005722046
464,288,146345,2,0,L|440:216,1,75.0000028610231
296,192,146696,5,0,0:0:0:0:
280,144,146813,1,0,0:0:0:0:
288,96,146931,5,0,0:0:0:0:
440,96,147165,5,0,0:0:0:0:
448,144,147283,1,0,0:0:0:0:
432,192,147400,5,0,0:0:0:0:
320,256,147634,2,0,L|264:272,1,50
264,288,147868,2,0,L|208:304,1,50
112,384,148103,6,0,L|96:320,1,62.5
112,288,148337,2,0,L|152:240,1,62.5
336,240,148571,5,0,0:0:0:0:
352,224,148688,1,0,0:0:0:0:
368,192,148806,5,0,0:0:0:0:
256,240,149040,5,0,0:0:0:0:
240,224,149157,1,0,0:0:0:0:
216,192,149275,5,0,0:0:0:0:
320,288,149509,6,0,L|320:344,1,50
432,344,149743,2,0,L|384:384,1,50
240,384,149978,6,0,B|192:384|192:384|184:376,1,50
168,360,150212,1,0,0:0:0:0:
32,328,150446,5,0,0:0:0:0:
32,312,150563,1,0,0:0:0:0:
32,288,150681,5,0,0:0:0:0:
144,288,150915,5,0,0:0:0:0:
144,312,151033,1,0,0:0:0:0:
144,328,151150,5,0,0:0:0:0:
256,360,151384,2,0,L|312:368,1,50
384,384,151618,1,0,0:0:0:0:
168,384,151853,6,0,L|112:384,1,50
80,384,152087,1,0,0:0:0:0:
304,384,152321,6,0,L|360:384,2,50
144,384,152790,6,0,L|112:384,1,25
8,384,153024,1,0,0:0:0:0:
200,384,153259,6,0,B|312:384|312:384|312:376|312:376|320:384|320:384|320:376|320:376|328:384|328:384|328:376|328:376|336:384|336:384|336:376|336:376|344:384|344:384|344:376|344:376|352:384|352:384|352:376|352:376|360:384,1,200
