osu file format v14

[General]
AudioFilename: audio.mp3
AudioLeadIn: 0
PreviewTime: 46381
Countdown: 0
SampleSet: Normal
StackLeniency: 0.7
Mode: 1
LetterboxInBreaks: 0
WidescreenStoryboard: 1

[Editor]
Bookmarks: 1527,7720,20107,32494,46430,48172,48752,50301,50688,51268,51559,51656,51849,53785,54172,56881,58817,74494,77397,86688,89785,103720,109914,128494
DistanceSpacing: 1
BeatDivisor: 16
GridSize: 32
TimelineZoom: 1.599999

[Metadata]
Title:Felis
TitleUnicode:Felis
Artist:M2U
ArtistUnicode:M2U
Creator:roxorotto
Version:Tsukani's Oni
Source:Arcaea
Tags:tsukani mapping to pander: taiko #2 m2p#2 m2p axer's pick 4th place video game electronic instrumental ethnic electronica alice tenniel ephemeral page piano
BeatmapID:4017569
BeatmapSetID:1849886

[Difficulty]
HPDrainRate:6
CircleSize:5
OverallDifficulty:5.5
ApproachRate:5
SliderMultiplier:1.4
SliderTickRate:1

[Events]
//Background and Video events
0,0,"feliss.jpg",0,140
//Break Periods
//Storyboard Layer 0 (Background)
//Storyboard Layer 1 (Fail)
//Storyboard Layer 2 (Pass)
//Storyboard Layer 3 (Foreground)
//Storyboard Layer 4 (Overlay)
//Storyboard Sound Samples

[TimingPoints]
1527,387.096774193548,4,1,0,50,1,0
1527,-111.111111111111,4,1,0,50,0,0
7661,-100,4,1,0,60,0,0
32435,-125,4,1,0,40,0,0
44876,-125,4,1,0,40,0,0
45070,-119.991745,4,1,0,40,0,0
45167,-117.635155,4,1,0,40,0,0
45263,-115.39225,4,1,0,40,0,0
45360,-113.21123,4,1,0,40,0,0
45457,-111.111115,4,1,0,40,0,0
45651,-107.13627,4,1,0,40,0,0
45747,-105.27269,4,1,0,40,0,0
45844,-103.45442,4,1,0,40,0,0
46038,-100,4,1,0,40,0,0
46370,-83.3333333333333,4,1,0,80,0,0
46430,387.096774193548,4,1,0,80,1,1
46430,-83.3333333333333,4,1,0,80,0,1
58762,-111.111111111111,4,1,0,50,0,1
58817,-111.111111111111,4,1,0,50,0,0
64951,-100,4,1,0,60,0,0
89725,-125,4,1,0,40,0,0
103329,-111.111111111111,4,1,0,45,0,0
103661,-100,4,1,0,50,0,0
103716,-100,4,1,0,40,0,0
103720,387.096774193548,4,1,0,45,1,0
109087,-100,4,1,0,70,0,0
109854,-90.9090909090909,4,1,0,80,0,0
109913,-90.9090909090909,4,1,0,80,0,1
121715,-90.90909,4,1,0,80,0,1
121812,-92.310135,4,1,0,80,0,1
121909,-93.755035,4,1,0,80,0,1
122102,-96.76883,4,1,0,80,0,1
122199,-98.35788,4,1,0,80,0,1
122300,-100,4,1,0,80,0,0
122393,-100,4,1,0,70,0,0
125338,-90.9090909090909,4,1,0,80,0,0
125397,-90.9090909090909,4,1,0,80,0,1
128439,-100,4,1,0,50,0,1
128494,-100,4,1,0,50,0,0

[HitObjects]
256,192,1527,5,2,0:0:0:0:
256,192,1720,1,0,0:0:0:0:
256,192,1817,1,0,0:0:0:0:
256,192,1914,1,2,0:0:0:0:
256,192,2107,1,0,0:0:0:0:
256,192,2301,1,2,0:0:0:0:
256,192,2397,1,2,0:0:0:0:
256,192,2494,1,0,0:0:0:0:
256,192,2688,1,0,0:0:0:0:
256,192,2881,1,0,0:0:0:0:
256,192,2978,1,0,0:0:0:0:
256,192,3075,1,2,0:0:0:0:
256,192,3268,1,2,0:0:0:0:
256,192,3365,1,0,0:0:0:0:
256,192,3462,1,2,0:0:0:0:
256,192,3656,1,0,0:0:0:0:
256,192,3849,1,2,0:0:0:0:
256,192,4236,1,0,0:0:0:0:
256,192,4623,1,2,0:0:0:0:
256,192,4817,1,2,0:0:0:0:
256,192,4914,1,2,0:0:0:0:
256,192,5010,1,0,0:0:0:0:
256,192,5204,1,2,0:0:0:0:
256,192,5494,1,0,0:0:0:0:
256,192,5591,1,2,0:0:0:0:
256,192,5785,1,2,0:0:0:0:
256,192,5881,1,2,0:0:0:0:
256,192,5978,1,0,0:0:0:0:
256,192,6075,1,0,0:0:0:0:
256,192,6172,1,2,0:0:0:0:
256,192,6462,1,2,0:0:0:0:
256,192,6559,1,0,0:0:0:0:
256,192,6752,1,0,0:0:0:0:
256,192,7139,1,2,0:0:0:0:
256,192,7333,1,2,0:0:0:0:
256,192,7526,1,0,0:0:0:0:
256,192,7720,1,2,0:0:0:0:
256,192,7817,1,0,0:0:0:0:
256,192,7914,1,2,0:0:0:0:
256,192,8010,1,0,0:0:0:0:
256,192,8107,1,2,0:0:0:0:
256,192,8301,1,2,0:0:0:0:
256,192,8494,1,2,0:0:0:0:
256,192,8591,1,2,0:0:0:0:
256,192,8688,1,0,0:0:0:0:
256,192,8881,1,2,0:0:0:0:
256,192,9075,1,0,0:0:0:0:
256,192,9268,1,2,0:0:0:0:
256,192,9365,1,0,0:0:0:0:
256,192,9462,1,0,0:0:0:0:
256,192,9656,1,2,0:0:0:0:
256,192,9849,1,0,0:0:0:0:
256,192,10043,1,2,0:0:0:0:
256,192,10623,1,2,0:0:0:0:
256,192,10720,1,2,0:0:0:0:
256,192,10817,1,0,0:0:0:0:
256,192,11010,1,2,0:0:0:0:
256,192,11107,1,0,0:0:0:0:
256,192,11204,1,2,0:0:0:0:
256,192,11397,1,0,0:0:0:0:
256,192,11591,1,2,0:0:0:0:
256,192,11688,1,0,0:0:0:0:
256,192,11785,1,0,0:0:0:0:
256,192,11978,1,2,0:0:0:0:
256,192,12172,1,0,0:0:0:0:
256,192,12268,1,0,0:0:0:0:
256,192,12365,1,2,0:0:0:0:
256,192,12559,1,2,0:0:0:0:
256,192,12656,1,0,0:0:0:0:
256,192,12752,1,2,0:0:0:0:
256,192,12946,1,2,0:0:0:0:
256,192,13043,1,2,0:0:0:0:
256,192,13139,1,0,0:0:0:0:
256,192,13526,1,2,0:0:0:0:
256,192,13914,1,0,0:0:0:0:
256,192,14010,1,2,0:0:0:0:
256,192,14107,1,0,0:0:0:0:
256,192,14204,1,2,0:0:0:0:
256,192,14301,1,0,0:0:0:0:
256,192,14494,1,2,0:0:0:0:
256,192,14688,1,2,0:0:0:0:
256,192,14881,1,0,0:0:0:0:
256,192,15075,1,2,0:0:0:0:
256,192,15172,1,2,0:0:0:0:
256,192,15268,1,0,0:0:0:0:
256,192,15365,1,0,0:0:0:0:
256,192,15462,1,2,0:0:0:0:
256,192,15656,1,2,0:0:0:0:
256,192,15849,1,2,0:0:0:0:
256,192,16043,1,0,0:0:0:0:
256,192,16139,1,0,0:0:0:0:
256,192,16236,1,2,0:0:0:0:
256,192,16430,1,2,0:0:0:0:
256,192,16623,1,0,0:0:0:0:
256,192,16817,1,0,0:0:0:0:
256,192,17010,1,2,0:0:0:0:
256,192,17204,1,2,0:0:0:0:
256,192,17301,1,2,0:0:0:0:
256,192,17397,1,0,0:0:0:0:
256,192,17591,1,0,0:0:0:0:
256,192,17688,1,0,0:0:0:0:
256,192,17785,1,2,0:0:0:0:
256,192,17978,1,2,0:0:0:0:
256,192,18075,1,2,0:0:0:0:
256,192,18172,1,0,0:0:0:0:
256,192,18365,1,2,0:0:0:0:
256,192,18559,1,0,0:0:0:0:
256,192,18946,1,2,0:0:0:0:
256,192,19139,1,2,0:0:0:0:
256,192,19236,1,2,0:0:0:0:
256,192,19333,1,0,0:0:0:0:
256,192,19526,1,0,0:0:0:0:
256,192,19720,1,2,0:0:0:0:
256,192,20107,1,2,0:0:0:0:
256,192,20301,1,2,0:0:0:0:
256,192,20397,1,2,0:0:0:0:
256,192,20494,1,0,0:0:0:0:
256,192,20688,1,2,0:0:0:0:
256,192,20881,1,0,0:0:0:0:
256,192,21075,1,2,0:0:0:0:
256,192,21172,1,0,0:0:0:0:
256,192,21268,1,2,0:0:0:0:
256,192,21462,1,2,0:0:0:0:
256,192,21656,1,0,0:0:0:0:
256,192,21849,1,2,0:0:0:0:
256,192,21946,1,0,0:0:0:0:
256,192,22043,1,0,0:0:0:0:
256,192,22236,1,2,0:0:0:0:
256,192,22430,1,0,0:0:0:0:
256,192,22623,1,0,0:0:0:0:
256,192,22817,1,2,0:0:0:0:
256,192,23204,1,2,0:0:0:0:
256,192,23397,1,2,0:0:0:0:
256,192,23494,1,0,0:0:0:0:
256,192,23591,1,2,0:0:0:0:
256,192,23785,1,0,0:0:0:0:
256,192,23978,1,2,0:0:0:0:
256,192,24172,1,2,0:0:0:0:
256,192,24268,1,2,0:0:0:0:
256,192,24365,1,0,0:0:0:0:
256,192,24559,1,0,0:0:0:0:
256,192,24752,1,2,0:0:0:0:
256,192,24946,1,0,0:0:0:0:
256,192,25043,1,0,0:0:0:0:
256,192,25139,1,2,0:0:0:0:
256,192,25333,1,0,0:0:0:0:
256,192,25526,1,2,0:0:0:0:
256,192,25914,1,2,0:0:0:0:
256,192,26301,1,0,0:0:0:0:
256,192,26494,1,0,0:0:0:0:
256,192,26591,1,0,0:0:0:0:
256,192,26688,1,2,0:0:0:0:
256,192,26881,1,0,0:0:0:0:
256,192,27075,1,2,0:0:0:0:
256,192,27268,1,2,0:0:0:0:
256,192,27365,1,2,0:0:0:0:
256,192,27462,1,0,0:0:0:0:
256,192,27656,1,2,0:0:0:0:
256,192,27849,1,0,0:0:0:0:
256,192,28043,1,2,0:0:0:0:
256,192,28139,1,0,0:0:0:0:
256,192,28236,1,2,0:0:0:0:
256,192,28430,1,0,0:0:0:0:
256,192,28623,1,2,0:0:0:0:
256,192,28817,1,0,0:0:0:0:
256,192,29010,1,2,0:0:0:0:
256,192,29397,1,0,0:0:0:0:
256,192,29591,1,2,0:0:0:0:
256,192,29688,1,2,0:0:0:0:
256,192,29785,1,0,0:0:0:0:
256,192,29978,1,0,0:0:0:0:
256,192,30172,1,2,0:0:0:0:
256,192,30365,1,0,0:0:0:0:
256,192,30462,1,2,0:0:0:0:
256,192,30559,1,2,0:0:0:0:
256,192,30752,1,2,0:0:0:0:
256,192,30946,1,0,0:0:0:0:
256,192,31139,1,2,0:0:0:0:
256,192,31236,1,0,0:0:0:0:
256,192,31333,1,2,0:0:0:0:
256,192,31526,1,2,0:0:0:0:
256,192,31720,1,0,0:0:0:0:
256,192,31914,1,2,0:0:0:0:
256,192,32010,1,2,0:0:0:0:
256,192,32107,1,0,0:0:0:0:
256,192,32494,1,2,0:0:0:0:
256,192,32688,1,0,0:0:0:0:
256,192,32881,1,0,0:0:0:0:
256,192,33075,1,2,0:0:0:0:
256,192,33268,1,0,0:0:0:0:
256,192,33462,1,0,0:0:0:0:
256,192,33656,1,2,0:0:0:0:
256,192,34043,1,0,0:0:0:0:
256,192,34236,1,2,0:0:0:0:
256,192,34430,1,2,0:0:0:0:
256,192,34623,1,2,0:0:0:0:
256,192,34720,1,2,0:0:0:0:
256,192,34817,1,0,0:0:0:0:
256,192,35204,1,2,0:0:0:0:
256,192,35591,1,2,0:0:0:0:
256,192,35785,1,2,0:0:0:0:
256,192,35978,1,0,0:0:0:0:
256,192,36172,1,2,0:0:0:0:
256,192,36559,1,0,0:0:0:0:
256,192,36752,1,2,0:0:0:0:
256,192,36946,1,0,0:0:0:0:
256,192,37139,1,2,0:0:0:0:
256,192,37526,1,0,0:0:0:0:
256,192,37720,1,2,0:0:0:0:
256,192,38301,1,2,0:0:0:0:
256,192,38494,1,0,0:0:0:0:
256,192,38688,1,2,0:0:0:0:
256,192,38881,1,0,0:0:0:0:
256,192,39075,1,0,0:0:0:0:
256,192,39268,1,2,0:0:0:0:
256,192,39462,1,0,0:0:0:0:
256,192,39656,1,0,0:0:0:0:
256,192,39849,1,2,0:0:0:0:
256,192,40236,1,0,0:0:0:0:
256,192,40430,1,2,0:0:0:0:
256,192,40623,1,2,0:0:0:0:
256,192,41010,1,2,0:0:0:0:
256,192,41204,1,0,0:0:0:0:
256,192,41397,1,2,0:0:0:0:
256,192,41785,1,2,0:0:0:0:
256,192,41978,1,2,0:0:0:0:
256,192,42172,1,0,0:0:0:0:
256,192,42365,1,8,0:0:0:0:
256,192,42559,1,0,0:0:0:0:
256,192,42656,1,2,0:0:0:0:
256,192,42752,1,2,0:0:0:0:
256,192,42946,1,2,0:0:0:0:
256,192,43333,1,0,0:0:0:0:
256,192,43720,1,2,0:0:0:0:
256,192,43914,1,0,0:0:0:0:
256,192,44301,1,2,0:0:0:0:
256,192,44494,1,0,0:0:0:0:
256,192,44688,1,2,0:0:0:0:
256,192,44881,1,0,0:0:0:0:
256,192,45075,1,0,0:0:0:0:
256,192,45172,1,0,0:0:0:0:
256,192,45268,1,2,0:0:0:0:
256,192,45365,1,0,0:0:0:0:
256,192,45462,1,2,0:0:0:0:
256,192,45656,1,2,0:0:0:0:
256,192,45752,1,2,0:0:0:0:
256,192,45849,1,0,0:0:0:0:
256,192,46043,1,6,0:0:0:0:
256,192,46430,1,6,0:0:0:0:
256,192,46623,1,2,0:0:0:0:
256,192,46720,1,2,0:0:0:0:
256,192,46817,1,0,0:0:0:0:
256,192,47010,1,2,0:0:0:0:
256,192,47204,1,2,0:0:0:0:
256,192,47300,1,0,0:0:0:0:
256,192,47397,1,2,0:0:0:0:
256,192,47591,1,2,0:0:0:0:
256,192,47688,1,2,0:0:0:0:
256,192,47784,1,0,0:0:0:0:
256,192,47881,1,0,0:0:0:0:
256,192,47978,1,2,0:0:0:0:
256,192,48171,1,0,0:0:0:0:
56,133,48365,1,8,0:0:0:0:
256,192,48559,1,2,0:0:0:0:
256,192,48752,1,2,0:0:0:0:
256,192,48849,1,0,0:0:0:0:
256,192,48946,1,0,0:0:0:0:
256,192,49139,1,2,0:0:0:0:
256,192,49526,1,2,0:0:0:0:
256,192,49720,1,2,0:0:0:0:
256,192,49817,1,2,0:0:0:0:
256,192,49913,1,0,0:0:0:0:
256,192,50010,1,0,0:0:0:0:
256,192,50107,1,2,0:0:0:0:
256,192,50300,1,2,0:0:0:0:
256,192,50397,1,0,0:0:0:0:
256,192,50494,1,2,0:0:0:0:
256,192,50591,1,0,0:0:0:0:
256,192,50688,1,2,0:0:0:0:
256,192,50881,1,2,0:0:0:0:
256,192,51075,1,0,0:0:0:0:
256,192,51171,1,0,0:0:0:0:
256,192,51268,1,2,0:0:0:0:
165,128,51462,1,0,0:0:0:0:
256,192,51655,1,2,0:0:0:0:
256,192,51849,1,2,0:0:0:0:
256,192,52042,1,2,0:0:0:0:
256,192,52139,1,0,0:0:0:0:
256,192,52236,1,2,0:0:0:0:
256,192,52623,1,2,0:0:0:0:
256,192,52817,1,2,0:0:0:0:
256,192,52913,1,2,0:0:0:0:
256,192,53010,1,0,0:0:0:0:
256,192,53107,1,0,0:0:0:0:
256,192,53204,1,2,0:0:0:0:
256,192,53397,1,2,0:0:0:0:
256,192,53591,1,0,0:0:0:0:
256,192,53784,1,2,0:0:0:0:
256,192,53881,1,2,0:0:0:0:
256,192,53978,1,0,0:0:0:0:
256,192,54171,1,2,0:0:0:0:
256,192,54268,1,0,0:0:0:0:
256,192,54365,1,2,0:0:0:0:
256,192,54462,1,2,0:0:0:0:
256,192,54559,1,0,0:0:0:0:
256,192,54752,1,2,0:0:0:0:
256,192,54946,1,0,0:0:0:0:
256,192,55042,1,0,0:0:0:0:
256,192,55139,1,2,0:0:0:0:
256,192,55333,1,2,0:0:0:0:
256,192,55720,1,2,0:0:0:0:
256,192,55913,1,2,0:0:0:0:
256,192,56010,1,2,0:0:0:0:
256,192,56107,1,0,0:0:0:0:
256,192,56300,1,2,0:0:0:0:
256,192,56494,1,2,0:0:0:0:
256,192,56591,1,0,0:0:0:0:
256,192,56688,1,2,0:0:0:0:
256,192,56881,1,2,0:0:0:0:
256,192,56978,1,2,0:0:0:0:
256,192,57075,1,0,0:0:0:0:
256,192,57171,1,0,0:0:0:0:
256,192,57268,1,2,0:0:0:0:
256,192,57462,1,0,0:0:0:0:
256,192,57559,1,2,0:0:0:0:
256,192,57655,1,2,0:0:0:0:
256,192,57752,1,0,0:0:0:0:
256,192,57849,1,2,0:0:0:0:
256,192,58042,1,2,0:0:0:0:
256,192,58139,1,0,0:0:0:0:
256,192,58236,1,0,0:0:0:0:
256,192,58429,1,2,0:0:0:0:
256,192,58817,1,2,0:0:0:0:
73,139,59010,1,0,0:0:0:0:
73,139,59107,1,0,0:0:0:0:
73,139,59204,1,8,0:0:0:0:
256,192,59397,1,0,0:0:0:0:
112,133,59591,1,8,0:0:0:0:
112,133,59688,1,8,0:0:0:0:
112,133,59784,1,0,0:0:0:0:
256,192,59978,1,2,0:0:0:0:
256,192,60559,1,0,0:0:0:0:
256,192,60752,1,2,0:0:0:0:
256,192,60946,1,2,0:0:0:0:
256,192,61139,1,0,0:0:0:0:
256,192,61526,1,0,0:0:0:0:
112,133,61623,1,0,0:0:0:0:
112,133,61720,1,0,0:0:0:0:
256,192,61913,1,2,0:0:0:0:
256,192,62107,1,2,0:0:0:0:
256,192,62300,1,0,0:0:0:0:
256,192,62494,1,0,0:0:0:0:
68,140,62784,1,0,0:0:0:0:
256,192,62881,1,2,0:0:0:0:
256,192,63075,1,2,0:0:0:0:
256,192,63171,1,2,0:0:0:0:
256,192,63268,1,0,0:0:0:0:
256,192,63462,1,0,0:0:0:0:
256,192,63655,1,2,0:0:0:0:
256,192,63752,1,2,0:0:0:0:
256,192,63849,1,0,0:0:0:0:
256,192,64042,1,2,0:0:0:0:
256,192,64429,1,2,0:0:0:0:
256,192,64623,1,0,0:0:0:0:
256,192,65010,1,2,0:0:0:0:
256,192,65397,1,2,0:0:0:0:
256,192,65494,1,0,0:0:0:0:
256,192,65591,1,2,0:0:0:0:
256,192,65784,1,0,0:0:0:0:
256,192,65978,1,2,0:0:0:0:
256,192,66171,1,0,0:0:0:0:
256,192,66365,1,2,0:0:0:0:
256,192,66462,1,2,0:0:0:0:
256,192,66559,1,0,0:0:0:0:
256,192,66946,1,2,0:0:0:0:
256,192,67042,1,0,0:0:0:0:
256,192,67139,1,2,0:0:0:0:
256,192,67236,1,2,0:0:0:0:
256,192,67333,1,0,0:0:0:0:
256,192,67720,1,2,0:0:0:0:
256,192,67817,1,0,0:0:0:0:
256,192,67913,1,2,0:0:0:0:
256,192,68107,1,0,0:0:0:0:
256,192,68397,1,0,0:0:0:0:
256,192,68494,1,2,0:0:0:0:
256,192,68688,1,2,0:0:0:0:
256,192,68881,1,0,0:0:0:0:
256,192,68978,1,0,0:0:0:0:
256,192,69075,1,2,0:0:0:0:
256,192,69268,1,2,0:0:0:0:
256,192,69462,1,0,0:0:0:0:
256,192,69655,1,2,0:0:0:0:
256,192,69849,1,2,0:0:0:0:
256,192,69946,1,2,0:0:0:0:
256,192,70042,1,0,0:0:0:0:
256,192,70236,1,0,0:0:0:0:
256,192,70429,1,2,0:0:0:0:
256,192,70817,1,0,0:0:0:0:
256,192,71204,1,2,0:0:0:0:
256,192,71300,1,2,0:0:0:0:
256,192,71397,1,0,0:0:0:0:
256,192,71494,1,0,0:0:0:0:
256,192,71591,1,2,0:0:0:0:
256,192,71784,1,0,0:0:0:0:
256,192,71978,1,2,0:0:0:0:
256,192,72075,1,0,0:0:0:0:
256,192,72171,1,2,0:0:0:0:
256,192,72365,1,2,0:0:0:0:
256,192,72559,1,0,0:0:0:0:
256,192,72752,1,2,0:0:0:0:
256,192,72946,1,2,0:0:0:0:
256,192,73042,1,2,0:0:0:0:
256,192,73139,1,0,0:0:0:0:
256,192,73236,1,2,0:0:0:0:
256,192,73333,1,0,0:0:0:0:
256,192,73526,1,2,0:0:0:0:
256,192,73913,1,0,0:0:0:0:
256,192,74300,1,2,0:0:0:0:
256,192,74494,1,2,0:0:0:0:
256,192,74688,1,2,0:0:0:0:
256,192,74784,1,2,0:0:0:0:
256,192,74881,1,0,0:0:0:0:
256,192,74978,1,0,0:0:0:0:
256,192,75075,1,2,0:0:0:0:
256,192,75268,1,2,0:0:0:0:
256,192,75365,1,2,0:0:0:0:
256,192,75462,1,0,0:0:0:0:
256,192,75655,1,2,0:0:0:0:
256,192,75849,1,0,0:0:0:0:
256,192,76236,1,2,0:0:0:0:
256,192,76429,1,2,0:0:0:0:
256,192,76526,1,0,0:0:0:0:
256,192,76623,1,2,0:0:0:0:
256,192,76817,1,0,0:0:0:0:
256,192,77010,1,2,0:0:0:0:
256,192,77397,1,4,0:0:0:0:
256,192,77591,1,0,0:0:0:0:
256,192,77688,1,0,0:0:0:0:
256,192,77784,1,2,0:0:0:0:
256,192,77978,1,0,0:0:0:0:
256,192,78171,1,2,0:0:0:0:
256,192,78365,1,2,0:0:0:0:
256,192,78462,1,2,0:0:0:0:
256,192,78559,1,0,0:0:0:0:
256,192,78752,1,2,0:0:0:0:
256,192,78946,1,0,0:0:0:0:
256,192,79139,1,0,0:0:0:0:
256,192,79236,1,0,0:0:0:0:
256,192,79333,1,2,0:0:0:0:
256,192,79526,1,2,0:0:0:0:
256,192,79720,1,2,0:0:0:0:
256,192,79817,1,2,0:0:0:0:
256,192,79913,1,0,0:0:0:0:
256,192,80107,1,2,0:0:0:0:
256,192,80494,1,2,0:0:0:0:
256,192,80688,1,0,0:0:0:0:
256,192,80784,1,0,0:0:0:0:
256,192,80881,1,2,0:0:0:0:
256,192,81075,1,2,0:0:0:0:
256,192,81268,1,2,0:0:0:0:
256,192,81462,1,2,0:0:0:0:
256,192,81559,1,2,0:0:0:0:
256,192,81655,1,0,0:0:0:0:
256,192,81849,1,2,0:0:0:0:
256,192,82042,1,0,0:0:0:0:
256,192,82236,1,2,0:0:0:0:
256,192,82333,1,2,0:0:0:0:
256,192,82429,1,0,0:0:0:0:
256,192,82623,1,2,0:0:0:0:
256,192,82817,1,2,0:0:0:0:
256,192,83010,1,0,0:0:0:0:
256,192,83107,1,0,0:0:0:0:
256,192,83204,1,2,0:0:0:0:
256,192,83591,1,0,0:0:0:0:
256,192,83784,1,0,0:0:0:0:
256,192,83881,1,0,0:0:0:0:
256,192,83978,1,2,0:0:0:0:
256,192,84171,1,0,0:0:0:0:
256,192,84365,1,2,0:0:0:0:
256,192,84559,1,2,0:0:0:0:
256,192,84655,1,2,0:0:0:0:
256,192,84752,1,0,0:0:0:0:
256,192,84946,1,2,0:0:0:0:
256,192,85139,1,0,0:0:0:0:
256,192,85333,1,2,0:0:0:0:
256,192,85429,1,0,0:0:0:0:
256,192,85526,1,2,0:0:0:0:
256,192,85720,1,0,0:0:0:0:
256,192,85913,1,2,0:0:0:0:
256,192,86010,1,2,0:0:0:0:
256,192,86107,1,0,0:0:0:0:
256,192,86300,1,2,0:0:0:0:
256,192,86688,1,2,0:0:0:0:
256,192,86881,1,2,0:0:0:0:
256,192,86978,1,2,0:0:0:0:
256,192,87075,1,0,0:0:0:0:
256,192,87268,1,0,0:0:0:0:
256,192,87462,1,2,0:0:0:0:
256,192,87655,1,0,0:0:0:0:
256,192,87752,1,0,0:0:0:0:
256,192,87849,1,2,0:0:0:0:
256,192,88042,1,2,0:0:0:0:
256,192,88236,1,0,0:0:0:0:
256,192,88429,1,0,0:0:0:0:
256,192,88526,1,2,0:0:0:0:
256,192,88623,1,2,0:0:0:0:
256,192,88817,1,2,0:0:0:0:
256,192,88913,1,0,0:0:0:0:
256,192,89010,1,2,0:0:0:0:
256,192,89204,1,2,0:0:0:0:
256,192,89300,1,2,0:0:0:0:
256,192,89397,1,0,0:0:0:0:
256,192,89784,1,6,0:0:0:0:
256,192,90171,1,0,0:0:0:0:
256,192,90365,1,2,0:0:0:0:
256,192,90559,1,0,0:0:0:0:
256,192,90946,1,2,0:0:0:0:
256,192,91333,1,0,0:0:0:0:
256,192,91526,1,2,0:0:0:0:
256,192,91720,1,0,0:0:0:0:
26,163,91913,1,0,0:0:0:0:
256,192,92107,1,2,0:0:0:0:
256,192,92494,1,2,0:0:0:0:
256,192,92688,1,2,0:0:0:0:
256,192,92881,1,0,0:0:0:0:
256,192,93268,1,2,0:0:0:0:
256,192,93462,1,0,0:0:0:0:
256,192,93849,1,0,0:0:0:0:
256,192,94042,1,0,0:0:0:0:
256,192,94429,1,0,0:0:0:0:
256,192,94623,1,2,0:0:0:0:
256,192,94817,1,0,0:0:0:0:
256,192,95010,1,2,0:0:0:0:
256,192,95204,1,2,0:0:0:0:
256,192,95300,1,0,0:0:0:0:
256,192,95397,1,2,0:0:0:0:
256,192,95591,1,2,0:0:0:0:
256,192,95784,1,2,0:0:0:0:
256,192,95881,1,2,0:0:0:0:
256,192,95978,1,0,0:0:0:0:
256,192,96171,1,0,0:0:0:0:
256,192,96365,1,0,0:0:0:0:
256,192,96559,1,2,0:0:0:0:
256,192,96946,1,0,0:0:0:0:
256,192,97139,1,2,0:0:0:0:
256,192,97526,1,0,0:0:0:0:
256,192,97720,1,2,0:0:0:0:
256,192,97913,1,0,0:0:0:0:
256,192,98107,1,0,0:0:0:0:
256,192,98300,1,2,0:0:0:0:
256,192,98688,1,2,0:0:0:0:
256,192,98881,1,2,0:0:0:0:
256,192,99075,1,0,0:0:0:0:
256,192,99462,1,2,0:0:0:0:
256,192,99655,1,0,0:0:0:0:
256,192,100042,1,2,0:0:0:0:
256,192,100236,1,2,0:0:0:0:
256,192,100429,1,0,0:0:0:0:
256,192,100623,1,2,0:0:0:0:
256,192,100720,1,2,0:0:0:0:
256,192,100817,1,0,0:0:0:0:
256,192,101010,1,2,0:0:0:0:
256,192,101204,1,0,0:0:0:0:
256,192,101300,1,2,0:0:0:0:
256,192,101397,1,2,0:0:0:0:
256,192,101591,1,0,0:0:0:0:
256,192,101688,1,0,0:0:0:0:
256,192,101784,1,2,0:0:0:0:
256,192,101881,1,0,0:0:0:0:
256,192,101978,1,2,0:0:0:0:
256,192,102171,1,4,0:0:0:0:
256,192,102946,1,2,0:0:0:0:
256,192,103333,1,0,0:0:0:0:
256,192,103720,1,2,0:0:0:0:
256,192,103913,1,0,0:0:0:0:
256,192,104010,1,0,0:0:0:0:
256,192,104107,1,2,0:0:0:0:
256,192,104203,1,0,0:0:0:0:
256,192,104300,1,2,0:0:0:0:
256,192,104494,1,0,0:0:0:0:
256,192,104687,1,2,0:0:0:0:
256,192,104881,1,0,0:0:0:0:
256,192,105268,1,2,0:0:0:0:
256,192,105365,1,2,0:0:0:0:
256,192,105461,1,0,0:0:0:0:
256,192,105655,1,2,0:0:0:0:
256,192,105752,1,0,0:0:0:0:
256,192,105849,1,2,0:0:0:0:
256,192,106042,1,2,0:0:0:0:
256,192,106236,1,0,0:0:0:0:
256,192,106429,1,2,0:0:0:0:
256,192,106816,1,0,0:0:0:0:
256,192,107010,1,2,0:0:0:0:
256,192,107107,1,2,0:0:0:0:
256,192,107203,1,0,0:0:0:0:
256,192,107300,1,0,0:0:0:0:
256,192,107397,1,2,0:0:0:0:
256,192,107590,1,2,0:0:0:0:
256,192,107687,1,2,0:0:0:0:
256,192,107784,1,0,0:0:0:0:
256,192,107978,1,0,0:0:0:0:
256,192,108365,1,2,0:0:0:0:
256,192,108461,1,0,0:0:0:0:
256,192,108558,1,2,0:0:0:0:
256,192,108752,1,0,0:0:0:0:
256,192,108945,1,0,0:0:0:0:
256,192,109042,1,0,0:0:0:0:
256,192,109139,1,2,0:0:0:0:
256,192,109332,1,2,0:0:0:0:
256,192,109429,1,0,0:0:0:0:
256,192,109526,1,2,0:0:0:0:
256,192,109720,1,2,0:0:0:0:
256,192,109913,1,4,0:0:0:0:
256,192,110300,1,2,0:0:0:0:
256,192,110397,1,2,0:0:0:0:
256,192,110494,1,2,0:0:0:0:
256,192,110687,1,2,0:0:0:0:
256,192,110784,1,2,0:0:0:0:
256,192,110881,1,0,0:0:0:0:
256,192,111074,1,2,0:0:0:0:
256,192,111268,1,0,0:0:0:0:
256,192,111461,1,2,0:0:0:0:
256,192,111655,1,2,0:0:0:0:
256,192,111752,1,0,0:0:0:0:
256,192,111945,1,0,0:0:0:0:
256,192,112042,1,2,0:0:0:0:
256,192,112236,1,2,0:0:0:0:
256,192,112332,1,2,0:0:0:0:
256,192,112526,1,0,0:0:0:0:
256,192,112623,1,2,0:0:0:0:
256,192,112816,1,2,0:0:0:0:
256,192,113010,1,4,0:0:0:0:
256,192,113397,1,2,0:0:0:0:
256,192,113494,1,2,0:0:0:0:
256,192,113590,1,0,0:0:0:0:
256,192,113784,1,2,0:0:0:0:
256,192,113978,1,0,0:0:0:0:
256,192,114074,1,2,0:0:0:0:
256,192,114268,1,2,0:0:0:0:
256,192,114365,1,0,0:0:0:0:
256,192,114558,1,2,0:0:0:0:
256,192,114655,1,2,0:0:0:0:
256,192,114849,1,2,0:0:0:0:
256,192,114945,1,0,0:0:0:0:
256,192,115139,1,0,0:0:0:0:
256,192,115332,1,2,0:0:0:0:
256,192,115429,1,2,0:0:0:0:
256,192,115526,1,0,0:0:0:0:
256,192,115719,1,0,0:0:0:0:
256,192,116107,1,2,0:0:0:0:
256,192,116203,1,2,0:0:0:0:
256,192,116300,1,2,0:0:0:0:
256,192,116494,1,2,0:0:0:0:
256,192,116590,1,0,0:0:0:0:
256,192,116687,1,2,0:0:0:0:
256,192,116784,1,0,0:0:0:0:
256,192,116881,1,2,0:0:0:0:
256,192,117074,1,2,0:0:0:0:
256,192,117268,1,0,0:0:0:0:
256,192,117461,1,2,0:0:0:0:
256,192,117655,1,0,0:0:0:0:
256,192,117849,1,2,0:0:0:0:
256,192,117945,1,2,0:0:0:0:
256,192,118042,1,0,0:0:0:0:
256,192,118236,1,2,0:0:0:0:
256,192,118332,1,0,0:0:0:0:
256,192,118429,1,2,0:0:0:0:
256,192,118623,1,0,0:0:0:0:
256,192,118816,1,2,0:0:0:0:
256,192,118913,1,2,0:0:0:0:
256,192,119010,1,0,0:0:0:0:
256,192,119107,1,0,0:0:0:0:
256,192,119203,1,2,0:0:0:0:
256,192,119590,1,2,0:0:0:0:
256,192,119784,1,2,0:0:0:0:
256,192,119978,1,0,0:0:0:0:
256,192,120074,1,0,0:0:0:0:
256,192,120171,1,2,0:0:0:0:
256,192,120365,1,2,0:0:0:0:
256,192,120461,1,0,0:0:0:0:
256,192,120558,1,2,0:0:0:0:
256,192,120752,1,2,0:0:0:0:
256,192,120945,1,0,0:0:0:0:
256,192,121139,1,0,0:0:0:0:
256,192,121236,1,2,0:0:0:0:
256,192,121332,1,2,0:0:0:0:
256,192,121526,1,2,0:0:0:0:
256,192,121719,1,2,0:0:0:0:
256,192,121816,1,0,0:0:0:0:
256,192,121913,1,2,0:0:0:0:
256,192,122107,1,0,0:0:0:0:
256,192,122203,1,0,0:0:0:0:
256,192,122300,1,2,0:0:0:0:
256,192,122687,1,0,0:0:0:0:
256,192,122881,1,2,0:0:0:0:
256,192,123074,1,2,0:0:0:0:
256,192,123461,1,2,0:0:0:0:
256,192,123655,1,0,0:0:0:0:
256,192,123849,1,2,0:0:0:0:
256,192,124042,1,2,0:0:0:0:
256,192,124139,1,2,0:0:0:0:
256,192,124236,1,0,0:0:0:0:
256,192,124429,1,2,0:0:0:0:
256,192,124623,1,0,0:0:0:0:
256,192,124719,1,0,0:0:0:0:
256,192,124816,1,2,0:0:0:0:
256,192,125010,1,2,0:0:0:0:
256,192,125397,1,0,0:0:0:0:
256,192,125590,1,2,0:0:0:0:
256,192,125687,1,2,0:0:0:0:
256,192,125784,1,0,0:0:0:0:
256,192,125881,1,0,0:0:0:0:
256,192,125978,1,2,0:0:0:0:
256,192,126171,1,2,0:0:0:0:
256,192,126268,1,2,0:0:0:0:
256,192,126365,1,0,0:0:0:0:
256,192,126558,1,2,0:0:0:0:
256,192,126752,1,0,0:0:0:0:
256,192,126945,1,0,0:0:0:0:
256,192,127042,1,0,0:0:0:0:
256,192,127139,1,2,0:0:0:0:
256,192,127236,1,2,0:0:0:0:
256,192,127332,1,0,0:0:0:0:
256,192,127526,1,2,0:0:0:0:
256,192,127719,1,0,0:0:0:0:
256,192,127913,1,0,0:0:0:0:
256,192,128107,1,2,0:0:0:0:
256,192,128494,1,2,0:0:0:0:
256,192,129074,1,0,0:0:0:0:
256,192,129268,1,2,0:0:0:0:
256,192,129655,1,0,0:0:0:0:
256,192,130042,1,0,0:0:0:0:
256,192,130236,1,2,0:0:0:0:
256,192,130429,1,2,0:0:0:0:
256,192,130623,1,0,0:0:0:0:
256,192,130816,1,2,0:0:0:0:
256,192,131203,1,0,0:0:0:0:
256,192,131397,1,0,0:0:0:0:
256,192,131494,1,0,0:0:0:0:
256,192,131590,1,2,0:0:0:0:
256,192,131784,1,0,0:0:0:0:
256,192,131978,1,2,0:0:0:0:
256,192,132171,1,0,0:0:0:0:
256,192,132365,1,2,0:0:0:0:
256,192,132461,1,0,0:0:0:0:
256,192,132558,1,2,0:0:0:0:
256,192,132752,1,2,0:0:0:0:
256,192,132849,1,2,0:0:0:0:
256,192,132945,1,0,0:0:0:0:
256,192,133139,1,2,0:0:0:0:
256,192,133332,1,0,0:0:0:0:
256,192,133429,1,0,0:0:0:0:
256,192,133526,1,2,0:0:0:0:
256,192,133719,1,2,0:0:0:0:
256,192,134107,1,0,0:0:0:0:
256,192,134203,1,0,0:0:0:0:
256,192,134300,1,2,0:0:0:0:
