osu file format v14

[General]
AudioFilename: audio.mp3
AudioLeadIn: 0
PreviewTime: 46381
Countdown: 0
SampleSet: Normal
StackLeniency: 0.7
Mode: 1
LetterboxInBreaks: 0
WidescreenStoryboard: 0

[Editor]
Bookmarks: 1527,7720,20107,32494,46430,48172,48752,50301,50688,51268,51559,51656,51849,53785,54172,56881,58817,74494,77397,86688,89785,103720,109914,128494
DistanceSpacing: 1
BeatDivisor: 6
GridSize: 32
TimelineZoom: 2.599999

[Metadata]
Title:Felis
TitleUnicode:Felis
Artist:M2U
ArtistUnicode:M2U
Creator:roxorotto
Version:Illusion
Source:Arcaea
Tags:tsukani mapping to pander: taiko #2 m2p#2 m2p axer's pick 4th place video game electronic instrumental ethnic electronica alice tenniel ephemeral page piano
BeatmapID:3800024
BeatmapSetID:1849886

[Difficulty]
HPDrainRate:5
CircleSize:5
OverallDifficulty:6
ApproachRate:5
SliderMultiplier:1.4
SliderTickRate:1

[Events]
//Background and Video events
0,0,"feliss.jpg",0,140
//Break Periods
//Storyboard Layer 0 (Background)
//Storyboard Layer 1 (Fail)
//Storyboard Layer 2 (Pass)
//Storyboard Layer 3 (Foreground)
//Storyboard Layer 4 (Overlay)
//Storyboard Sound Samples

[TimingPoints]
1527,387.096774193548,4,1,0,50,1,0
1527,-111.111111111111,4,1,0,50,0,0
4232,-111.111111111111,4,1,0,50,0,0
4329,-109.585162112417,4,1,0,50,0,0
4426,-108.100558659218,4,1,0,50,0,0
4522,-106.670341786108,4,1,0,50,0,0
4619,-105.263157894737,4,1,0,50,0,0
5781,-105.263157894737,4,1,0,50,0,0
5877,-103.906564639549,4,1,0,50,0,0
5974,-102.570898489266,4,1,0,50,0,0
6071,-101.269135156352,4,1,0,50,0,0
6168,-100,4,1,0,50,0,0
7716,-100,4,1,0,60,0,0
17200,-100,4,1,0,60,0,0
17297,-99.172143040027,4,1,0,60,0,0
17393,-98.366206721409,4,1,0,60,0,0
17490,-97.565071368598,4,1,0,60,0,0
17587,-96.776880153244,4,1,0,60,0,0
17684,-96.001321877065,4,1,0,60,0,0
17781,-95.238095238095,4,1,0,60,0,0
17974,-100,4,1,0,60,0,0
18071,-98.357880480786,4,1,0,60,0,0
18168,-96.768820786143,4,1,0,60,0,0
18264,-95.245901639344,4,1,0,60,0,0
18361,-93.755042762627,4,1,0,60,0,0
18458,-92.310136638068,4,1,0,60,0,0
18555,-90.909090909091,4,1,0,60,0,0
18748,-90.909090909091,4,1,0,60,0,0
18845,-91.744858307269,4,1,0,60,0,0
18942,-92.596135450545,4,1,0,60,0,0
19135,-94.337783841731,4,1,0,60,0,0
19232,-95.238095238095,4,1,0,60,0,0
19329,-96.155756431906,4,1,0,60,0,0
19522,-98.035244075349,4,1,0,60,0,0
19716,-100,4,1,0,60,0,0
19910,-95.238095238095,4,1,0,60,0,0
19974,-96.766106793683,4,1,0,60,0,0
20039,-98.369011213048,4,1,0,60,0,0
20103,-100,4,1,0,60,0,0
20297,-100,4,1,0,60,0,0
20393,-101.002192295647,4,1,0,60,0,0
20490,-102.035435562118,4,1,0,60,0,0
20684,-104.166666666667,4,1,0,60,0,0
20877,-106.377130291369,4,1,0,60,0,0
21071,-108.695652173913,4,1,0,60,0,0
21168,-109.893230349841,4,1,0,60,0,0
21264,-111.10473128158,4,1,0,60,0,0
21458,-113.636363636364,4,1,0,60,0,0
21652,-116.286057692308,4,1,0,60,0,0
21845,-119.047619047619,4,1,0,60,0,0
21942,-120.485678704857,4,1,0,60,0,0
22039,-121.95890583638,4,1,0,60,0,0
22232,-125,4,1,0,60,0,0
22426,-125,4,1,0,60,0,0
22619,-117.6649437519,4,1,0,60,0,0
22813,-111.111111111111,4,1,0,60,0,0
23006,-105.277475516866,4,1,0,60,0,0
23200,-100,4,1,0,60,0,0
23393,-100,4,1,0,60,0,0
23489,-101.002192295647,4,1,0,60,0,0
23586,-102.035435562118,4,1,0,60,0,0
23780,-104.166666666667,4,1,0,60,0,0
23973,-106.377130291369,4,1,0,60,0,0
24167,-108.695652173913,4,1,0,60,0,0
24264,-109.893230349841,4,1,0,60,0,0
24360,-111.10473128158,4,1,0,60,0,0
24554,-113.636363636364,4,1,0,60,0,0
24748,-116.286057692308,4,1,0,60,0,0
24941,-119.047619047619,4,1,0,60,0,0
25038,-120.485678704857,4,1,0,60,0,0
25135,-121.95890583638,4,1,0,60,0,0
25328,-125,4,1,0,60,0,0
25522,-125,4,1,0,60,0,0
25716,-117.638129933212,4,1,0,60,0,0
25813,-114.273075788853,4,1,0,60,0,0
25910,-111.095183486239,4,1,0,60,0,0
26103,-105.270306981798,4,1,0,60,0,0
26297,-100,4,1,0,60,0,0
26490,-100,4,1,0,60,0,0
26586,-101.002192295647,4,1,0,60,0,0
26683,-102.035435562118,4,1,0,60,0,0
26877,-104.166666666667,4,1,0,60,0,0
27070,-106.377130291369,4,1,0,60,0,0
27264,-108.695652173913,4,1,0,60,0,0
27361,-109.893230349841,4,1,0,60,0,0
27457,-111.10473128158,4,1,0,60,0,0
27651,-113.636363636364,4,1,0,60,0,0
27845,-116.286057692308,4,1,0,60,0,0
28038,-119.047619047619,4,1,0,60,0,0
28135,-120.485678704857,4,1,0,60,0,0
28232,-121.95890583638,4,1,0,60,0,0
28425,-125,4,1,0,60,0,0
28619,-125,4,1,0,60,0,0
28812,-117.6649437519,4,1,0,60,0,0
29006,-111.111111111111,4,1,0,60,0,0
29199,-105.277475516866,4,1,0,60,0,0
29393,-100,4,1,0,60,0,0
29587,-100,4,1,0,60,0,0
29683,-101.002192295647,4,1,0,60,0,0
29780,-102.035435562118,4,1,0,60,0,0
29974,-104.166666666667,4,1,0,60,0,0
30167,-106.377130291369,4,1,0,60,0,0
30361,-108.695652173913,4,1,0,60,0,0
30458,-109.893230349841,4,1,0,60,0,0
30554,-111.10473128158,4,1,0,60,0,0
30748,-113.636363636364,4,1,0,60,0,0
30942,-116.286057692308,4,1,0,60,0,0
31135,-119.047619047619,4,1,0,60,0,0
31232,-120.485678704857,4,1,0,60,0,0
31329,-121.95890583638,4,1,0,60,0,0
31522,-125,4,1,0,60,0,0
31910,-100,4,1,0,60,0,0
32490,-125,4,1,0,40,0,0
32684,-124.999519924056,4,1,0,40,0,0
32781,-124.998379758467,4,1,0,40,0,0
32877,-124.996189112946,4,1,0,40,0,0
32974,-124.992545532809,4,1,0,40,0,0
33071,-124.98710593013,4,1,0,40,0,0
33264,-124.969519408424,4,1,0,40,0,0
33361,-124.956567986515,4,1,0,40,0,0
33458,-124.940389147032,4,1,0,40,0,0
33555,-124.920625795739,4,1,0,40,0,0
33652,-124.896921870449,4,1,0,40,0,0
33845,-124.836636002239,4,1,0,40,0,0
33942,-124.799040978669,4,1,0,40,0,0
34039,-124.756099634142,4,1,0,40,0,0
34135,-124.707996257231,4,1,0,40,0,0
34232,-124.653386921941,4,1,0,40,0,0
34426,-124.524699826989,4,1,0,40,0,0
34619,-124.368701880602,4,1,0,40,0,0
34716,-124.27894325831,4,1,0,40,0,0
34813,-124.181158684923,4,1,0,40,0,0
34910,-124.075031586645,4,1,0,40,0,0
35006,-123.961479505991,4,1,0,40,0,0
35103,-123.837834475176,4,1,0,40,0,0
35200,-123.704935762696,4,1,0,40,0,0
35297,-123.562491881915,4,1,0,40,0,0
35393,-123.411839670124,4,1,0,40,0,0
35490,-123.249566666031,4,1,0,40,0,0
35587,-123.076923076923,4,1,0,40,0,0
35781,-122.699496816744,4,1,0,40,0,0
35974,-122.279893545887,4,1,0,40,0,0
36071,-122.051822404942,4,1,0,40,0,0
36168,-121.811976066333,4,1,0,40,0,0
36458,-121.022789659402,4,1,0,40,0,0
36555,-120.734125253767,4,1,0,40,0,0
36748,-120.122063253319,4,1,0,40,0,0
36845,-119.795242967433,4,1,0,40,0,0
36942,-119.455431194624,4,1,0,40,0,0
37039,-119.102536895722,4,1,0,40,0,0
37135,-118.740324824322,4,1,0,40,0,0
37232,-118.361187940691,4,1,0,40,0,0
37329,-117.968784926621,4,1,0,40,0,0
37426,-117.563084690245,4,1,0,40,0,0
37522,-117.14845926202,4,1,0,40,0,0
37716,-116.270784243617,4,1,0,40,0,0
37910,-115.340059720252,4,1,0,40,0,0
38006,-114.859999154597,4,1,0,40,0,0
38103,-114.36192621488,4,1,0,40,0,0
38200,-113.850867452904,4,1,0,40,0,0
38297,-113.326931896623,4,1,0,40,0,0
38490,-112.246669225434,4,1,0,40,0,0
38684,-111.111111111111,4,1,0,40,0,0
38877,-111.109788839597,4,1,0,40,0,0
38974,-111.106625409886,4,1,0,40,0,0
39071,-111.100451407946,4,1,0,40,0,0
39168,-111.090260995627,4,1,0,40,0,0
39264,-111.075235639686,4,1,0,40,0,0
39458,-111.025890716509,4,1,0,40,0,0
39555,-110.989706952767,4,1,0,40,0,0
39652,-110.944529002382,4,1,0,40,0,0
39748,-110.88999842834,4,1,0,40,0,0
39845,-110.824015249114,4,1,0,40,0,0
40039,-110.655402849591,4,1,0,40,0,0
40135,-110.552042126854,4,1,0,40,0,0
40232,-110.432988715359,4,1,0,40,0,0
40329,-110.298349628609,4,1,0,40,0,0
40426,-110.147249900179,4,1,0,40,0,0
40619,-109.794313145268,4,1,0,40,0,0
40813,-109.364090128255,4,1,0,40,0,0
41006,-108.855147910219,4,1,0,40,0,0
41200,-108.256914104749,4,1,0,40,0,0
41297,-107.923747293671,4,1,0,40,0,0
41393,-107.570986421468,4,1,0,40,0,0
41490,-107.190831597653,4,1,0,40,0,0
41587,-106.786434990282,4,1,0,40,0,0
41684,-106.357451513648,4,1,0,40,0,0
41781,-105.903593977613,4,1,0,40,0,0
41974,-104.925735080803,4,1,0,40,0,0
42071,-104.39639749021,4,1,0,40,0,0
42168,-103.841646958478,4,1,0,40,0,0
42361,-102.662431730249,4,1,0,40,0,0
42652,-100.69687594739,4,1,0,40,0,0
42748,-100,4,1,0,40,0,0
42942,-100,4,1,0,40,0,0
43039,-98.762281485262,4,1,0,40,0,0
43135,-97.567124669104,4,1,0,40,0,0
43232,-96.388542963885,4,1,0,40,0,0
43329,-95.238095238095,4,1,0,40,0,0
45071,-100,4,1,0,40,0,0
46430,387.096774193548,4,1,0,80,1,1
46430,-83.3333333333333,4,1,0,80,0,1
46619,-90.909090909091,4,1,0,80,0,1
46716,-88.883785025264,4,1,0,80,0,1
46813,-86.946753538531,4,1,0,80,0,1
46910,-85.09234828496,4,1,0,80,0,1
47006,-83.3333333333333,4,1,0,80,0,1
47200,-90.909090909091,4,1,0,80,0,1
47297,-88.883785025264,4,1,0,80,0,1
47392,-86.946753538531,4,1,0,80,0,1
47488,-85.09234828496,4,1,0,80,0,1
47584,-83.3333333333333,4,1,0,80,0,1
47681,-82.189842976376,4,1,0,80,0,1
47778,-81.077309517164,4,1,0,80,0,1
47874,-80.005508124484,4,1,0,80,0,1
47971,-78.950944421796,4,1,0,80,0,1
48068,-77.923819742489,4,1,0,80,0,1
48168,-76.9230769230769,4,1,0,80,0,1
48261,-75.955997904662,4,1,0,80,0,1
48358,-75.00323289797,4,1,0,80,0,1
48455,-74.074074074074,4,1,0,80,0,1
48552,-73.167654850511,4,1,0,80,0,1
48649,-72.283150548355,4,1,0,80,0,1
48745,-71.428571428571,4,1,0,80,0,1
48842,-73.173803526448,4,1,0,80,0,1
48939,-75.006454944487,4,1,0,80,0,1
49036,-76.933262711864,4,1,0,80,0,1
49132,-78.940217391304,4,1,0,80,0,1
49229,-81.077309517164,4,1,0,80,0,1
49326,-83.333333333333,4,1,0,80,0,1
49713,-90.909090909091,4,1,0,80,0,1
49810,-88.883785025264,4,1,0,80,0,1
49907,-86.946753538531,4,1,0,80,0,1
50004,-85.09234828496,4,1,0,80,0,1
50100,-83.3333333333333,4,1,0,80,0,1
50297,-83.333333333333,4,1,0,80,0,1
50394,-84.418198899477,4,1,0,80,0,1
50490,-85.520054384772,4,1,0,80,0,1
50587,-86.662992559934,4,1,0,80,0,1
50684,-87.836894288507,4,1,0,80,0,1
50781,-89.043035107588,4,1,0,80,0,1
50878,-90.282761590355,4,1,0,80,0,1
50974,-91.544171154126,4,1,0,80,0,1
51071,-92.855033953351,4,1,0,80,0,1
51168,-94.203983825071,4,1,0,80,0,1
51265,-95.592705167173,4,1,0,80,0,1
51361,-97.008019740901,4,1,0,80,0,1
51458,-98.481290120557,4,1,0,80,0,1
51555,-100,4,1,0,80,0,1
51652,-100,4,1,0,80,0,1
51749,-97.554827325435,4,1,0,80,0,1
51845,-95.249815407334,4,1,0,80,0,1
51942,-93.028846153846,4,1,0,80,0,1
52039,-90.909090909091,4,1,0,80,0,1
52136,-88.883785025264,4,1,0,80,0,1
52232,-86.966292134831,4,1,0,80,0,1
52329,-85.111062238839,4,1,0,80,0,1
52426,-83.333333333333,4,1,0,80,0,1
52810,-90.909090909091,4,1,0,80,0,1
52907,-88.883785025264,4,1,0,80,0,1
53004,-86.946753538531,4,1,0,80,0,1
53101,-85.09234828496,4,1,0,80,0,1
53197,-83.3333333333333,4,1,0,80,0,1
53390,-83.333333333333,4,1,0,80,0,1
53487,-85.106382978723,4,1,0,80,0,1
53583,-86.937037866906,4,1,0,80,0,1
53680,-88.868529546496,4,1,0,80,0,1
53777,-90.887795736706,4,1,0,80,0,1
53874,-88.904203997243,4,1,0,80,0,1
53971,-86.966292134831,4,1,0,80,0,1
54067,-85.129784425869,4,1,0,80,0,1
54164,-83.351281499031,4,1,0,80,0,1
54261,-81.645569620253,4,1,0,80,0,1
54358,-80.008269588588,4,1,0,80,0,1
54454,-78.451246705859,4,1,0,80,0,1
54551,-76.938369781312,4,1,0,80,0,1
54648,-77.51503006012,4,1,0,80,0,1
54745,-78.122475359509,4,1,0,80,0,1
54842,-78.739516326032,4,1,0,80,0,1
54941,-76.923076923077,4,1,0,80,0,1
55038,-75.947712418301,4,1,0,80,0,1
55135,-74.996772944366,4,1,0,80,0,1
55232,-74.069352371239,4,1,0,80,0,1
55328,-73.173803526448,4,1,0,80,0,1
55425,-72.290655717307,4,1,0,80,0,1
55522,-71.428571428571,4,1,0,80,0,1
55714,-83.3333333333333,4,1,0,80,0,1
55907,-90.909090909091,4,1,0,80,0,1
56004,-88.883785025264,4,1,0,80,0,1
56101,-86.946753538531,4,1,0,80,0,1
56198,-85.09234828496,4,1,0,80,0,1
56294,-83.3333333333333,4,1,0,80,0,1
56487,-83.333333333333,4,1,0,80,0,1
56584,-85.111062238839,4,1,0,80,0,1
56680,-86.946753538531,4,1,0,80,0,1
56777,-88.883785025264,4,1,0,80,0,1
56874,-90.909090909091,4,1,0,80,0,1
56971,-88.885063407356,4,1,0,80,0,1
57068,-86.949200112265,4,1,0,80,0,1
57164,-85.114566734436,4,1,0,80,0,1
57261,-83.337816753645,4,1,0,80,0,1
57358,-81.63372859025,4,1,0,80,0,1
57455,-79.99793420441,4,1,0,80,0,1
57551,-78.442295032157,4,1,0,80,0,1
57648,-76.930717655823,4,1,0,80,0,1
57745,-75.476294888661,4,1,0,80,0,1
57842,-74.075845248912,4,1,0,80,0,1
57939,-72.726419080708,4,1,0,80,0,1
58035,-71.438454088456,4,1,0,80,0,1
58132,-70.18259254225,4,1,0,80,0,1
58229,-68.970123335856,4,1,0,80,0,1
58326,-67.798835733357,4,1,0,80,0,1
58425,-66.678145581335,4,1,0,80,0,1
58817,-111.111111111111,4,1,0,50,0,0
61522,-111.111111111111,4,1,0,50,0,0
61619,-109.585162112417,4,1,0,50,0,0
61716,-108.100558659218,4,1,0,50,0,0
61812,-106.670341786108,4,1,0,50,0,0
61909,-105.263157894737,4,1,0,50,0,0
63071,-105.263157894737,4,1,0,50,0,0
63167,-103.906564639549,4,1,0,50,0,0
63264,-102.570898489266,4,1,0,50,0,0
63361,-101.269135156352,4,1,0,50,0,0
63458,-100,4,1,0,50,0,0
65006,-100,4,1,0,60,0,0
69845,-100,4,1,0,60,0,0
69942,-98.357880480786,4,1,0,60,0,0
70039,-96.768820786143,4,1,0,60,0,0
70135,-95.245901639344,4,1,0,60,0,0
70232,-93.755042762627,4,1,0,60,0,0
70329,-92.310136638068,4,1,0,60,0,0
70426,-90.909090909091,4,1,0,60,0,0
70619,-90.909090909091,4,1,0,60,0,0
70716,-95.238095238095,4,1,0,60,0,0
70813,-100,4,1,0,60,0,0
71200,-100,4,1,0,60,0,0
71297,-97.548647965631,4,1,0,60,0,0
71393,-95.238095238095,4,1,0,60,0,0
71490,-97.560975609756,4,1,0,60,0,0
71587,-100,4,1,0,60,0,0
71781,-100,4,1,0,60,0,0
71877,-95.2380952380952,4,1,0,60,0,0
71974,-90.9090909090909,4,1,0,60,0,0
72071,-95.2380952380952,4,1,0,60,0,0
72168,-100,4,1,0,60,0,0
72361,-100,4,1,0,60,0,0
72457,-92.5925925925926,4,1,0,60,0,0
72554,-86.2068965517241,4,1,0,60,0,0
72651,-92.5925925925926,4,1,0,60,0,0
72748,-100,4,1,0,60,0,0
72942,-100,4,1,0,60,0,0
73039,-90.9090909090909,4,1,0,60,0,0
73135,-83.3333333333333,4,1,0,60,0,0
73232,-86.9565217391304,4,1,0,60,0,0
73329,-90.9090909090909,4,1,0,60,0,0
73426,-95.2380952380952,4,1,0,60,0,0
73522,-100,4,1,0,60,0,0
74490,-100,4,1,0,60,0,0
74587,-98.357880480786,4,1,0,60,0,0
74683,-96.784940862902,4,1,0,60,0,0
74780,-95.245901639344,4,1,0,60,0,0
74877,-93.755042762627,4,1,0,60,0,0
74974,-92.310136638068,4,1,0,60,0,0
75071,-90.909090909091,4,1,0,60,0,0
75264,-100,4,1,0,60,0,0
75361,-96.768820786143,4,1,0,60,0,0
75458,-93.739916101968,4,1,0,60,0,0
75555,-90.894868585732,4,1,0,60,0,0
75652,-88.21743091406,4,1,0,60,0,0
75748,-85.718501032753,4,1,0,60,0,0
75845,-83.333333333333,4,1,0,60,0,0
76039,-83.333333333333,4,1,0,60,0,0
76135,-84.735366281108,4,1,0,60,0,0
76232,-86.200748796577,4,1,0,60,0,0
76426,-89.289012003693,4,1,0,60,0,0
76522,-90.900545215266,4,1,0,60,0,0
76619,-92.589046342398,4,1,0,60,0,0
76716,-94.341463414634,4,1,0,60,0,0
76813,-96.161495624503,4,1,0,60,0,0
77006,-100,4,1,0,60,0,0
77200,-90.909090909091,4,1,0,60,0,0
77264,-93.73482272948,4,1,0,60,0,0
77329,-96.79037111334,4,1,0,60,0,0
77393,-100,4,1,0,60,0,0
77587,-100,4,1,0,60,0,0
77683,-101.002192295647,4,1,0,60,0,0
77780,-102.035435562118,4,1,0,60,0,0
77974,-104.166666666667,4,1,0,60,0,0
78167,-106.377130291369,4,1,0,60,0,0
78361,-108.695652173913,4,1,0,60,0,0
78458,-109.893230349841,4,1,0,60,0,0
78554,-111.10473128158,4,1,0,60,0,0
78748,-113.636363636364,4,1,0,60,0,0
78942,-116.286057692308,4,1,0,60,0,0
79135,-119.047619047619,4,1,0,60,0,0
79232,-120.485678704857,4,1,0,60,0,0
79329,-121.95890583638,4,1,0,60,0,0
79522,-125,4,1,0,60,0,0
79716,-125,4,1,0,60,0,0
79909,-117.6649437519,4,1,0,60,0,0
80103,-111.111111111111,4,1,0,60,0,0
80296,-105.277475516866,4,1,0,60,0,0
80490,-100,4,1,0,60,0,0
80683,-100,4,1,0,60,0,0
80779,-101.002192295647,4,1,0,60,0,0
80876,-102.035435562118,4,1,0,60,0,0
81070,-104.166666666667,4,1,0,60,0,0
81263,-106.377130291369,4,1,0,60,0,0
81457,-108.695652173913,4,1,0,60,0,0
81554,-109.893230349841,4,1,0,60,0,0
81650,-111.10473128158,4,1,0,60,0,0
81844,-113.636363636364,4,1,0,60,0,0
82038,-116.286057692308,4,1,0,60,0,0
82231,-119.047619047619,4,1,0,60,0,0
82328,-120.485678704857,4,1,0,60,0,0
82425,-121.95890583638,4,1,0,60,0,0
82618,-125,4,1,0,60,0,0
82812,-125,4,1,0,60,0,0
83006,-117.638129933212,4,1,0,60,0,0
83103,-114.273075788853,4,1,0,60,0,0
83200,-111.095183486239,4,1,0,60,0,0
83393,-105.270306981798,4,1,0,60,0,0
83587,-100,4,1,0,60,0,0
83780,-100,4,1,0,60,0,0
83876,-101.002192295647,4,1,0,60,0,0
83973,-102.035435562118,4,1,0,60,0,0
84167,-104.166666666667,4,1,0,60,0,0
84360,-106.377130291369,4,1,0,60,0,0
84554,-108.695652173913,4,1,0,60,0,0
84651,-109.893230349841,4,1,0,60,0,0
84747,-111.10473128158,4,1,0,60,0,0
84941,-113.636363636364,4,1,0,60,0,0
85135,-116.286057692308,4,1,0,60,0,0
85328,-119.047619047619,4,1,0,60,0,0
85425,-120.485678704857,4,1,0,60,0,0
85522,-121.95890583638,4,1,0,60,0,0
85715,-125,4,1,0,60,0,0
85909,-125,4,1,0,60,0,0
86102,-117.6649437519,4,1,0,60,0,0
86296,-111.111111111111,4,1,0,60,0,0
86489,-105.277475516866,4,1,0,60,0,0
86684,-100,4,1,0,60,0,0
86877,-99.175671635416,4,1,0,60,0,0
86974,-98.766482347937,4,1,0,60,0,0
87071,-98.360655737705,4,1,0,60,0,0
87264,-97.563025210084,4,1,0,60,0,0
87458,-96.774193548387,4,1,0,60,0,0
87652,-95.998015544898,4,1,0,60,0,0
87748,-95.618514248065,4,1,0,60,0,0
87845,-95.238095238095,4,1,0,60,0,0
88039,-94.486266531027,4,1,0,60,0,0
88232,-93.75,4,1,0,60,0,0
88426,-93.021392516625,4,1,0,60,0,0
88522,-92.665017160188,4,1,0,60,0,0
88619,-92.307692307692,4,1,0,60,0,0
88813,-91.601246597499,4,1,0,60,0,0
89006,-90.909090909091,4,1,0,60,0,0
89200,-83.3333333333333,4,1,0,60,0,0
89781,-125,4,1,0,40,0,0
89974,-124.414796846574,4,1,0,40,0,0
90070,-124.125747198761,4,1,0,40,0,0
90167,-123.835047563861,4,1,0,40,0,0
90264,-123.545706371191,4,1,0,40,0,0
90361,-123.257714120927,4,1,0,40,0,0
90555,-122.685738889155,4,1,0,40,0,0
90651,-122.404658488855,4,1,0,40,0,0
90748,-122.12195528465,4,1,0,40,0,0
90845,-121.840554922083,4,1,0,40,0,0
90942,-121.560448415614,4,1,0,40,0,0
91135,-121.006936252536,4,1,0,40,0,0
91232,-120.730645199256,4,1,0,40,0,0
91329,-120.455612963833,4,1,0,40,0,0
91522,-119.91209407804,4,1,0,40,0,0
91716,-119.370679824051,4,1,0,40,0,0
91812,-119.104567726354,4,1,0,40,0,0
91909,-118.836886005561,4,1,0,40,0,0
92006,-118.570404789976,4,1,0,40,0,0
92103,-118.30511602159,4,1,0,40,0,0
92297,-117.778083953339,4,1,0,40,0,0
92393,-117.51901750527,4,1,0,40,0,0
92490,-117.258407443817,4,1,0,40,0,0
92587,-116.998950682057,4,1,0,40,0,0
92684,-116.7406395812,4,1,0,40,0,0
92781,-116.483466569767,4,1,0,40,0,0
92877,-116.230058013053,4,1,0,40,0,0
93071,-115.721312215153,4,1,0,40,0,0
93168,-115.468605776807,4,1,0,40,0,0
93264,-115.219588902617,4,1,0,40,0,0
93458,-114.719631394126,4,1,0,40,0,0
93748,-113.980310673571,4,1,0,40,0,0
93845,-113.735142806457,4,1,0,40,0,0
94039,-113.247957606536,4,1,0,40,0,0
94135,-113.008416692372,4,1,0,40,0,0
94232,-112.767407602841,4,1,0,40,0,0
94329,-112.527424308907,4,1,0,40,0,0
94426,-112.288460275412,4,1,0,40,0,0
94619,-111.816001744059,4,1,0,40,0,0
94716,-111.580046555137,4,1,0,40,0,0
94813,-111.345085098993,4,1,0,40,0,0
94910,-111.111111111111,4,1,0,40,0,0
95006,-110.880515381456,4,1,0,40,0,0
95200,-110.417429118856,4,1,0,40,0,0
95297,-110.187333505199,4,1,0,40,0,0
95393,-109.960552268245,4,1,0,40,0,0
95587,-109.505102694393,4,1,0,40,0,0
95781,-109.053410443953,4,1,0,40,0,0
95974,-108.60772895712,4,1,0,40,0,0
96168,-108.163394419958,4,1,0,40,0,0
96265,-107.942587759912,4,1,0,40,0,0
96362,-107.722680780459,4,1,0,40,0,0
96459,-107.503667994131,4,1,0,40,0,0
96555,-107.287788143748,4,1,0,40,0,0
96748,-106.856392841518,4,1,0,40,0,0
96845,-106.640884896873,4,1,0,40,0,0
96942,-106.426244475339,4,1,0,40,0,0
97039,-106.212466349141,4,1,0,40,0,0
97135,-106.00173603935,4,1,0,40,0,0
97329,-105.578427336352,4,1,0,40,0,0
97426,-105.368038293239,4,1,0,40,0,0
97523,-105.158486078648,4,1,0,40,0,0
97620,-104.949765709726,4,1,0,40,0,0
97716,-104.744011272898,4,1,0,40,0,0
97813,-104.536931354965,4,1,0,40,0,0
97910,-104.330668619434,4,1,0,40,0,0
98103,-103.922681039024,4,1,0,40,0,0
98297,-103.515782675385,4,1,0,40,0,0
98490,-103.114131199614,4,1,0,40,0,0
98587,-102.913439544123,4,1,0,40,0,0
98684,-102.713527585862,4,1,0,40,0,0
98781,-102.514390789894,4,1,0,40,0,0
98877,-102.318065751676,4,1,0,40,0,0
98974,-102.120457939273,4,1,0,40,0,0
99071,-101.923611939112,4,1,0,40,0,0
99264,-101.534197763041,4,1,0,40,0,0
99361,-101.339603256145,4,1,0,40,0,0
99458,-101.14575321935,4,1,0,40,0,0
99652,-100.760269532248,4,1,0,40,0,0
99942,-100.189479030336,4,1,0,40,0,0
100039,-100,4,1,0,40,0,0
100232,-100,4,1,0,40,0,0
100329,-98.762281485262,4,1,0,40,0,0
100425,-97.567124669104,4,1,0,40,0,0
100522,-96.388542963885,4,1,0,40,0,0
100619,-95.238095238095,4,1,0,40,0,0
102361,-100,4,1,0,40,0,0
103720,387.096774193548,4,1,0,45,1,0
103910,-110.318452599838,4,1,0,45,0,0
104006,-109.930377427629,4,1,0,45,0,0
104103,-109.541023113156,4,1,0,45,0,0
104200,-109.154417115413,4,1,0,45,0,0
104297,-108.77053043762,4,1,0,45,0,0
104490,-108.01468999784,4,1,0,45,0,0
104587,-107.638764306986,4,1,0,45,0,0
104684,-107.265446224256,4,1,0,45,0,0
104781,-106.894708711919,4,1,0,45,0,0
104877,-106.53030787259,4,1,0,45,0,0
105071,-105.801445953095,4,1,0,45,0,0
105264,-105.086170659941,4,1,0,45,0,0
105458,-104.376870085589,4,1,0,45,0,0
105555,-104.025798398003,4,1,0,45,0,0
105652,-103.677080453414,4,1,0,45,0,0
105748,-103.334251860017,4,1,0,45,0,0
105845,-102.990147275911,4,1,0,45,0,0
106039,-102.308767861406,4,1,0,45,0,0
106135,-101.974914171114,4,1,0,45,0,0
106232,-101.63978858924,4,1,0,45,0,0
106426,-100.97610232245,4,1,0,45,0,0
106522,-100.650875662618,4,1,0,45,0,0
106619,-100.324382169013,4,1,0,45,0,0
106813,-99.677708741735,4,1,0,50,0,0
107006,-99.042588312975,4,1,0,50,0,0
107103,-98.726429065061,4,1,0,50,0,0
107200,-98.412281852775,4,1,0,50,0,0
107297,-98.100127530166,4,1,0,50,0,0
107393,-97.793134921928,4,1,0,50,0,0
107587,-97.178581840562,4,1,0,50,0,0
107684,-96.874192715061,4,1,0,50,0,0
107781,-96.571704490584,4,1,0,50,0,0
107878,-96.271099415955,4,1,0,50,0,0
107974,-95.975430289846,4,1,0,50,0,0
108168,-95.383441434567,4,1,0,50,0,0
108265,-95.090177184697,4,1,0,50,0,0
108361,-94.801706430716,4,1,0,50,0,0
108555,-94.224064826157,4,1,0,50,0,0
108749,-93.653419910717,4,1,0,50,0,0
108845,-93.373587724486,4,1,0,50,0,0
108942,-93.092533978775,4,1,0,50,0,0
109136,-92.535471930907,4,1,0,70,0,0
109232,-92.262270882027,4,1,0,70,0,0
109329,-91.987857602796,4,1,0,70,0,0
109426,-91.715071843473,4,1,0,70,0,0
109523,-91.443899167861,4,1,0,70,0,0
109619,-91.177096313406,4,1,0,70,0,0
109716,-90.909090909091,4,1,0,70,0,0
109913,-83.3333333333333,4,1,0,80,0,1
111071,-83.333333333333,4,1,0,80,0,1
111168,-84.113954611299,4,1,0,80,0,1
111264,-84.901062481723,4,1,0,80,0,1
111361,-85.711474119268,4,1,0,80,0,1
111458,-86.537506209637,4,1,0,80,0,1
111652,-88.238273731132,4,1,0,80,0,1
111748,-89.104859335038,4,1,0,80,0,1
111942,-90.909090909091,4,1,0,80,0,1
112039,-91.838886545761,4,1,0,80,0,1
112232,-93.746636529975,4,1,0,80,0,1
112329,-94.735697193822,4,1,0,80,0,1
112522,-96.767025886013,4,1,0,80,0,1
112619,-97.821203953279,4,1,0,80,0,1
112716,-98.898603383672,4,1,0,80,0,1
112813,-100,4,1,0,80,0,1
113006,-83.3333333333333,4,1,0,80,0,1
113587,-83.333333333333,4,1,0,80,0,1
113684,-83.044364208344,4,1,0,80,0,1
113781,-82.757392233701,4,1,0,80,0,1
113974,-82.192265506139,4,1,0,80,0,1
114071,-81.911142454161,4,1,0,80,0,1
114264,-81.357475571744,4,1,0,80,0,1
114361,-81.08202443281,4,1,0,80,0,1
114555,-80.536680072112,4,1,0,80,0,1
114652,-80.266749594002,4,1,0,80,0,1
114845,-79.73501750532,4,1,0,80,0,1
114942,-79.470425233485,4,1,0,80,0,1
115039,-79.207583196945,4,1,0,80,0,1
115135,-78.949157150625,4,1,0,80,0,1
115232,-78.689746282308,4,1,0,80,0,1
115329,-78.43203457357,4,1,0,80,0,1
115426,-78.176005384486,4,1,0,80,0,1
115522,-77.92425614706,4,1,0,80,0,1
115619,-77.671526013107,4,1,0,80,0,1
115716,-77.420429928345,4,1,0,80,0,1
115813,-77.170952096206,4,1,0,80,0,1
115910,-76.923076923077,4,1,0,80,0,1
116103,-83.3333333333333,4,1,0,80,0,1
116490,-100,4,1,0,80,0,1
116586,-92.5925925925926,4,1,0,80,0,1
116683,-86.2068965517241,4,1,0,80,0,1
116780,-92.5925925925926,4,1,0,80,0,1
116877,-100,4,1,0,80,0,1
117071,-100,4,1,0,80,0,1
117167,-92.5925925925926,4,1,0,80,0,1
117264,-86.2068965517241,4,1,0,80,0,1
117361,-92.5925925925926,4,1,0,80,0,1
117458,-100,4,1,0,80,0,1
117652,-100,4,1,0,80,0,1
117748,-92.5925925925926,4,1,0,80,0,1
117845,-86.2068965517241,4,1,0,80,0,1
117942,-92.5925925925926,4,1,0,80,0,1
118039,-100,4,1,0,80,0,1
118232,-83.333333333333,4,1,0,80,0,1
118329,-86.213038831493,4,1,0,80,0,1
118426,-89.29889298893,4,1,0,80,0,1
118522,-92.578423871461,4,1,0,80,0,1
118619,-96.146205800556,4,1,0,80,0,1
118716,-100,4,1,0,80,0,1
118813,-100,4,1,0,80,0,1
118910,-95.226377952756,4,1,0,80,0,1
119006,-90.93045112782,4,1,0,80,0,1
119103,-86.966292134831,4,1,0,80,0,1
119200,-83.333333333333,4,1,0,80,0,1
119393,-83.333333333333,4,1,0,80,0,1
119490,-82.871982192797,4,1,0,80,0,1
119684,-81.964436917866,4,1,0,80,0,1
119781,-81.518077700427,4,1,0,80,0,1
119974,-80.644265481811,4,1,0,80,0,1
120071,-80.212131256215,4,1,0,80,0,1
120168,-79.784603549646,4,1,0,80,0,1
120361,-78.947368421053,4,1,0,80,0,1
120458,-78.533181891936,4,1,0,80,0,1
120555,-78.123318626923,4,1,0,80,0,1
120748,-77.320411097503,4,1,0,80,0,1
120845,-76.923076923077,4,1,0,80,0,1
120942,-76.529805513098,4,1,0,80,0,1
121135,-75.759156840238,4,1,0,80,0,1
121232,-75.377667030058,4,1,0,80,0,1
121329,-75,4,1,0,80,0,1
121426,-74.626098576348,4,1,0,80,0,1
121522,-74.259704393188,4,1,0,80,0,1
121619,-73.893129770992,4,1,0,80,0,1
121716,-73.530156479465,4,1,0,80,0,1
121813,-73.170731707317,4,1,0,80,0,1
121910,-72.814803670829,4,1,0,80,0,1
122006,-72.465938014673,4,1,0,80,0,1
122103,-72.11681732393,4,1,0,80,0,1
122200,-71.771044436755,4,1,0,80,0,1
122300,-71.4285714285714,4,1,0,80,0,0
122393,-100,4,1,0,70,0,0
122490,-100,4,1,0,70,0,0
122587,-99.336162058582,4,1,0,70,0,0
122684,-98.681079611122,4,1,0,70,0,0
122781,-98.034580575442,4,1,0,70,0,0
122877,-97.403033149913,4,1,0,70,0,0
122974,-96.773118207881,4,1,0,70,0,0
123071,-96.151298357181,4,1,0,70,0,0
123264,-94.937536791157,4,1,0,70,0,0
123361,-94.339009489146,4,1,0,70,0,0
123458,-93.747981657302,4,1,0,70,0,0
123652,-92.587867576705,4,1,0,70,0,0
123845,-91.461877756774,4,1,0,70,0,0
124039,-90.357320717131,4,1,0,70,0,0
124135,-89.820544554455,4,1,0,70,0,0
124232,-89.284615857784,4,1,0,70,0,0
124329,-88.755044637398,4,1,0,70,0,0
124426,-88.231718436569,4,1,0,70,0,0
124522,-87.71982836768,4,1,0,70,0,0
124619,-87.208603701033,4,1,0,70,0,0
124813,-86.203824682266,4,1,0,70,0,0
124910,-85.710067906702,4,1,0,70,0,0
125006,-85.226939111033,4,1,0,70,0,0
125200,-84.267053701016,4,1,0,70,0,0
125297,-83.795173767463,4,1,0,70,0,0
125397,-83.3333333333333,4,1,0,80,0,1
126168,-83.333333333333,4,1,0,80,0,1
126264,-82.312404287902,4,1,0,80,0,1
126361,-81.305937224253,4,1,0,80,0,1
126458,-80.323785803238,4,1,0,80,0,1
126555,-79.365079365079,4,1,0,80,0,1
126652,-78.428988326848,4,1,0,80,0,1
126748,-77.524038461538,4,1,0,80,0,1
126845,-76.630628489961,4,1,0,80,0,1
126942,-75.757575757576,4,1,0,80,0,1
127039,-74.904192312159,4,1,0,80,0,1
127135,-74.078327782244,4,1,0,80,0,1
127232,-73.262153566561,4,1,0,80,0,1
127329,-72.463768115942,4,1,0,80,0,1
127426,-71.682596132474,4,1,0,80,0,1
127522,-70.925885199032,4,1,0,80,0,1
127619,-70.17734740507,4,1,0,80,0,1
127716,-69.444444444444,4,1,0,80,0,1
127813,-68.726691529036,4,1,0,80,0,1
127910,-68.023623708078,4,1,0,80,0,1
128006,-67.341825015661,4,1,0,80,0,1
128103,-66.666666666667,4,1,0,80,0,1
128494,-111.111111111111,4,1,0,50,0,0
131199,-111.111111111111,4,1,0,50,0,0
131296,-109.585162112417,4,1,0,50,0,0
131393,-108.100558659218,4,1,0,50,0,0
131489,-106.670341786108,4,1,0,50,0,0
131586,-105.263157894737,4,1,0,50,0,0
132748,-105.263157894737,4,1,0,50,0,0
132844,-103.906564639549,4,1,0,50,0,0
132941,-102.570898489266,4,1,0,50,0,0
133038,-101.269135156352,4,1,0,50,0,0
133135,-100,4,1,0,50,0,0

[HitObjects]
288,173,1527,5,4,0:0:0:0:
288,173,1720,1,8,0:0:0:0:
288,173,1817,1,0,0:0:0:0:
288,173,1914,1,8,0:0:0:0:
288,173,2107,1,0,0:0:0:0:
288,173,2301,1,8,0:0:0:0:
288,173,2397,1,8,0:0:0:0:
288,173,2494,1,0,0:0:0:0:
288,173,2688,1,0,0:0:0:0:
288,173,2881,1,0,0:0:0:0:
288,173,2978,1,8,0:0:0:0:
288,173,3075,1,0,0:0:0:0:
335,177,3268,1,0,0:0:0:0:
335,177,3365,1,0,0:0:0:0:
335,177,3462,1,8,0:0:0:0:
335,177,3656,1,0,0:0:0:0:
335,177,3849,1,8,0:0:0:0:
335,177,4043,1,0,0:0:0:0:
335,177,4236,1,0,0:0:0:0:
335,177,4333,1,0,0:0:0:0:
335,177,4430,1,8,0:0:0:0:
335,177,4526,1,8,0:0:0:0:
335,177,4623,1,0,0:0:0:0:
335,177,4817,1,0,0:0:0:0:
335,177,5010,1,8,0:0:0:0:
335,177,5204,1,0,0:0:0:0:
357,187,5494,1,0,0:0:0:0:
357,187,5591,1,8,0:0:0:0:
358,187,5785,1,8,0:0:0:0:
358,187,5881,1,0,0:0:0:0:
358,187,5978,1,8,0:0:0:0:
358,187,6075,1,8,0:0:0:0:
358,187,6172,1,0,0:0:0:0:
357,187,6365,1,0,0:0:0:0:
357,187,6462,1,8,0:0:0:0:
357,187,6559,1,8,0:0:0:0:
358,187,6752,1,0,0:0:0:0:
358,187,6946,1,8,0:0:0:0:
358,187,7043,1,8,0:0:0:0:
358,187,7139,1,0,0:0:0:0:
357,187,7333,1,8,0:0:0:0:
378,181,7720,1,8,0:0:0:0:
378,181,7817,1,0,0:0:0:0:
378,181,7914,1,8,0:0:0:0:
378,181,8010,1,0,0:0:0:0:
378,181,8107,1,8,0:0:0:0:
378,181,8301,1,8,0:0:0:0:
378,181,8494,1,0,0:0:0:0:
378,181,8688,1,0,0:0:0:0:
378,181,8881,1,8,0:0:0:0:
378,181,9075,1,0,0:0:0:0:
378,181,9268,1,8,0:0:0:0:
378,181,9462,1,0,0:0:0:0:
378,181,9559,1,0,0:0:0:0:
378,181,9656,1,8,0:0:0:0:
378,181,9849,1,0,0:0:0:0:
378,181,10043,1,8,0:0:0:0:
378,181,10623,1,8,0:0:0:0:
378,181,10720,1,8,0:0:0:0:
378,181,10817,1,0,0:0:0:0:
378,181,11010,1,8,0:0:0:0:
378,181,11107,1,0,0:0:0:0:
378,181,11204,1,8,0:0:0:0:
391,172,11397,1,0,0:0:0:0:
391,172,11591,1,8,0:0:0:0:
391,172,11785,1,0,0:0:0:0:
391,172,11978,1,8,0:0:0:0:
391,172,12172,1,8,0:0:0:0:
391,172,12268,1,8,0:0:0:0:
391,172,12365,1,0,0:0:0:0:
398,164,12559,1,0,0:0:0:0:
397,164,12656,1,0,0:0:0:0:
397,164,12752,1,8,0:0:0:0:
396,161,12849,1,0,0:0:0:0:
397,164,12946,1,8,0:0:0:0:
395,161,13043,1,8,0:0:0:0:
395,161,13139,1,0,0:0:0:0:
325,114,13333,1,0,0:0:0:0:
325,114,13430,1,0,0:0:0:0:
325,114,13526,1,8,0:0:0:0:
325,114,13720,1,0,0:0:0:0:
325,114,13817,1,0,0:0:0:0:
325,114,13914,1,8,0:0:0:0:
325,114,14010,1,0,0:0:0:0:
325,114,14107,1,8,0:0:0:0:
325,114,14204,1,0,0:0:0:0:
325,114,14301,1,8,0:0:0:0:
335,127,14494,1,0,0:0:0:0:
335,127,14688,1,8,0:0:0:0:
334,122,14881,1,0,0:0:0:0:
332,115,15075,1,0,0:0:0:0:
332,115,15172,1,0,0:0:0:0:
329,112,15268,1,8,0:0:0:0:
329,112,15365,1,8,0:0:0:0:
329,112,15462,1,0,0:0:0:0:
329,112,15656,1,0,0:0:0:0:
329,112,15752,1,8,0:0:0:0:
329,112,15849,1,8,0:0:0:0:
332,115,15946,1,0,0:0:0:0:
332,115,16043,1,8,0:0:0:0:
332,115,16139,1,0,0:0:0:0:
329,112,16236,1,8,0:0:0:0:
329,112,16430,1,0,0:0:0:0:
329,112,16623,1,8,0:0:0:0:
329,112,16817,1,8,0:0:0:0:
330,108,17010,1,0,0:0:0:0:
329,112,17204,1,0,0:0:0:0:
329,112,17301,1,0,0:0:0:0:
329,112,17397,1,8,0:0:0:0:
329,112,17494,1,8,0:0:0:0:
329,112,17591,1,0,0:0:0:0:
329,112,17688,1,0,0:0:0:0:
329,112,17785,1,8,0:0:0:0:
352,152,17978,1,0,0:0:0:0:
352,152,18075,1,0,0:0:0:0:
352,152,18172,1,8,0:0:0:0:
352,152,18268,1,8,0:0:0:0:
352,152,18365,1,0,0:0:0:0:
352,152,18462,1,8,0:0:0:0:
352,152,18559,1,8,0:0:0:0:
387,150,18752,1,0,0:0:0:0:
387,150,18849,1,0,0:0:0:0:
387,150,18946,1,8,0:0:0:0:
381,150,19139,1,8,0:0:0:0:
381,150,19236,1,0,0:0:0:0:
380,150,19333,1,8,0:0:0:0:
380,150,19526,1,0,0:0:0:0:
380,150,19720,1,8,0:0:0:0:
356,166,19914,1,0,0:0:0:0:
356,166,19978,1,0,0:0:0:0:
356,166,20043,1,0,0:0:0:0:
356,166,20107,1,8,0:0:0:0:
191,208,20301,1,0,0:0:0:0:
191,208,20397,1,8,0:0:0:0:
191,208,20494,1,0,0:0:0:0:
277,188,20688,1,0,0:0:0:0:
277,188,20881,1,8,0:0:0:0:
277,188,21075,1,8,0:0:0:0:
277,188,21172,1,8,0:0:0:0:
277,188,21268,1,0,0:0:0:0:
277,188,21462,1,0,0:0:0:0:
277,188,21656,1,8,0:0:0:0:
277,188,21849,1,0,0:0:0:0:
277,188,21946,1,8,0:0:0:0:
277,188,22043,1,0,0:0:0:0:
277,188,22236,1,0,0:0:0:0:
277,188,22430,1,8,0:0:0:0:
277,188,22623,1,0,0:0:0:0:
277,188,22817,1,8,0:0:0:0:
277,188,23010,1,0,0:0:0:0:
353,173,23204,1,8,0:0:0:0:
353,173,23397,1,0,0:0:0:0:
353,173,23494,1,8,0:0:0:0:
353,173,23591,1,0,0:0:0:0:
353,173,23785,1,0,0:0:0:0:
353,173,23978,1,8,0:0:0:0:
353,173,24172,1,8,0:0:0:0:
353,173,24268,1,8,0:0:0:0:
353,173,24365,1,0,0:0:0:0:
357,170,24559,1,0,0:0:0:0:
357,170,24752,1,8,0:0:0:0:
357,170,24946,1,0,0:0:0:0:
357,170,25043,1,8,0:0:0:0:
357,170,25139,1,0,0:0:0:0:
357,170,25333,1,0,0:0:0:0:
357,170,25526,1,8,0:0:0:0:
357,170,25720,1,8,0:0:0:0:
357,170,25817,1,0,0:0:0:0:
357,170,25914,1,8,0:0:0:0:
357,170,26107,1,8,0:0:0:0:
357,170,26301,1,8,0:0:0:0:
357,170,26494,1,0,0:0:0:0:
357,170,26591,1,8,0:0:0:0:
357,170,26688,1,0,0:0:0:0:
357,170,26881,1,0,0:0:0:0:
357,170,27075,1,8,0:0:0:0:
357,170,27268,1,8,0:0:0:0:
357,170,27365,1,8,0:0:0:0:
357,170,27462,1,0,0:0:0:0:
357,170,27656,1,0,0:0:0:0:
357,170,27849,1,8,0:0:0:0:
357,170,28043,1,0,0:0:0:0:
357,170,28139,1,8,0:0:0:0:
357,170,28236,1,0,0:0:0:0:
346,155,28430,1,0,0:0:0:0:
343,155,28623,1,8,0:0:0:0:
343,155,28817,1,0,0:0:0:0:
343,155,29010,1,8,0:0:0:0:
343,155,29204,1,0,0:0:0:0:
345,147,29397,1,8,0:0:0:0:
345,147,29591,1,0,0:0:0:0:
345,147,29688,1,8,0:0:0:0:
345,147,29785,1,0,0:0:0:0:
345,147,29978,1,0,0:0:0:0:
345,147,30172,1,8,0:0:0:0:
345,147,30365,1,8,0:0:0:0:
345,147,30462,1,8,0:0:0:0:
345,147,30559,1,0,0:0:0:0:
345,147,30752,1,0,0:0:0:0:
345,147,30946,1,8,0:0:0:0:
345,147,31139,1,0,0:0:0:0:
345,147,31236,1,8,0:0:0:0:
345,147,31333,1,0,0:0:0:0:
345,147,31526,1,0,0:0:0:0:
345,147,31720,1,8,0:0:0:0:
345,147,31914,1,8,0:0:0:0:
345,147,32010,1,8,0:0:0:0:
345,147,32107,1,8,0:0:0:0:
247,177,32494,1,12,0:0:0:0:
285,157,32688,1,0,0:0:0:0:
285,157,32785,1,8,0:0:0:0:
285,157,32881,1,8,0:0:0:0:
285,157,32978,1,0,0:0:0:0:
285,157,33075,1,8,0:0:0:0:
336,157,33268,1,0,0:0:0:0:
336,157,33365,1,8,0:0:0:0:
336,157,33462,1,0,0:0:0:0:
336,157,33559,1,0,0:0:0:0:
336,157,33656,1,8,0:0:0:0:
343,140,33849,1,0,0:0:0:0:
343,140,33946,1,0,0:0:0:0:
343,140,34043,1,8,0:0:0:0:
353,135,34139,1,8,0:0:0:0:
353,135,34236,1,8,0:0:0:0:
353,135,34430,1,8,0:0:0:0:
353,135,34623,1,0,0:0:0:0:
353,135,34720,1,0,0:0:0:0:
353,135,34817,1,8,0:0:0:0:
353,135,34914,1,8,0:0:0:0:
353,135,35010,1,0,0:0:0:0:
353,135,35107,1,0,0:0:0:0:
353,135,35204,1,8,0:0:0:0:
353,135,35301,1,0,0:0:0:0:
353,135,35397,1,8,0:0:0:0:
353,135,35494,1,8,0:0:0:0:
353,135,35591,1,0,0:0:0:0:
353,135,35785,1,0,0:0:0:0:
347,139,35978,1,8,0:0:0:0:
352,139,36075,1,8,0:0:0:0:
347,139,36172,1,0,0:0:0:0:
352,139,36462,1,0,0:0:0:0:
352,139,36559,1,8,0:0:0:0:
352,139,36752,1,8,0:0:0:0:
352,139,36849,1,8,0:0:0:0:
352,139,36946,1,0,0:0:0:0:
352,139,37043,1,0,0:0:0:0:
352,139,37139,1,8,0:0:0:0:
351,170,37236,1,0,0:0:0:0:
351,170,37333,1,0,0:0:0:0:
351,170,37430,1,8,0:0:0:0:
351,170,37526,1,0,0:0:0:0:
351,170,37720,1,0,0:0:0:0:
351,170,37914,1,0,0:0:0:0:
351,170,38010,1,0,0:0:0:0:
351,170,38107,1,0,0:0:0:0:
351,170,38204,1,0,0:0:0:0:
346,168,38301,1,8,0:0:0:0:
344,169,38494,1,8,0:0:0:0:
258,147,38688,1,4,0:0:0:0:
351,176,38881,1,0,0:0:0:0:
350,176,38978,1,8,0:0:0:0:
350,176,39075,1,0,0:0:0:0:
349,175,39172,1,0,0:0:0:0:
349,175,39268,1,8,0:0:0:0:
349,195,39462,1,0,0:0:0:0:
342,192,39559,1,0,0:0:0:0:
342,192,39656,1,0,0:0:0:0:
342,192,39752,1,0,0:0:0:0:
342,192,39849,1,8,0:0:0:0:
342,192,40043,1,0,0:0:0:0:
341,192,40139,1,0,0:0:0:0:
341,192,40236,1,8,0:0:0:0:
341,192,40333,1,0,0:0:0:0:
341,192,40430,1,8,0:0:0:0:
342,192,40623,1,0,0:0:0:0:
355,191,40817,1,8,0:0:0:0:
355,191,41010,1,0,0:0:0:0:
353,192,41204,1,0,0:0:0:0:
353,192,41301,1,0,0:0:0:0:
353,192,41397,1,8,0:0:0:0:
346,198,41494,1,0,0:0:0:0:
346,198,41591,1,8,0:0:0:0:
346,198,41688,1,8,0:0:0:0:
346,198,41785,1,0,0:0:0:0:
346,198,41978,1,0,0:0:0:0:
343,199,42075,1,0,0:0:0:0:
343,199,42172,1,8,0:0:0:0:
343,199,42365,1,0,0:0:0:0:
349,212,42656,1,0,0:0:0:0:
348,212,42752,1,8,0:0:0:0:
347,212,42946,1,8,0:0:0:0:
346,212,43043,1,8,0:0:0:0:
346,212,43139,1,0,0:0:0:0:
346,212,43236,1,0,0:0:0:0:
336,234,43333,1,8,0:0:0:0:
336,234,43430,1,8,0:0:0:0:
336,234,43526,1,8,0:0:0:0:
336,234,43623,1,8,0:0:0:0:
336,234,43720,1,0,0:0:0:0:
336,234,43817,1,0,0:0:0:0:
336,234,43914,1,8,0:0:0:0:
336,234,44010,1,8,0:0:0:0:
336,234,44107,1,8,0:0:0:0:
336,233,44204,1,8,0:0:0:0:
337,232,44301,1,0,0:0:0:0:
337,232,44397,1,0,0:0:0:0:
337,232,44494,1,8,0:0:0:0:
337,232,44591,1,8,0:0:0:0:
337,232,44688,1,8,0:0:0:0:
337,232,44785,1,8,0:0:0:0:
337,232,44881,1,0,0:0:0:0:
356,236,45075,1,0,0:0:0:0:
356,236,45172,1,0,0:0:0:0:
356,236,45268,1,8,0:0:0:0:
369,243,45365,1,0,0:0:0:0:
369,243,45462,1,8,0:0:0:0:
369,243,45559,1,0,0:0:0:0:
369,243,45656,1,8,0:0:0:0:
369,243,45752,1,8,0:0:0:0:
368,242,45849,1,0,0:0:0:0:
368,242,45946,1,0,0:0:0:0:
368,242,46043,1,8,0:0:0:0:
358,240,46236,1,0,0:0:0:0:
339,260,46430,1,12,0:0:0:0:
344,237,46623,1,0,0:0:0:0:
344,237,46720,1,8,0:0:0:0:
344,237,46817,1,0,0:0:0:0:
344,237,46913,1,0,0:0:0:0:
344,237,47010,1,8,0:0:0:0:
341,232,47204,1,8,0:0:0:0:
341,232,47300,1,8,0:0:0:0:
341,232,47397,1,0,0:0:0:0:
341,232,47494,1,0,0:0:0:0:
355,265,47591,1,8,0:0:0:0:
355,265,47688,1,0,0:0:0:0:
355,265,47784,1,8,0:0:0:0:
355,265,47881,1,8,0:0:0:0:
355,265,47978,1,0,0:0:0:0:
355,265,48075,1,0,0:0:0:0:
355,265,48171,1,8,0:0:0:0:
355,265,48268,1,0,0:0:0:0:
355,265,48365,1,8,0:0:0:0:
355,265,48462,1,8,0:0:0:0:
355,265,48559,1,0,0:0:0:0:
355,265,48655,1,8,0:0:0:0:
355,265,48752,1,0,0:0:0:0:
355,265,48849,1,0,0:0:0:0:
355,265,48946,1,8,0:0:0:0:
355,265,49042,1,0,0:0:0:0:
355,265,49139,1,8,0:0:0:0:
355,265,49236,1,8,0:0:0:0:
355,265,49333,1,0,0:0:0:0:
357,273,49526,1,12,0:0:0:0:
356,274,49720,1,0,0:0:0:0:
356,274,49817,1,8,0:0:0:0:
356,274,49913,1,8,0:0:0:0:
356,274,50010,1,0,0:0:0:0:
356,274,50107,1,8,0:0:0:0:
341,232,50300,1,8,0:0:0:0:
341,232,50397,1,0,0:0:0:0:
341,232,50494,1,8,0:0:0:0:
341,232,50591,1,0,0:0:0:0:
355,265,50688,1,8,0:0:0:0:
355,265,50784,1,0,0:0:0:0:
355,265,50881,1,8,0:0:0:0:
355,265,50978,1,8,0:0:0:0:
355,265,51075,1,0,0:0:0:0:
355,265,51171,1,0,0:0:0:0:
355,265,51268,1,8,0:0:0:0:
355,265,51365,1,0,0:0:0:0:
355,265,51462,1,0,0:0:0:0:
355,265,51559,1,0,0:0:0:0:
355,265,51655,1,8,0:0:0:0:
355,265,51752,1,0,0:0:0:0:
355,265,51849,1,8,0:0:0:0:
355,265,51946,1,8,0:0:0:0:
355,265,52042,1,0,0:0:0:0:
355,265,52139,1,0,0:0:0:0:
355,265,52236,1,8,0:0:0:0:
355,265,52333,1,8,0:0:0:0:
355,265,52429,1,0,0:0:0:0:
278,212,52623,1,12,0:0:0:0:
278,212,52817,1,8,0:0:0:0:
278,212,52913,1,8,0:0:0:0:
278,212,53010,1,0,0:0:0:0:
278,212,53107,1,0,0:0:0:0:
278,212,53204,1,8,0:0:0:0:
341,232,53397,1,0,0:0:0:0:
341,232,53494,1,8,0:0:0:0:
341,232,53591,1,0,0:0:0:0:
341,232,53688,1,0,0:0:0:0:
355,265,53784,1,8,0:0:0:0:
355,265,53881,1,0,0:0:0:0:
355,265,53978,1,0,0:0:0:0:
355,265,54075,1,0,0:0:0:0:
355,265,54171,1,8,0:0:0:0:
355,265,54268,1,8,0:0:0:0:
355,265,54365,1,0,0:0:0:0:
355,265,54462,1,0,0:0:0:0:
355,265,54559,1,8,0:0:0:0:
355,265,54655,1,0,0:0:0:0:
355,265,54752,1,0,0:0:0:0:
355,265,54849,1,0,0:0:0:0:
355,265,54946,1,8,0:0:0:0:
355,265,55042,1,8,0:0:0:0:
355,265,55139,1,0,0:0:0:0:
355,265,55236,1,0,0:0:0:0:
355,265,55333,1,8,0:0:0:0:
355,265,55429,1,0,0:0:0:0:
355,265,55526,1,8,0:0:0:0:
333,216,55720,1,12,0:0:0:0:
333,216,55913,1,0,0:0:0:0:
333,216,56010,1,0,0:0:0:0:
333,216,56107,1,8,0:0:0:0:
333,216,56204,1,0,0:0:0:0:
333,216,56300,1,8,0:0:0:0:
341,232,56494,1,0,0:0:0:0:
341,232,56591,1,0,0:0:0:0:
341,232,56688,1,0,0:0:0:0:
341,232,56784,1,0,0:0:0:0:
355,265,56881,1,8,0:0:0:0:
355,265,56978,1,0,0:0:0:0:
355,265,57075,1,0,0:0:0:0:
355,265,57171,1,0,0:0:0:0:
355,265,57268,1,8,0:0:0:0:
355,265,57365,1,0,0:0:0:0:
355,265,57462,1,8,0:0:0:0:
355,265,57559,1,8,0:0:0:0:
355,265,57655,1,0,0:0:0:0:
355,265,57752,1,0,0:0:0:0:
355,265,57849,1,8,0:0:0:0:
355,265,57946,1,0,0:0:0:0:
355,265,58042,1,8,0:0:0:0:
355,265,58139,1,8,0:0:0:0:
355,265,58236,1,0,0:0:0:0:
355,265,58333,1,0,0:0:0:0:
355,265,58429,1,8,0:0:0:0:
330,176,58817,1,12,0:0:0:0:
286,151,59010,1,0,0:0:0:0:
286,151,59107,1,8,0:0:0:0:
286,151,59204,1,0,0:0:0:0:
437,177,59397,1,8,0:0:0:0:
443,178,59591,1,8,0:0:0:0:
443,178,59688,1,8,0:0:0:0:
443,178,59784,1,0,0:0:0:0:
396,187,59978,1,8,0:0:0:0:
396,187,60171,1,0,0:0:0:0:
396,187,60268,1,8,0:0:0:0:
396,187,60365,1,0,0:0:0:0:
396,187,60559,1,0,0:0:0:0:
396,187,60752,1,8,0:0:0:0:
396,187,60946,1,0,0:0:0:0:
396,187,61139,1,8,0:0:0:0:
396,187,61333,1,0,0:0:0:0:
396,187,61526,1,0,0:0:0:0:
396,187,61623,1,0,0:0:0:0:
396,187,61720,1,8,0:0:0:0:
396,187,61817,1,8,0:0:0:0:
396,187,61913,1,0,0:0:0:0:
414,217,62107,1,0,0:0:0:0:
414,217,62300,1,8,0:0:0:0:
414,217,62494,1,0,0:0:0:0:
414,217,62784,1,0,0:0:0:0:
414,217,62881,1,8,0:0:0:0:
415,245,63075,1,0,0:0:0:0:
415,245,63171,1,8,0:0:0:0:
415,245,63268,1,8,0:0:0:0:
415,245,63365,1,8,0:0:0:0:
415,245,63462,1,0,0:0:0:0:
415,245,63655,1,0,0:0:0:0:
415,245,63752,1,8,0:0:0:0:
415,245,63849,1,0,0:0:0:0:
415,245,64042,1,0,0:0:0:0:
411,265,64236,1,8,0:0:0:0:
411,265,64333,1,8,0:0:0:0:
411,265,64429,1,0,0:0:0:0:
411,265,64623,1,0,0:0:0:0:
411,265,64817,1,0,0:0:0:0:
411,265,65010,1,8,0:0:0:0:
411,265,65397,1,0,0:0:0:0:
429,278,65494,1,0,0:0:0:0:
429,278,65591,1,8,0:0:0:0:
429,278,65688,1,0,0:0:0:0:
429,278,65784,1,0,0:0:0:0:
398,217,65978,1,0,0:0:0:0:
398,217,66171,1,8,0:0:0:0:
398,217,66365,1,0,0:0:0:0:
398,217,66559,1,8,0:0:0:0:
396,223,66849,1,0,0:0:0:0:
396,223,66946,1,8,0:0:0:0:
397,223,67042,1,0,0:0:0:0:
397,223,67139,1,8,0:0:0:0:
397,223,67236,1,8,0:0:0:0:
397,223,67333,1,0,0:0:0:0:
398,217,67526,1,0,0:0:0:0:
396,223,67623,1,0,0:0:0:0:
396,223,67720,1,8,0:0:0:0:
396,223,67817,1,8,0:0:0:0:
396,223,67913,1,0,0:0:0:0:
397,223,68010,1,8,0:0:0:0:
397,223,68107,1,0,0:0:0:0:
475,190,68397,1,0,0:0:0:0:
376,204,68446,1,0,0:0:0:0:
475,190,68494,1,8,0:0:0:0:
475,190,68688,1,0,0:0:0:0:
475,190,68881,1,8,0:0:0:0:
475,190,69075,1,0,0:0:0:0:
475,190,69268,1,8,0:0:0:0:
475,190,69462,1,0,0:0:0:0:
475,190,69655,1,8,0:0:0:0:
473,195,69849,1,0,0:0:0:0:
473,195,69946,1,0,0:0:0:0:
473,195,70042,1,8,0:0:0:0:
472,195,70139,1,0,0:0:0:0:
472,195,70236,1,8,0:0:0:0:
471,195,70333,1,8,0:0:0:0:
471,195,70429,1,0,0:0:0:0:
475,190,70623,1,0,0:0:0:0:
474,189,70720,1,0,0:0:0:0:
474,189,70817,1,8,0:0:0:0:
476,189,71204,1,0,0:0:0:0:
476,189,71300,1,0,0:0:0:0:
476,189,71397,1,8,0:0:0:0:
475,190,71494,1,0,0:0:0:0:
475,190,71591,1,0,0:0:0:0:
476,189,71784,1,0,0:0:0:0:
476,189,71881,1,0,0:0:0:0:
476,189,71978,1,8,0:0:0:0:
475,190,72075,1,0,0:0:0:0:
475,190,72171,1,0,0:0:0:0:
476,189,72365,1,0,0:0:0:0:
476,189,72462,1,0,0:0:0:0:
476,189,72559,1,8,0:0:0:0:
475,190,72655,1,0,0:0:0:0:
475,190,72752,1,0,0:0:0:0:
476,189,72946,1,0,0:0:0:0:
476,189,73042,1,0,0:0:0:0:
476,189,73139,1,8,0:0:0:0:
475,190,73236,1,0,0:0:0:0:
475,190,73333,1,8,0:0:0:0:
203,169,73429,1,0,0:0:0:0:
281,174,73526,1,8,0:0:0:0:
281,174,73720,1,0,0:0:0:0:
281,174,73913,1,8,0:0:0:0:
281,174,74107,1,0,0:0:0:0:
371,74,74155,1,8,0:0:0:0:
151,104,74204,1,8,0:0:0:0:
421,146,74300,1,0,0:0:0:0:
476,189,74494,1,0,0:0:0:0:
476,189,74591,1,0,0:0:0:0:
476,189,74688,1,8,0:0:0:0:
475,190,74784,1,0,0:0:0:0:
475,190,74881,1,0,0:0:0:0:
127,177,74978,1,8,0:0:0:0:
127,177,75075,1,0,0:0:0:0:
268,179,75268,1,0,0:0:0:0:
268,179,75365,1,0,0:0:0:0:
268,179,75462,1,8,0:0:0:0:
268,179,75559,1,8,0:0:0:0:
268,179,75655,1,0,0:0:0:0:
268,179,75752,1,0,0:0:0:0:
268,179,75849,1,8,0:0:0:0:
338,194,76042,1,0,0:0:0:0:
334,117,76139,1,0,0:0:0:0:
338,194,76236,1,8,0:0:0:0:
338,194,76429,1,0,0:0:0:0:
345,193,76526,1,0,0:0:0:0:
345,193,76623,1,8,0:0:0:0:
341,125,76720,1,0,0:0:0:0:
339,122,76817,1,8,0:0:0:0:
339,124,77010,1,8,0:0:0:0:
399,120,77204,1,0,0:0:0:0:
399,120,77268,1,0,0:0:0:0:
399,120,77333,1,0,0:0:0:0:
399,120,77397,1,8,0:0:0:0:
101,162,77591,1,0,0:0:0:0:
101,162,77688,1,8,0:0:0:0:
101,162,77784,1,0,0:0:0:0:
264,129,77978,1,0,0:0:0:0:
264,129,78171,1,8,0:0:0:0:
264,129,78365,1,8,0:0:0:0:
264,129,78462,1,8,0:0:0:0:
264,129,78559,1,0,0:0:0:0:
264,129,78752,1,0,0:0:0:0:
261,134,78946,1,8,0:0:0:0:
260,135,79139,1,0,0:0:0:0:
260,135,79236,1,8,0:0:0:0:
260,135,79333,1,0,0:0:0:0:
310,255,79526,1,0,0:0:0:0:
314,227,79720,1,8,0:0:0:0:
314,227,79913,1,0,0:0:0:0:
314,227,80107,1,8,0:0:0:0:
314,227,80300,1,0,0:0:0:0:
314,227,80494,1,8,0:0:0:0:
314,227,80688,1,0,0:0:0:0:
314,227,80784,1,8,0:0:0:0:
314,227,80881,1,0,0:0:0:0:
329,229,81075,1,0,0:0:0:0:
329,229,81268,1,8,0:0:0:0:
329,229,81462,1,8,0:0:0:0:
329,229,81559,1,8,0:0:0:0:
329,229,81655,1,0,0:0:0:0:
329,229,81849,1,0,0:0:0:0:
329,229,82042,1,8,0:0:0:0:
329,229,82236,1,0,0:0:0:0:
329,229,82333,1,8,0:0:0:0:
329,229,82429,1,0,0:0:0:0:
340,197,82623,1,0,0:0:0:0:
340,197,82817,1,8,0:0:0:0:
340,197,83010,1,8,0:0:0:0:
340,197,83107,1,0,0:0:0:0:
340,197,83204,1,8,0:0:0:0:
340,197,83397,1,8,0:0:0:0:
333,189,83591,1,8,0:0:0:0:
333,191,83784,1,0,0:0:0:0:
333,191,83881,1,8,0:0:0:0:
333,191,83978,1,0,0:0:0:0:
309,176,84171,1,0,0:0:0:0:
309,176,84365,1,8,0:0:0:0:
346,142,84559,1,8,0:0:0:0:
346,142,84655,1,8,0:0:0:0:
346,142,84752,1,0,0:0:0:0:
352,145,84946,1,0,0:0:0:0:
352,145,85139,1,8,0:0:0:0:
352,145,85333,1,0,0:0:0:0:
352,145,85429,1,8,0:0:0:0:
352,145,85526,1,0,0:0:0:0:
352,145,85720,1,0,0:0:0:0:
356,149,85913,1,8,0:0:0:0:
356,149,86107,1,0,0:0:0:0:
356,149,86300,1,8,0:0:0:0:
356,149,86494,1,0,0:0:0:0:
372,164,86688,1,8,0:0:0:0:
368,163,86881,1,0,0:0:0:0:
368,163,86978,1,8,0:0:0:0:
368,163,87075,1,0,0:0:0:0:
368,163,87268,1,0,0:0:0:0:
387,164,87462,1,8,0:0:0:0:
380,161,87655,1,8,0:0:0:0:
380,161,87752,1,8,0:0:0:0:
380,160,87849,1,0,0:0:0:0:
379,160,88042,1,0,0:0:0:0:
376,161,88236,1,8,0:0:0:0:
373,162,88429,1,0,0:0:0:0:
373,162,88526,1,8,0:0:0:0:
373,162,88623,1,0,0:0:0:0:
373,162,88817,1,8,0:0:0:0:
373,162,89010,1,0,0:0:0:0:
376,161,89204,1,8,0:0:0:0:
373,162,89300,1,8,0:0:0:0:
373,162,89397,1,8,0:0:0:0:
401,203,89784,1,12,0:0:0:0:
338,194,89978,1,0,0:0:0:0:
345,193,90075,1,0,0:0:0:0:
345,193,90171,1,0,0:0:0:0:
341,125,90268,1,0,0:0:0:0:
339,122,90365,1,8,0:0:0:0:
338,194,90559,1,0,0:0:0:0:
345,193,90655,1,8,0:0:0:0:
345,193,90752,1,0,0:0:0:0:
341,125,90849,1,0,0:0:0:0:
339,122,90946,1,8,0:0:0:0:
166,157,91139,1,0,0:0:0:0:
99,142,91236,1,0,0:0:0:0:
167,101,91333,1,8,0:0:0:0:
247,174,91526,1,0,0:0:0:0:
338,194,91720,1,8,0:0:0:0:
345,193,91817,1,8,0:0:0:0:
345,193,91913,1,0,0:0:0:0:
341,125,92010,1,0,0:0:0:0:
339,122,92107,1,8,0:0:0:0:
338,194,92300,1,0,0:0:0:0:
345,193,92397,1,0,0:0:0:0:
345,193,92494,1,8,0:0:0:0:
341,125,92591,1,0,0:0:0:0:
339,122,92688,1,8,0:0:0:0:
226,163,92784,1,0,0:0:0:0:
226,163,92881,1,8,0:0:0:0:
292,193,93075,1,0,0:0:0:0:
292,193,93171,1,0,0:0:0:0:
292,193,93268,1,8,0:0:0:0:
292,193,93462,1,0,0:0:0:0:
292,193,93752,1,0,0:0:0:0:
292,193,93849,1,8,0:0:0:0:
338,194,94042,1,8,0:0:0:0:
345,193,94139,1,8,0:0:0:0:
345,193,94236,1,0,0:0:0:0:
341,125,94333,1,8,0:0:0:0:
339,122,94429,1,0,0:0:0:0:
153,177,94623,1,0,0:0:0:0:
153,177,94720,1,0,0:0:0:0:
153,177,94817,1,8,0:0:0:0:
153,177,94913,1,0,0:0:0:0:
153,177,95010,1,0,0:0:0:0:
298,187,95204,1,0,0:0:0:0:
298,187,95300,1,8,0:0:0:0:
298,187,95397,1,0,0:0:0:0:
298,187,95591,1,8,0:0:0:0:
298,187,95784,1,0,0:0:0:0:
292,192,95978,1,12,0:0:0:0:
153,177,96171,1,0,0:0:0:0:
153,177,96268,1,0,0:0:0:0:
153,177,96365,1,8,0:0:0:0:
153,177,96462,1,0,0:0:0:0:
153,177,96559,1,8,0:0:0:0:
153,177,96752,1,8,0:0:0:0:
153,177,96849,1,0,0:0:0:0:
153,177,96946,1,0,0:0:0:0:
153,177,97042,1,0,0:0:0:0:
153,177,97139,1,8,0:0:0:0:
153,177,97333,1,0,0:0:0:0:
153,177,97429,1,0,0:0:0:0:
153,177,97526,1,8,0:0:0:0:
153,177,97623,1,0,0:0:0:0:
153,177,97720,1,8,0:0:0:0:
197,169,97817,1,8,0:0:0:0:
197,169,97913,1,0,0:0:0:0:
254,176,98107,1,0,0:0:0:0:
319,181,98300,1,8,0:0:0:0:
319,181,98494,1,0,0:0:0:0:
319,181,98591,1,0,0:0:0:0:
319,181,98688,1,8,0:0:0:0:
319,181,98784,1,8,0:0:0:0:
319,181,98881,1,8,0:0:0:0:
319,181,98978,1,8,0:0:0:0:
319,181,99075,1,0,0:0:0:0:
307,157,99268,1,0,0:0:0:0:
311,158,99365,1,0,0:0:0:0:
311,158,99462,1,8,0:0:0:0:
311,158,99655,1,0,0:0:0:0:
311,158,99946,1,0,0:0:0:0:
311,158,100042,1,8,0:0:0:0:
313,167,100236,1,8,0:0:0:0:
313,167,100333,1,8,0:0:0:0:
313,167,100429,1,0,0:0:0:0:
313,167,100526,1,0,0:0:0:0:
153,177,100623,1,8,0:0:0:0:
153,177,100720,1,8,0:0:0:0:
153,177,100817,1,8,0:0:0:0:
153,177,100913,1,8,0:0:0:0:
153,177,101010,1,0,0:0:0:0:
153,177,101107,1,0,0:0:0:0:
153,177,101204,1,8,0:0:0:0:
153,177,101300,1,8,0:0:0:0:
153,177,101397,1,8,0:0:0:0:
153,177,101494,1,8,0:0:0:0:
153,177,101591,1,0,0:0:0:0:
153,177,101688,1,0,0:0:0:0:
153,177,101784,1,8,0:0:0:0:
153,177,101881,1,8,0:0:0:0:
153,177,101978,1,8,0:0:0:0:
201,150,102075,1,8,0:0:0:0:
201,150,102171,1,0,0:0:0:0:
264,163,102365,1,0,0:0:0:0:
264,163,102462,1,0,0:0:0:0:
264,163,102559,1,8,0:0:0:0:
264,163,102655,1,0,0:0:0:0:
264,163,102752,1,8,0:0:0:0:
256,165,102849,1,8,0:0:0:0:
256,165,102946,1,0,0:0:0:0:
256,165,103042,1,0,0:0:0:0:
256,165,103139,1,0,0:0:0:0:
256,165,103236,1,0,0:0:0:0:
256,165,103333,1,8,0:0:0:0:
262,169,103526,1,0,0:0:0:0:
267,240,103720,1,4,0:0:0:0:
306,259,103913,1,8,0:0:0:0:
306,259,104010,1,0,0:0:0:0:
306,259,104107,1,8,0:0:0:0:
306,259,104203,1,8,0:0:0:0:
306,259,104300,1,0,0:0:0:0:
306,247,104494,1,0,0:0:0:0:
235,41,104590,1,0,0:0:0:0:
306,247,104687,1,8,0:0:0:0:
242,98,104784,1,0,0:0:0:0:
306,246,104881,1,8,0:0:0:0:
306,246,105074,1,0,0:0:0:0:
306,246,105268,1,8,0:0:0:0:
306,247,105461,1,0,0:0:0:0:
309,111,105558,1,0,0:0:0:0:
306,247,105655,1,8,0:0:0:0:
309,111,105752,1,8,0:0:0:0:
306,246,105849,1,0,0:0:0:0:
306,246,106042,1,8,0:0:0:0:
306,246,106139,1,8,0:0:0:0:
306,246,106236,1,0,0:0:0:0:
306,246,106429,1,0,0:0:0:0:
306,246,106526,1,8,0:0:0:0:
306,246,106623,1,0,0:0:0:0:
306,246,106816,1,0,0:0:0:0:
292,187,107010,1,8,0:0:0:0:
292,187,107107,1,8,0:0:0:0:
292,187,107203,1,8,0:0:0:0:
292,187,107300,1,8,0:0:0:0:
292,187,107397,1,0,0:0:0:0:
306,247,107590,1,8,0:0:0:0:
306,247,107687,1,8,0:0:0:0:
306,247,107784,1,0,0:0:0:0:
306,246,107881,1,0,0:0:0:0:
306,246,107978,1,0,0:0:0:0:
306,246,108171,1,0,0:0:0:0:
306,246,108268,1,0,0:0:0:0:
306,246,108365,1,8,0:0:0:0:
306,247,108558,1,0,0:0:0:0:
306,247,108752,1,0,0:0:0:0:
306,246,108849,1,0,0:0:0:0:
306,246,108945,1,8,0:0:0:0:
306,246,109139,1,8,0:0:0:0:
306,246,109236,1,8,0:0:0:0:
306,246,109332,1,0,0:0:0:0:
306,246,109429,1,0,0:0:0:0:
306,246,109526,1,8,0:0:0:0:
306,246,109623,1,0,0:0:0:0:
306,246,109720,1,8,0:0:0:0:
162,165,109913,1,4,0:0:0:0:
332,224,110107,1,0,0:0:0:0:
332,224,110203,1,0,0:0:0:0:
332,224,110300,1,8,0:0:0:0:
358,175,110397,1,0,0:0:0:0:
358,175,110494,1,8,0:0:0:0:
358,175,110590,1,0,0:0:0:0:
358,175,110687,1,8,0:0:0:0:
358,175,110784,1,8,0:0:0:0:
353,178,111074,1,8,0:0:0:0:
353,178,111171,1,8,0:0:0:0:
353,178,111268,1,0,0:0:0:0:
353,178,111365,1,0,0:0:0:0:
353,178,111461,1,8,0:0:0:0:
358,175,111655,1,8,0:0:0:0:
358,175,111752,1,0,0:0:0:0:
358,177,111945,1,8,0:0:0:0:
358,177,112042,1,0,0:0:0:0:
293,152,112236,1,8,0:0:0:0:
293,152,112332,1,0,0:0:0:0:
293,152,112526,1,0,0:0:0:0:
293,152,112623,1,8,0:0:0:0:
293,152,112719,1,0,0:0:0:0:
293,152,112816,1,8,0:0:0:0:
224,183,113010,1,4,0:0:0:0:
280,175,113203,1,8,0:0:0:0:
280,175,113300,1,8,0:0:0:0:
280,175,113397,1,0,0:0:0:0:
280,175,113590,1,0,0:0:0:0:
280,175,113687,1,0,0:0:0:0:
280,175,113784,1,8,0:0:0:0:
280,175,113978,1,8,0:0:0:0:
280,175,114074,1,0,0:0:0:0:
280,175,114268,1,8,0:0:0:0:
280,175,114365,1,0,0:0:0:0:
280,175,114558,1,8,0:0:0:0:
280,175,114655,1,0,0:0:0:0:
280,175,114849,1,8,0:0:0:0:
280,175,114945,1,0,0:0:0:0:
280,175,115042,1,0,0:0:0:0:
280,175,115139,1,8,0:0:0:0:
280,175,115236,1,0,0:0:0:0:
281,169,115332,1,8,0:0:0:0:
280,175,115429,1,0,0:0:0:0:
280,175,115526,1,8,0:0:0:0:
280,175,115623,1,8,0:0:0:0:
280,175,115719,1,0,0:0:0:0:
178,148,115816,1,0,0:0:0:0:
178,148,115913,1,8,0:0:0:0:
321,166,116107,1,4,0:0:0:0:
324,175,116494,1,0,0:0:0:0:
324,175,116590,1,0,0:0:0:0:
324,175,116687,1,8,0:0:0:0:
324,175,116784,1,0,0:0:0:0:
324,175,116881,1,0,0:0:0:0:
324,175,117074,1,0,0:0:0:0:
324,175,117171,1,0,0:0:0:0:
324,175,117268,1,8,0:0:0:0:
324,175,117365,1,0,0:0:0:0:
324,175,117461,1,0,0:0:0:0:
324,175,117655,1,0,0:0:0:0:
324,175,117752,1,0,0:0:0:0:
324,175,117849,1,8,0:0:0:0:
324,175,117945,1,0,0:0:0:0:
324,175,118042,1,0,0:0:0:0:
317,209,118236,1,8,0:0:0:0:
317,209,118332,1,8,0:0:0:0:
317,209,118429,1,0,0:0:0:0:
317,209,118526,1,0,0:0:0:0:
317,209,118623,1,8,0:0:0:0:
317,209,118719,1,0,0:0:0:0:
317,209,118816,1,8,0:0:0:0:
317,209,118913,1,8,0:0:0:0:
317,209,119010,1,0,0:0:0:0:
317,209,119107,1,0,0:0:0:0:
317,209,119203,1,8,0:0:0:0:
317,209,119397,1,8,0:0:0:0:
317,209,119494,1,0,0:0:0:0:
191,197,119687,1,0,0:0:0:0:
191,197,119784,1,8,0:0:0:0:
265,169,119978,1,0,0:0:0:0:
265,169,120074,1,0,0:0:0:0:
265,169,120171,1,8,0:0:0:0:
265,169,120365,1,0,0:0:0:0:
265,169,120461,1,8,0:0:0:0:
265,169,120558,1,0,0:0:0:0:
250,166,120752,1,8,0:0:0:0:
250,166,120849,1,8,0:0:0:0:
250,166,120945,1,0,0:0:0:0:
314,186,121139,1,0,0:0:0:0:
314,186,121236,1,0,0:0:0:0:
314,186,121332,1,8,0:0:0:0:
314,186,121429,1,0,0:0:0:0:
314,186,121526,1,8,0:0:0:0:
314,186,121623,1,8,0:0:0:0:
314,186,121719,1,0,0:0:0:0:
314,186,121816,1,0,0:0:0:0:
314,186,121913,1,8,0:0:0:0:
314,186,122010,1,0,0:0:0:0:
314,186,122107,1,0,0:0:0:0:
314,186,122203,1,8,0:0:0:0:
314,186,122300,1,0,0:0:0:0:
350,222,122494,1,0,0:0:0:0:
350,222,122590,1,0,0:0:0:0:
350,222,122687,1,8,0:0:0:0:
350,222,122784,1,0,0:0:0:0:
344,218,122881,1,8,0:0:0:0:
344,218,122978,1,8,0:0:0:0:
344,218,123074,1,0,0:0:0:0:
356,208,123268,1,0,0:0:0:0:
356,208,123365,1,8,0:0:0:0:
356,208,123461,1,0,0:0:0:0:
357,208,123655,1,0,0:0:0:0:
357,208,123849,1,8,0:0:0:0:
357,208,124042,1,0,0:0:0:0:
356,208,124139,1,0,0:0:0:0:
356,208,124236,1,8,0:0:0:0:
356,208,124332,1,8,0:0:0:0:
356,208,124429,1,0,0:0:0:0:
357,208,124526,1,0,0:0:0:0:
357,208,124623,1,8,0:0:0:0:
357,208,124816,1,0,0:0:0:0:
123,151,124913,1,0,0:0:0:0:
123,151,125010,1,8,0:0:0:0:
356,208,125203,1,8,0:0:0:0:
352,212,125300,1,8,0:0:0:0:
344,226,125397,1,4,0:0:0:0:
344,219,125590,1,0,0:0:0:0:
344,219,125687,1,0,0:0:0:0:
344,219,125784,1,8,0:0:0:0:
344,219,125881,1,0,0:0:0:0:
344,219,125978,1,0,0:0:0:0:
386,259,126171,1,0,0:0:0:0:
386,259,126268,1,0,0:0:0:0:
386,259,126365,1,8,0:0:0:0:
386,259,126461,1,0,0:0:0:0:
386,259,126558,1,8,0:0:0:0:
386,259,126655,1,8,0:0:0:0:
386,259,126752,1,0,0:0:0:0:
386,259,126849,1,0,0:0:0:0:
386,259,126945,1,8,0:0:0:0:
386,259,127042,1,8,0:0:0:0:
386,259,127139,1,8,0:0:0:0:
386,259,127236,1,8,0:0:0:0:
386,259,127332,1,0,0:0:0:0:
386,259,127429,1,0,0:0:0:0:
386,259,127526,1,8,0:0:0:0:
380,256,127623,1,8,0:0:0:0:
380,256,127719,1,0,0:0:0:0:
380,256,127816,1,8,0:0:0:0:
380,256,127913,1,0,0:0:0:0:
380,256,128010,1,0,0:0:0:0:
380,256,128107,1,8,0:0:0:0:
391,263,128494,1,12,0:0:0:0:
361,210,128687,1,0,0:0:0:0:
361,210,128784,1,8,0:0:0:0:
361,210,128881,1,0,0:0:0:0:
366,208,129074,1,8,0:0:0:0:
366,208,129268,1,8,0:0:0:0:
366,208,129365,1,8,0:0:0:0:
366,208,129461,1,0,0:0:0:0:
366,208,129655,1,8,0:0:0:0:
366,208,129849,1,0,0:0:0:0:
366,208,129945,1,8,0:0:0:0:
366,208,130042,1,0,0:0:0:0:
366,208,130236,1,0,0:0:0:0:
366,208,130429,1,8,0:0:0:0:
366,208,130623,1,0,0:0:0:0:
366,208,130816,1,8,0:0:0:0:
366,208,131203,1,0,0:0:0:0:
366,208,131300,1,0,0:0:0:0:
366,208,131397,1,8,0:0:0:0:
366,208,131494,1,8,0:0:0:0:
363,200,131590,1,0,0:0:0:0:
363,200,131784,1,0,0:0:0:0:
386,217,131978,1,8,0:0:0:0:
386,217,132171,1,0,0:0:0:0:
383,224,132461,1,0,0:0:0:0:
383,224,132558,1,8,0:0:0:0:
381,235,132752,1,8,0:0:0:0:
381,235,132849,1,0,0:0:0:0:
381,235,132945,1,8,0:0:0:0:
381,235,133042,1,8,0:0:0:0:
382,235,133139,1,0,0:0:0:0:
382,235,133332,1,0,0:0:0:0:
382,235,133429,1,0,0:0:0:0:
382,235,133526,1,8,0:0:0:0:
381,235,133719,1,0,0:0:0:0:
381,240,134107,1,8,0:0:0:0:
381,240,134203,1,8,0:0:0:0:
358,257,134300,1,0,0:0:0:0:
