osu file format v14

[General]
AudioFilename: audio.mp3
AudioLeadIn: 0
PreviewTime: 25371
Countdown: 0
SampleSet: Soft
StackLeniency: 0.2
Mode: 0
LetterboxInBreaks: 0
WidescreenStoryboard: 1

[Editor]
Bookmarks: 25465,38590,38965,50965,61465,70465,88465,92965,104965,113215
DistanceSpacing: 0.2
BeatDivisor: 4
GridSize: 16
TimelineZoom: 1.800001

[Metadata]
Title:Dual Fractal
TitleUnicode:Dual Fractal
Artist:M2U
ArtistUnicode:M2U
Creator:Hynix
Version:Necho's Functional
Source:CHUNITHM STAR PLUS
Tags:setu shiratamamywife necho reincarnation cqmasai electronic instrumental rhythm video game CHUNITHM チュウニズム スター プラス ep. VII 7
BeatmapID:3195652
BeatmapSetID:1563134

[Difficulty]
HPDrainRate:5
CircleSize:4
OverallDifficulty:8
ApproachRate:9.4
SliderMultiplier:1.6
SliderTickRate:1

[Events]
//Background and Video events
0,0,"wallhaven-g79dq7.jpg",0,0
//Break Periods
//Storyboard Layer 0 (Background)
//Storyboard Layer 1 (Fail)
//Storyboard Layer 2 (Pass)
//Storyboard Layer 3 (Foreground)
//Storyboard Layer 4 (Overlay)
//Storyboard Sound Samples

[TimingPoints]
1465,375,4,2,1,50,1,0
7465,-66.6666666666667,4,2,1,50,0,0
7840,-100,4,2,1,50,0,0
10840,-133.333333333333,4,2,1,50,0,0
11215,-100,4,2,1,50,0,0
11590,-66.6666666666667,4,2,1,50,0,0
11965,-100,4,2,1,50,0,0
12715,-50,4,2,1,50,0,0
13465,-100,4,2,1,50,0,0
14965,-100,4,2,1,55,0,0
15433,-100,4,2,1,50,0,0
15621,-100,4,2,1,55,0,0
16090,-100,4,2,1,50,0,0
16465,-100,4,2,1,60,0,0
16933,-100,4,2,1,50,0,0
17121,-100,4,2,1,60,0,0
17590,-100,4,2,1,50,0,0
17965,-100,4,2,1,65,0,0
18433,-100,4,2,1,50,0,0
18621,-100,4,2,1,65,0,0
19090,-100,4,2,1,50,0,0
19277,-100,4,2,1,65,0,0
19370,-100,4,2,1,50,0,0
19465,-100,4,2,1,65,0,0
20965,-100,4,2,1,50,0,0
25371,-100,4,2,1,70,0,0
26120,-100,4,2,1,50,0,0
26215,-100,4,2,1,70,0,0
26402,-100,4,2,1,50,0,0
26590,-100,4,2,1,70,0,0
26777,-100,4,2,1,50,0,0
26871,-100,4,2,1,70,0,0
26965,-66.6666666666667,4,2,1,70,0,0
27152,-66.6666666666667,4,2,1,50,0,0
27340,-100,4,2,1,70,0,0
27433,-100,4,2,1,50,0,0
27527,-100,4,2,1,70,0,0
27620,-100,4,2,1,50,0,0
27715,-66.6666666666667,4,2,1,70,0,0
27902,-66.6666666666667,4,2,1,50,0,0
28090,-100,4,2,1,70,0,0
28277,-100,4,2,1,50,0,0
28465,-100,4,2,1,70,0,0
28746,-100,4,2,1,50,0,0
28840,-66.6666666666667,4,2,1,70,0,0
29027,-66.6666666666667,4,2,1,50,0,0
29121,-66.6666666666667,4,2,1,70,0,0
29496,-66.6666666666667,4,2,1,50,0,0
29590,-100,4,2,1,70,0,0
30433,-100,4,2,1,50,0,0
30527,-100,4,2,1,70,0,0
30715,-50,4,2,1,70,0,0
31371,-50,4,2,1,50,0,0
31465,-100,4,2,1,70,0,0
33902,-50,4,2,1,70,0,0
33995,-50,4,2,1,50,0,0
34089,-50,4,2,1,70,0,0
34182,-50,4,2,1,50,0,0
34277,-50,4,2,1,70,0,0
34370,-50,4,2,1,50,0,0
34465,-100,4,2,1,70,0,0
36715,-66.6666666666667,4,2,1,70,0,0
36808,-66.6666666666667,4,2,1,50,0,0
36902,-66.6666666666667,4,2,1,70,0,0
38590,-66.6666666666667,4,2,1,50,0,0
38871,-100,4,2,2,60,0,0
39246,-100,4,2,2,50,0,0
39340,-100,4,2,2,60,0,0
39996,-100,4,2,2,50,0,0
40090,-100,4,2,2,60,0,0
40277,-100,4,2,2,50,0,0
40371,-100,4,2,2,60,0,0
41308,-100,4,2,2,50,0,0
41496,-100,4,2,2,60,0,0
42152,-100,4,2,2,50,0,0
42246,-100,4,2,2,60,0,0
42902,-100,4,2,2,50,0,0
42996,-100,4,2,2,60,0,0
43277,-100,4,2,2,50,0,0
43371,-100,4,2,2,60,0,0
44965,-100,4,2,1,70,0,0
45433,-100,4,2,1,50,0,0
45527,-100,4,2,1,70,0,0
45620,-100,4,2,1,50,0,0
45715,-100,4,2,1,70,0,0
46465,-66.6666666666667,4,2,1,70,0,0
48310,-100,4,2,0,50,0,0
48340,-100,4,2,1,70,0,0
48715,-133.333333333333,4,2,1,70,0,0
49090,-100,4,2,1,70,0,0
49465,-66.6666666666667,4,2,1,70,0,0
49558,-66.6666666666667,4,2,1,50,0,0
49652,-66.6666666666667,4,2,1,70,0,0
50308,-66.6666666666667,4,2,1,50,0,0
50402,-66.6666666666667,4,2,1,70,0,0
50495,-66.6666666666667,4,2,1,50,0,0
50590,-66.6666666666667,4,2,1,70,0,0
50871,-66.6666666666667,4,2,1,50,0,0
50965,-100,4,2,2,60,0,0
51246,-100,4,2,2,50,0,0
51340,-100,4,2,2,60,0,0
51996,-100,4,2,2,50,0,0
52090,-100,4,2,2,60,0,0
52277,-100,4,2,2,50,0,0
52371,-100,4,2,2,60,0,0
54152,-100,4,2,2,50,0,0
54246,-100,4,2,2,60,0,0
56965,-100,4,2,1,70,0,0
57433,-100,4,2,1,50,0,0
57527,-100,4,2,1,70,0,0
57620,-100,4,2,1,50,0,0
57715,-100,4,2,1,70,0,0
58090,-50,4,2,1,70,0,0
58183,-50,4,2,1,50,0,0
58277,-50,4,2,1,70,0,0
58370,-50,4,2,1,50,0,0
58465,-50,4,2,1,70,0,0
58746,-50,4,2,1,50,0,0
58840,-50,4,2,1,70,0,0
59215,-66.6666666666667,4,2,1,70,0,0
60620,-66.6666666666667,4,2,1,50,0,0
60715,-50,4,2,1,70,0,0
61183,-50,4,2,1,50,0,0
61277,-50,4,2,1,70,0,0
61370,-50,4,2,1,50,0,0
61465,-50,4,2,1,70,0,0
61840,-100,4,2,1,70,0,0
62215,-66.6666666666667,4,2,1,70,0,0
62590,-50,4,2,1,70,0,0
63340,-100,4,2,1,70,0,0
64090,-50,4,2,1,70,0,0
64465,-100,4,2,2,70,0,0
66808,-100,4,2,2,50,0,0
66902,-100,4,2,2,70,0,0
66995,-100,4,2,2,50,0,0
67090,-50,4,2,2,70,0,0
67183,-50,4,2,2,50,0,0
67277,-50,4,2,2,70,0,0
67370,-50,4,2,2,50,0,0
67465,-66.6666666666667,4,2,1,70,0,0
69995,-66.6666666666667,4,2,1,50,0,0
70090,-100,4,2,1,70,0,0
70371,-100,4,2,1,50,0,0
70465,-100,4,2,1,70,0,0
73090,-50,4,2,1,70,0,0
73933,-50,4,2,1,50,0,0
74027,-50,4,2,1,70,0,0
74120,-50,4,2,1,50,0,0
74215,-50,4,2,1,70,0,0
76465,-100,4,2,1,70,0,0
76746,-100,4,2,1,50,0,0
76840,-100,4,2,1,70,0,0
78246,-100,4,2,1,50,0,0
78340,-100,4,2,1,70,0,0
79746,-100,4,2,1,50,0,0
79840,-100,4,2,1,70,0,0
81246,-100,4,2,1,50,0,0
81340,-100,4,2,1,70,0,0
82652,-100,4,2,1,50,0,0
82840,-100,4,2,1,70,0,0
88652,-100,4,2,1,50,0,0
90340,-100,4,2,1,60,0,0
91746,-100,4,2,1,50,0,0
91840,-100,4,2,1,60,0,0
92965,-100,4,2,2,70,0,0
93277,-100,4,2,2,50,0,0
93340,-100,4,2,2,70,0,0
94652,-100,4,2,2,50,0,0
94715,-100,4,2,2,70,0,0
95402,-100,4,2,2,50,0,0
95496,-100,4,2,2,70,0,0
95683,-100,4,2,2,50,0,0
95777,-100,4,2,2,70,0,0
95870,-100,4,2,2,50,0,0
95965,-100,4,2,2,70,0,0
104871,-100,4,2,2,50,0,0
104965,-100,4,2,1,70,0,0
105715,-66.6666666666667,4,2,1,70,0,0
106090,-50,4,2,1,70,0,0
106840,-100,4,2,1,70,0,0
107215,-66.6666666666667,4,2,1,70,0,0
107590,-50,4,2,1,70,0,0
107965,-100,4,2,1,70,0,0
109652,-66.6666666666667,4,2,1,70,0,0
110215,-50,4,2,1,70,0,0
110965,-100,4,2,1,70,0,0
111715,-66.6666666666667,4,2,1,70,0,0
112465,-50,4,2,1,70,0,0

[Colours]
Combo1 : 197,78,107
Combo2 : 128,128,192
Combo3 : 67,174,209
Combo4 : 182,113,67

[HitObjects]
17,222,1465,5,2,0:0:0:0:
179,200,2168,1,0,0:0:0:0:
179,200,2215,1,0,0:0:0:0:
205,52,2590,1,0,0:0:0:0:
122,28,2871,5,0,0:0:0:0:
122,28,2965,2,0,P|120:122|71:200,1,160,2|0,0:0|0:0,0:0:0:0:
17,222,3715,2,0,B|45:248|45:248|54:330|54:330|96:366,1,160
166,279,4371,1,0,0:0:0:0:
166,279,4465,2,0,L|293:258,1,120,2|0,0:0|0:0,0:0:0:0:
366,272,4840,2,0,B|388:252|387:218|387:218|403:250|460:263,1,120
449,243,5215,5,2,0:0:0:0:
503,349,5590,1,0,0:0:0:0:
449,243,5965,2,0,B|456:313|394:344|394:344|411:293,1,160,2|0,0:0|0:0,0:0:0:0:
367,243,6715,5,0,0:0:0:0:
289,107,7090,1,0,0:0:0:0:
446,4,7371,5,0,0:0:0:0:
446,4,7465,2,0,P|493:75|467:176,1,180.000006866455,2|0,0:0|0:0,0:0:0:0:
462,149,7840,2,0,P|445:102|383:108,1,120
373,124,8215,2,0,B|376:157|376:157|381:165|381:165|387:222,1,80
401,219,8590,5,0,0:0:0:0:
294,260,8777,1,0,0:0:0:0:
162,184,8965,2,0,P|134:114|163:64,1,120,2|0,0:0|0:0,0:0:0:0:
164,61,9340,1,0,0:0:0:0:
245,77,9527,1,0,0:0:0:0:
271,168,9715,1,2,0:0:0:0:
347,147,9902,1,0,0:0:0:0:
359,68,10090,5,2,0:0:0:0:
326,139,10277,1,0,0:0:0:0:
409,211,10465,6,0,B|455:229|481:196|481:196|465:175|477:153,1,120,2|0,0:0|0:0,0:0:0:0:
466,145,10840,2,0,P|442:179|449:248,1,90.0000034332276
456,236,11215,2,0,P|376:227|325:275,1,120,2|0,0:0|0:0,0:0:0:0:
276,205,11590,2,0,P|304:305|208:350,1,180.000006866455
235,353,11965,6,0,B|204:282|204:282|76:293|76:293|38:203,1,280,2|0,0:0|0:0,0:0:0:0:
35,214,12715,2,0,P|62:46|246:234,1,560
242,206,13465,6,0,B|291:147|385:169|385:169|313:196,1,200
455,123,14121,1,0,0:0:0:0:
486,214,14215,2,0,B|493:141|493:141|492:132|492:132|499:45,1,160,2|0,0:0|0:0,0:0:0:0:
320,131,14965,6,0,B|308:94|308:94|405:53|465:136,1,200
390,188,15621,1,0,0:0:0:0:
325,249,15715,2,0,P|368:215|470:246,1,160,2|0,0:0|0:0,0:0:0:0:
327,365,16465,6,0,B|308:337|308:337|294:212|294:212|313:167,1,200
454,13,17121,1,0,0:0:0:0:
461,140,17215,2,0,B|416:148|400:186|400:186|409:140|373:107,1,160,2|0,0:0|0:0,0:0:0:0:
511,344,17965,6,0,P|426:368|359:270,1,200
166,93,18621,1,0,0:0:0:0:
48,245,18715,2,0,L|237:220,1,160,2|0,0:0|0:0,0:0:0:0:
459,55,19277,2,0,L|449:108,1,40
415,281,19465,1,12,0:1:0:0:
256,192,20965,12,0,22371,0:0:0:0:
256,192,22465,12,0,23965,0:0:0:0:
141,74,25371,5,2,0:0:0:0:
135,65,25418,1,2,0:0:0:0:
126,60,25465,1,4,3:2:0:0:
55,27,25652,5,0,0:0:0:0:
46,66,25746,1,0,0:0:0:0:
61,103,25840,1,0,0:0:0:0:
121,156,26027,2,0,L|105:199,1,40
20,283,26215,6,0,P|53:331|61:366,1,80,8|0,0:0|0:0,0:0:0:0:
177,243,26590,2,0,P|181:301|171:335,1,80
188,337,26871,1,0,0:0:0:0:
200,352,26965,6,0,P|184:310|256:272,1,120.000004577637,0|0,3:0|0:0,0:0:0:0:
414,207,27340,2,0,L|427:257,1,40
495,277,27527,2,0,P|482:300|454:322,1,40
319,356,27715,2,0,L|180:351,1,120.000004577637,8|0,0:0|0:0,0:0:0:0:
83,301,28090,2,0,B|77:328|101:341|101:341|94:322|97:308,1,80
175,208,28465,6,0,P|239:195|266:142,1,120,0|0,3:0|0:0,0:0:0:0:
272,141,28840,2,0,P|243:217|307:252,1,120.000004577637
340,300,29121,1,0,0:0:0:0:
340,300,29215,2,0,B|329:279|329:279|394:217|501:256,1,180.000006866455,8|0,0:0|0:0,0:0:0:0:
487,263,29590,5,0,0:0:0:0:
455,239,29683,1,0,0:0:0:0:
439,202,29777,1,0,0:0:0:0:
442,163,29871,1,0,0:0:0:0:
464,130,29965,6,0,P|491:202|416:317,1,200,0|0,3:0|0:0,0:0:0:0:
358,373,30527,5,0,0:0:0:0:
285,342,30621,1,0,0:0:0:0:
208,336,30715,2,0,B|107:308|25:385|25:385|135:356|150:231|150:231|52:220|-11:313,1,560,8|0,0:0|0:0,0:0:0:0:
6,293,31465,5,6,3:2:0:0:
54,233,31652,2,0,L|62:185,2,40,0|0|8,0:0|0:0|0:0,0:0:0:0:
108,133,32027,1,0,0:0:0:0:
245,265,32215,5,0,3:2:0:0:
179,212,32402,2,0,L|126:203,2,40,0|0|8,0:0|0:0|0:0,0:0:0:0:
69,152,32777,1,0,0:0:0:0:
194,259,32965,5,0,3:2:0:0:
254,184,33152,2,0,L|264:124,2,40,0|0|8,0:0|0:0|0:0,0:0:0:0:
322,59,33527,1,0,0:0:0:0:
439,208,33715,5,2,3:2:0:0:
379,160,33902,2,0,B|348:133|348:133|309:140,1,80,2|0,0:0|0:0,0:0:0:0:
443,0,34089,2,0,B|474:27|474:27|513:20,1,80,10|0,0:0|0:0,0:0:0:0:
212,146,34277,2,0,B|239:115|239:115|232:76,1,80,2|0,0:0|0:0,0:0:0:0:
133,287,34465,6,0,L|223:275,1,80,6|0,3:2|0:0,0:0:0:0:
229,266,34746,1,0,0:0:0:0:
248,269,34840,1,8,0:0:0:0:
354,371,35027,1,0,0:0:0:0:
334,111,35215,6,0,L|346:208,1,80,2|0,3:2|0:0,0:0:0:0:
356,214,35496,1,0,0:0:0:0:
353,234,35590,1,8,0:0:0:0:
243,348,35777,1,0,0:0:0:0:
512,330,35965,6,0,L|401:344,1,80,2|0,3:2|0:0,0:0:0:0:
394,355,36246,1,0,0:0:0:0:
345,249,36340,1,8,0:0:0:0:
363,283,36433,1,0,3:0:0:0:
359,322,36527,1,0,3:0:0:0:
333,352,36621,1,0,3:0:0:0:
295,363,36715,2,0,P|269:344|273:303,1,60.0000022888184,2|0,3:2|0:0,0:0:0:0:
256,192,36902,12,0,38590,0:0:0:0:
435,146,38871,5,2,0:0:0:0:
429,154,38918,1,2,0:0:0:0:
422,162,38965,2,0,P|413:127|453:52,1,120,4|0,3:2|0:0,0:0:0:0:
512,4,39340,1,0,0:0:0:0:
481,29,39433,1,0,0:0:0:0:
441,37,39527,1,0,0:0:0:0:
401,30,39621,1,0,0:0:0:0:
366,8,39715,2,0,B|313:2|313:2|301:6|301:6|246:-1,1,120,8|0,0:0|0:0,0:0:0:0:
235,14,40090,6,0,P|246:84|272:96,1,80
316,124,40371,1,0,0:0:0:0:
316,124,40465,6,0,L|326:189,2,40,0|0|0,3:0|0:0|0:0,0:0:0:0:
382,77,40746,1,0,0:0:0:0:
382,77,40840,6,0,L|408:16,2,40
403,125,41121,1,0,0:0:0:0:
416,110,41215,6,0,L|426:175,1,40,8|0,0:0|0:0,0:0:0:0:
448,96,41496,1,0,0:0:0:0:
448,96,41590,2,0,P|376:79|309:75,1,120,0|2,0:0|0:0,0:0:0:0:
320,73,41918,1,2,0:0:0:0:
310,70,41965,6,0,P|283:37|241:32,1,80,0|0,3:0|0:0,0:0:0:0:
169,44,42246,1,0,0:0:0:0:
149,46,42340,5,0,0:0:0:0:
167,81,42433,1,0,0:0:0:0:
166,120,42527,1,0,0:0:0:0:
145,154,42621,1,0,0:0:0:0:
109,171,42715,6,0,L|204:160,1,80,8|0,0:0|0:0,0:0:0:0:
207,170,42996,1,0,0:0:0:0:
204,189,43090,2,0,L|299:178,1,80
302,187,43371,1,0,0:0:0:0:
372,156,43465,6,0,L|382:103,2,40,0|0|0,3:0|0:0|0:0,0:0:0:0:
451,160,43746,1,0,0:0:0:0:
451,160,43840,2,0,P|475:155|502:159,2,40
467,196,44121,1,0,0:0:0:0:
457,235,44215,6,0,L|441:343,1,80,8|0,0:0|0:0,0:0:0:0:
408,298,44496,1,0,0:0:0:0:
413,319,44590,1,0,0:0:0:0:
377,335,44683,1,0,0:0:0:0:
337,336,44777,1,0,0:0:0:0:
300,320,44871,1,0,0:0:0:0:
273,291,44965,5,2,3:2:0:0:
191,278,45152,1,0,0:0:0:0:
215,364,45340,2,0,P|223:340|223:320,1,40,8|0,0:0|0:0,0:0:0:0:
249,207,45527,2,0,P|241:231|241:251,1,40
305,298,45715,5,0,0:0:0:0:
161,271,45902,1,0,3:0:0:0:
266,127,46090,1,8,0:0:0:0:
81,253,46277,1,0,0:0:0:0:
81,253,46371,1,0,0:0:0:0:
81,253,46465,2,0,P|97:192|62:136,1,120.000004577637,2|0,3:2|0:0,0:0:0:0:
42,149,46746,1,0,0:0:0:0:
40,118,46840,5,8,0:0:0:0:
232,56,47027,1,0,0:0:0:0:
136,87,47215,5,0,0:0:0:0:
232,56,47402,1,0,3:0:0:0:
243,50,47496,1,0,0:0:0:0:
254,47,47590,1,10,0:2:0:0:
296,27,47683,1,2,0:0:0:0:
342,37,47777,1,2,0:0:0:0:
373,72,47871,1,2,0:0:0:0:
360,151,47965,5,2,3:2:0:0:
434,127,48058,2,0,L|509:105,2,60.0000022888184
371,134,48340,5,2,3:2:0:0:
392,200,48433,2,0,L|411:267,2,40
381,146,48715,5,2,3:2:0:0:
332,161,48808,2,0,L|282:175,2,30.0000011444092
381,133,49090,5,2,3:2:0:0:
389,150,49183,1,0,0:0:0:0:
372,158,49277,1,0,0:0:0:0:
364,141,49371,1,0,0:0:0:0:
366,55,49465,6,0,P|408:58|453:101,1,60.0000022888184,2|0,3:3|0:0,0:0:0:0:
389,239,49652,2,0,P|347:236|302:193,1,60.0000022888184
228,37,49840,2,0,P|281:104|245:182,1,180.000006866455,2|0,0:3|0:0,0:0:0:0:
97,80,50215,6,0,B|63:82|63:82|101:96,1,60.0000022888184,2|0,0:3|0:0,0:0:0:0:
164,117,50402,2,0,B|198:115|198:115|160:101,1,60.0000022888184
94,192,50590,2,0,L|111:380,1,180.000006866455,4|0,3:0|0:0,0:0:0:0:
84,355,50965,6,0,B|73:330|73:330|121:304|192:352,1,120,4|0,3:2|0:0,0:0:0:0:
241,359,51340,1,0,0:0:0:0:
253,321,51433,1,0,0:0:0:0:
249,281,51527,1,0,0:0:0:0:
230,246,51621,1,0,0:0:0:0:
199,222,51715,2,0,P|162:258|176:333,1,120,8|0,0:0|0:0,0:0:0:0:
241,359,52090,6,0,B|275:352|275:352|285:355|285:355|347:345,1,80
337,358,52371,1,0,0:0:0:0:
407,326,52465,5,0,3:0:0:0:
431,329,52558,1,0,0:0:0:0:
452,339,52652,2,0,P|443:303|412:284,1,40
462,224,52840,5,0,0:0:0:0:
463,207,52933,1,0,0:0:0:0:
470,193,53027,2,0,P|445:199|433:220,1,40
367,243,53215,6,0,P|346:192|353:139,1,80,8|0,0:0|0:0,0:0:0:0:
356,151,53496,1,0,0:0:0:0:
367,134,53590,1,0,0:0:0:0:
488,9,53871,5,2,0:0:0:0:
493,17,53918,1,2,0:0:0:0:
498,25,53965,2,0,L|405:18,1,80,2|0,3:2|0:0,0:0:0:0:
340,12,54246,1,0,0:0:0:0:
359,15,54340,1,0,0:0:0:0:
372,52,54433,1,0,0:0:0:0:
362,90,54527,1,0,0:0:0:0:
334,117,54621,1,0,0:0:0:0:
295,124,54715,5,8,0:0:0:0:
482,110,54996,1,0,0:0:0:0:
476,129,55090,1,0,0:0:0:0:
470,223,55371,1,0,0:0:0:0:
464,242,55465,6,0,P|482:234|516:239,2,40,0|0|0,3:0|0:0|0:0,0:0:0:0:
388,212,55746,1,0,0:0:0:0:
394,193,55840,2,0,P|376:201|342:196,2,40
357,123,56121,1,0,0:0:0:0:
357,123,56215,6,0,L|259:133,1,80,8|0,0:0|0:0,0:0:0:0:
214,87,56496,1,0,0:0:0:0:
224,71,56590,1,0,0:0:0:0:
241,106,56683,1,0,0:0:0:0:
241,146,56777,1,0,0:0:0:0:
224,181,56871,1,0,0:0:0:0:
192,206,56965,5,2,3:2:0:0:
104,190,57152,1,0,0:0:0:0:
261,194,57340,6,0,L|211:208,1,40,8|0,0:0|0:0,0:0:0:0:
35,202,57527,2,0,L|85:188,1,40
121,132,57715,1,0,0:0:0:0:
174,263,57902,1,0,3:0:0:0:
59,349,58090,6,0,P|58:300|91:263,1,80,8|0,0:0|0:0,0:0:0:0:
250,383,58277,2,0,P|268:348|265:309,1,80
174,263,58465,6,0,P|246:219|407:229,1,240,2|0,3:2|0:0,0:0:0:0:
471,264,58840,1,10,0:0:0:0:
431,229,58933,1,0,0:0:0:0:
420,178,59027,1,0,0:0:0:0:
443,131,59121,1,0,0:0:0:0:
489,108,59215,5,0,0:0:0:0:
346,25,59402,1,0,3:0:0:0:
374,33,59496,1,0,0:0:0:0:
389,58,59590,2,0,B|379:76|379:76|315:89,1,60.0000022888184,10|2,0:2|0:2,0:0:0:0:
210,112,59777,2,0,B|220:94|220:94|284:81,1,60.0000022888184,2|2,0:2|0:2,0:0:0:0:
307,157,59965,5,2,3:2:0:0:
457,336,60152,1,2,0:2:0:0:
378,324,60246,1,2,0:2:0:0:
390,245,60340,5,2,3:2:0:0:
298,307,60527,2,0,L|287:219,1,60.0000022888184,2|0,0:2|0:0,0:0:0:0:
399,13,60715,6,0,P|420:103|349:185,1,160,2|0,3:2|0:0,0:0:0:0:
210,222,61090,2,0,P|199:175|235:133,1,80,2|0,0:2|0:0,0:0:0:0:
188,70,61277,2,0,B|227:62|227:62|291:106,1,80
501,128,61465,5,6,3:2:0:0:
407,286,61652,1,0,0:0:0:0:
455,359,61840,6,0,P|432:332|430:303,1,40,2|0,3:2|0:0,0:0:0:0:
352,314,62027,2,0,P|364:278|390:261,1,40
351,135,62215,6,0,P|327:184|336:228,1,60.0000022888184,2|0,3:2|0:0,0:0:0:0:
238,212,62402,2,0,P|269:257|312:271,1,60.0000022888184
154,343,62590,6,0,P|156:287|197:244,1,80,2|0,3:2|0:0,0:0:0:0:
55,377,62777,2,0,P|16:335|15:276,1,80
89,14,62965,5,2,3:2:0:0:
128,189,63152,1,0,0:0:0:0:
57,147,63340,6,0,L|46:106,1,40,2|0,3:2|0:0,0:0:0:0:
142,102,63527,2,0,L|163:65,1,40
279,196,63715,1,2,3:2:0:0:
255,228,63808,1,0,0:0:0:0:
219,209,63902,1,0,0:0:0:0:
224,249,63995,1,0,0:0:0:0:
205,285,64090,6,0,P|175:311|106:288,1,80,2|0,3:2|0:0,0:0:0:0:
9,217,64277,1,0,0:0:0:0:
251,372,64465,5,6,3:2:0:0:
325,318,64652,1,0,0:0:0:0:
327,325,64746,1,0,0:0:0:0:
319,323,64840,1,8,0:0:0:0:
364,217,65027,1,0,0:0:0:0:
489,275,65215,5,0,3:2:0:0:
388,229,65402,1,0,0:0:0:0:
394,223,65496,1,0,0:0:0:0:
396,233,65590,1,8,0:0:0:0:
259,249,65777,1,0,0:0:0:0:
253,85,65965,5,0,3:2:0:0:
264,212,66152,1,0,0:0:0:0:
255,210,66246,1,0,0:0:0:0:
264,202,66340,1,8,0:0:0:0:
359,331,66527,1,0,0:0:0:0:
429,90,66715,6,0,P|437:107|436:127,1,40,0|0,3:2|0:0,0:0:0:0:
341,107,66902,2,0,P|341:132|354:150,1,40,2|0,0:2|0:0,0:0:0:0:
452,80,67090,6,0,P|431:43|375:27,1,80,2|0,3:2|0:0,0:0:0:0:
357,182,67277,2,0,P|322:163|303:129,1,80,2|0,0:2|0:0,0:0:0:0:
491,214,67465,6,0,B|506:211|506:211|494:288,1,60.0000022888184,2|0,3:2|0:0,0:0:0:0:
422,349,67652,1,0,0:0:0:0:
451,351,67746,1,0,0:0:0:0:
478,337,67840,1,8,0:0:0:0:
276,253,68027,1,0,0:0:0:0:
319,366,68215,6,0,B|334:369|334:369|322:292,1,60.0000022888184,2|0,3:2|0:0,0:0:0:0:
253,219,68402,1,0,0:0:0:0:
282,217,68496,1,0,0:0:0:0:
309,231,68590,1,8,0:0:0:0:
104,327,68777,1,4,0:3:0:0:
155,212,68965,6,0,B|170:209|170:209|158:286,1,60.0000022888184,8|8,0:3|0:3,0:0:0:0:
77,346,69152,1,4,0:3:0:0:
106,348,69246,1,4,0:3:0:0:
133,334,69340,1,8,0:2:0:0:
104,327,69433,5,0,3:0:0:0:
62,284,69526,1,0,3:0:0:0:
53,226,69620,1,0,3:0:0:0:
81,174,69714,1,0,3:0:0:0:
392,124,69902,2,0,P|389:156|362:169,1,60.0000022888184,2|0,0:3|0:0,0:0:0:0:
244,102,70090,2,0,B|228:91|228:91|203:98|203:98|181:89|181:89|157:95|157:95|130:83,1,120,0|0,0:3|0:0,0:0:0:0:
377,120,70465,5,2,3:2:0:0:
470,307,70840,1,14,0:0:0:0:
456,314,70933,1,0,0:0:0:0:
456,298,71027,1,0,0:0:0:0:
435,348,71215,5,2,0:0:0:0:
426,343,71308,1,2,0:0:0:0:
435,337,71402,1,2,0:0:0:0:
318,280,71590,5,0,3:0:0:0:
348,272,71683,1,0,0:0:0:0:
356,302,71777,1,0,0:0:0:0:
326,310,71871,1,0,0:0:0:0:
198,346,72058,5,0,0:0:0:0:
156,367,72152,1,2,3:2:0:0:
123,334,72246,1,2,0:2:0:0:
143,292,72339,1,2,0:2:0:0:
190,299,72433,1,0,0:2:0:0:
218,229,72527,5,0,3:2:0:0:
228,219,72621,1,0,3:2:0:0:
220,138,72715,5,10,0:2:0:0:
228,59,72808,1,0,0:2:0:0:
150,51,72902,1,0,0:0:0:0:
141,129,72996,1,0,0:0:0:0:
293,173,73090,6,0,P|334:175|379:144,1,80,10|2,0:2|0:2,0:0:0:0:
512,0,73277,2,0,P|471:-2|426:29,1,80,2|2,0:2|0:2,0:0:0:0:
423,314,73465,5,2,3:2:0:0:
480,374,73840,2,0,P|505:335|495:276,1,80,14|0,0:0|0:0,0:0:0:0:
365,252,74027,2,0,P|340:291|350:350,1,80
256,336,74215,5,2,0:0:0:0:
240,343,74308,1,2,0:0:0:0:
233,327,74402,1,2,0:0:0:0:
249,320,74496,1,0,0:0:0:0:
214,344,74590,5,0,3:0:0:0:
175,339,74683,1,0,0:0:0:0:
180,300,74777,1,0,0:0:0:0:
219,305,74871,1,0,0:0:0:0:
188,226,75058,5,0,0:0:0:0:
166,174,75152,1,2,3:2:0:0:
111,179,75246,1,2,0:2:0:0:
99,233,75339,1,2,0:2:0:0:
146,261,75433,1,0,0:0:0:0:
219,231,75527,5,0,3:0:0:0:
233,238,75621,1,0,3:0:0:0:
273,166,75715,5,10,0:0:0:0:
312,235,75808,1,0,0:0:0:0:
379,201,75902,6,2,L|428:193,3,40,0|0|0|0,3:0|3:0|3:0|3:0,0:0:0:0:
456,127,76090,5,10,0:2:0:0:
454,205,76183,1,2,3:2:0:0:
452,283,76277,1,2,3:2:0:0:
450,361,76371,1,2,3:2:0:0:
487,256,76465,6,0,P|494:324|469:374,1,120,6|0,3:2|0:0,0:0:0:0:
408,270,76840,2,0,P|393:317|411:364,1,80,2|0,3:2|0:0,0:0:0:0:
284,285,77121,1,0,0:0:0:0:
275,296,77215,1,10,0:0:0:0:
298,287,77308,1,0,0:0:0:0:
279,272,77402,1,0,0:0:0:0:
195,336,77590,5,2,0:0:0:0:
187,296,77683,1,0,0:0:0:0:
192,257,77777,1,2,0:0:0:0:
209,221,77871,1,0,0:0:0:0:
271,160,77965,6,0,P|199:189|139:182,1,120,2|0,3:2|0:0,0:0:0:0:
152,74,78340,2,0,P|194:57|228:56,1,80,2|0,3:2|0:0,0:0:0:0:
349,88,78621,1,0,0:0:0:0:
362,107,78715,5,10,0:2:0:0:
330,101,78808,1,2,0:0:0:0:
336,69,78902,1,2,0:0:0:0:
368,75,78996,1,2,0:0:0:0:
386,106,79090,5,2,0:2:0:0:
367,50,79183,1,2,0:2:0:0:
311,69,79277,1,2,0:2:0:0:
330,125,79371,1,2,0:2:0:0:
479,145,79465,6,0,B|489:164|489:164|481:243|481:243|461:264,1,120,2|0,3:2|0:0,0:0:0:0:
304,331,79840,2,0,B|297:318|297:318|302:268|302:268|315:255,1,80,2|0,3:2|0:0,0:0:0:0:
388,327,80121,1,0,0:0:0:0:
304,331,80215,5,10,0:2:0:0:
264,336,80308,1,2,0:2:0:0:
224,342,80402,1,2,0:2:0:0:
185,347,80496,1,2,0:2:0:0:
156,337,80590,5,2,0:2:0:0:
213,328,80684,1,2,0:2:0:0:
272,319,80778,1,2,0:2:0:0:
329,311,80871,1,2,0:2:0:0:
441,318,80965,6,0,B|452:354|452:354|460:246,1,120,2|0,3:2|0:0,0:0:0:0:
324,154,81340,2,0,B|303:189|303:189|324:244,1,80,2|0,3:2|0:0,0:0:0:0:
406,209,81621,1,0,0:0:0:0:
399,129,81715,1,10,0:0:0:0:
390,110,81808,1,0,0:0:0:0:
398,92,81902,2,0,L|430:87,3,20,0|0|0|0,3:0|3:0|3:0|3:0,0:0:0:0:
321,71,82090,5,10,0:2:0:0:
337,147,82183,1,2,3:2:0:0:
297,214,82277,1,2,3:2:0:0:
221,234,82371,1,2,3:2:0:0:
214,315,82465,6,0,B|225:336|225:336|301:326,1,80,2|0,3:2|0:0,0:0:0:0:
468,228,82840,2,0,B|457:207|457:207|381:217,1,80,2|0,3:2|0:0,0:0:0:0:
466,340,83121,1,0,0:0:0:0:
447,366,83215,5,10,0:2:0:0:
436,336,83308,1,2,0:2:0:0:
455,310,83403,1,2,0:2:0:0:
317,376,83590,5,2,0:2:0:0:
340,343,83684,1,2,0:2:0:0:
348,305,83778,1,2,0:2:0:0:
341,266,83871,1,2,0:2:0:0:
262,288,83965,6,0,B|268:309|268:309|232:313|185:279,1,80,2|0,3:2|0:0,0:0:0:0:
100,269,84246,1,0,0:0:0:0:
64,250,84340,2,0,P|123:252|145:272,1,80,2|0,3:2|0:0,0:0:0:0:
149,345,84621,1,0,0:0:0:0:
167,363,84715,5,10,0:2:0:0:
147,365,84808,1,2,0:2:0:0:
127,368,84902,1,2,0:2:0:0:
221,268,85090,5,2,0:2:0:0:
260,272,85183,1,2,0:2:0:0:
300,277,85277,1,2,0:2:0:0:
340,282,85371,1,2,0:2:0:0:
442,339,85465,6,0,B|456:357|456:357|529:365,1,80,2|0,3:2|0:0,0:0:0:0:
394,221,85840,2,0,B|380:203|380:203|307:195,1,80,2|0,3:2|0:0,0:0:0:0:
217,183,86121,1,2,0:2:0:0:
183,110,86215,5,10,0:0:0:0:
209,154,86308,1,2,0:0:0:0:
200,206,86402,1,2,0:0:0:0:
159,238,86496,1,2,0:0:0:0:
79,232,86590,5,2,0:0:0:0:
49,182,86683,1,2,0:0:0:0:
59,125,86777,1,2,0:0:0:0:
104,90,86871,1,2,0:0:0:0:
209,154,86965,6,0,L|322:142,1,80,2|0,3:2|0:0,0:0:0:0:
427,46,87246,1,0,0:0:0:0:
427,46,87340,2,0,L|435:125,1,80,2|0,3:2|0:0,0:0:0:0:
449,243,87621,1,0,0:0:0:0:
444,264,87715,5,10,0:2:0:0:
431,227,87808,1,2,0:0:0:0:
470,235,87902,1,2,0:2:0:0:
432,180,88090,5,2,0:2:0:0:
410,253,88183,1,2,0:0:0:0:
465,305,88276,1,2,0:0:0:0:
487,232,88371,1,2,0:0:0:0:
449,243,88465,6,0,L|434:338,1,80,4|0,0:1|0:0,0:0:0:0:
338,345,88840,1,0,0:0:0:0:
350,265,89027,1,0,0:0:0:0:
240,178,89215,6,0,B|258:196|258:196|268:264,1,80
265,249,89590,1,0,0:0:0:0:
187,270,89777,1,0,0:0:0:0:
161,198,89964,1,0,0:0:0:0:
197,107,90152,1,0,0:0:0:0:
265,249,90340,5,2,0:0:0:0:
191,335,90527,1,0,0:0:0:0:
48,356,90715,1,0,0:0:0:0:
28,222,90902,5,0,0:0:0:0:
184,255,91090,1,0,0:0:0:0:
247,169,91277,1,0,0:0:0:0:
403,202,91465,6,0,P|415:126|375:69,1,120,2|0,0:0|0:0,0:0:0:0:
399,59,91840,5,8,0:1:0:0:
415,78,91933,1,0,0:0:0:0:
427,100,92027,1,0,0:0:0:0:
435,124,92121,1,0,0:0:0:0:
438,149,92215,1,0,0:0:0:0:
436,175,92308,1,0,0:0:0:0:
429,199,92402,1,0,0:0:0:0:
417,222,92496,1,0,0:0:0:0:
401,241,92590,1,0,0:0:0:0:
381,257,92683,1,0,0:0:0:0:
359,269,92777,1,0,0:0:0:0:
334,277,92871,1,0,0:0:0:0:
283,221,92965,6,0,L|293:365,1,133.333333333333,4|0,3:2|0:0,0:0:0:0:
305,350,93340,2,0,L|237:343,2,53.3333333333333
428,306,93715,5,10,0:0:0:0:
431,294,93996,1,10,0:0:0:0:
434,282,94277,1,10,0:0:0:0:
461,187,94465,6,0,P|438:129|461:90,1,80,0|0,3:0|0:0,0:0:0:0:
451,105,94715,2,0,L|453:86,2,13.3333333333333,2|2|2,0:0|0:0|0:0,0:0:0:0:
444,81,94840,5,10,0:0:0:0:
360,93,94965,1,8,0:0:0:0:
385,19,95090,1,8,0:0:0:0:
301,32,95215,6,0,P|272:80|288:131,1,80,10|0,0:0|0:0,0:0:0:0:
196,93,95496,2,0,P|210:147|257:172,1,80,10|0,0:0|0:0,0:0:0:0:
175,225,95777,2,0,L|238:247,1,40,10|0,0:0|0:0,0:0:0:0:
342,273,95965,6,0,L|332:339,1,53.3333333333333,2|2,3:2|0:2,0:0:0:0:
282,384,96215,1,2,3:2:0:0:
182,277,96340,2,0,L|172:211,2,53.3333333333333,10|0|0,3:2|0:0|0:0,0:0:0:0:
111,358,96715,6,0,L|48:349,1,53.3333333333333,2|2,3:2|0:2,0:0:0:0:
9,267,96965,1,2,3:2:0:0:
115,167,97090,5,10,3:2:0:0:
42,133,97215,1,0,3:0:0:0:
107,86,97340,1,0,3:0:0:0:
8,16,97465,6,0,L|99:26,1,53.3333333333333,2|0,3:2|0:2,0:0:0:0:
197,85,97715,1,0,3:2:0:0:
210,83,97777,1,0,3:2:0:0:
223,81,97840,1,10,3:2:0:0:
217,134,97965,1,0,3:2:0:0:
211,187,98090,1,0,3:2:0:0:
331,175,98215,5,10,3:2:0:0:
302,102,98340,1,2,3:2:0:0:
335,29,98465,1,2,3:2:0:0:
441,56,98590,5,2,3:2:0:0:
512,106,98715,1,0,3:0:0:0:
432,143,98840,1,0,3:0:0:0:
368,245,98965,6,0,P|359:300|395:365,1,106.666666666667,0|0,3:0|0:0,0:0:0:0:
451,369,99340,2,0,L|460:293,1,53.3333333333333
490,244,99590,1,0,0:0:0:0:
377,346,99715,6,0,L|280:356,1,80,10|0,2:2|0:0,0:0:0:0:
247,294,99996,2,0,L|150:304,1,80,10|0,2:2|0:0,0:0:0:0:
86,319,100277,2,0,L|94:265,1,40,10|0,2:2|0:0,0:0:0:0:
39,141,100465,6,0,P|74:126|127:138,1,80,0|2,3:0|0:0,0:0:0:0:
126,137,100715,2,0,L|123:157,2,13.3333333333333,2|2|2,0:0|0:0|0:0,0:0:0:0:
156,124,100840,5,10,0:0:0:0:
219,168,100965,1,8,0:0:0:0:
263,102,101090,1,8,0:0:0:0:
326,146,101215,5,10,0:2:0:0:
339,141,101496,5,10,0:2:0:0:
352,136,101777,5,10,0:2:0:0:
485,184,101965,6,0,L|476:258,1,53.3333333333333,2|2,3:2|0:2,0:0:0:0:
436,305,102215,1,2,3:2:0:0:
342,167,102340,2,0,L|273:175,2,53.3333333333333,10|0|0,3:2|0:0|0:0,0:0:0:0:
268,345,102715,6,0,L|259:271,1,53.3333333333333,2|2,3:2|0:2,0:0:0:0:
219,224,102965,1,2,3:2:0:0:
103,367,103090,1,10,3:2:0:0:
49,307,103215,1,0,3:0:0:0:
77,233,103340,1,0,3:0:0:0:
30,312,103465,5,2,3:2:0:0:
68,154,103715,1,0,3:0:0:0:
81,151,103777,1,0,3:0:0:0:
94,148,103840,5,10,3:2:0:0:
173,136,103965,1,0,0:0:0:0:
124,74,104090,1,0,0:0:0:0:
94,148,104215,5,10,3:2:0:0:
231,188,104340,1,2,0:2:0:0:
198,50,104465,1,2,0:2:0:0:
94,148,104590,2,0,L|78:303,1,120,10|0,3:2|0:0,0:0:0:0:
34,93,104965,5,2,3:2:0:0:
97,348,105152,1,0,0:0:0:0:
94,267,105340,6,0,P|98:247|120:225,1,40,2|0,3:2|0:0,0:0:0:0:
181,268,105527,2,0,P|177:288|155:310,1,40
176,186,105715,6,0,P|159:155|162:121,1,60.0000022888184,2|0,3:2|0:0,0:0:0:0:
267,107,105902,2,0,P|284:138|281:172,1,60.0000022888184
397,52,106090,6,0,P|450:58|479:96,1,80,2|0,3:2|0:0,0:0:0:0:
426,225,106277,2,0,P|373:219|344:181,1,80
309,26,106465,5,2,3:2:0:0:
498,184,106652,1,0,0:0:0:0:
345,235,106840,6,0,P|345:260|356:286,1,40,2|0,3:2|0:0,0:0:0:0:
426,225,107027,2,0,P|431:244|430:264,1,40
253,364,107215,6,0,P|276:333|275:294,1,60.0000022888184,2|0,3:2|0:0,0:0:0:0:
165,326,107402,2,0,P|171:296|190:274,1,60.0000022888184
29,131,107590,6,0,P|45:184|73:202,1,80,2|0,3:2|0:0,0:0:0:0:
184,60,107777,2,0,P|211:87|218:126,1,80
81,336,107965,5,2,3:2:0:0:
165,326,108152,2,0,L|211:321,1,40
270,277,108340,1,8,0:2:0:0:
286,312,108433,1,0,0:0:0:0:
278,351,108527,1,2,0:2:0:0:
486,172,108715,5,10,0:2:0:0:
415,60,108902,2,0,L|406:135,1,40
385,180,109090,1,0,3:0:0:0:
345,183,109183,1,0,0:0:0:0:
305,186,109277,1,10,0:2:0:0:
507,364,109465,5,2,3:2:0:0:
397,262,109652,2,0,L|304:269,1,60.0000022888184
254,318,109840,1,10,0:0:0:0:
143,146,110027,1,0,3:0:0:0:
160,121,110121,1,0,3:0:0:0:
177,96,110215,2,0,P|218:116|227:177,1,80,10|0,0:0|0:0,0:0:0:0:
100,221,110402,1,0,3:0:0:0:
110,239,110496,1,0,3:0:0:0:
25,270,110590,5,10,0:2:0:0:
77,260,110683,1,0,3:0:0:0:
128,274,110777,1,0,3:0:0:0:
167,309,110871,1,0,3:0:0:0:
83,338,110965,6,0,L|71:391,1,40,2|0,3:2|0:0,0:0:0:0:
186,343,111152,1,0,0:0:0:0:
164,332,111246,1,0,0:0:0:0:
167,309,111339,1,8,0:0:0:0:
190,304,111433,1,0,0:0:0:0:
202,325,111527,2,0,L|249:318,1,40,2|0,3:2|0:0,0:0:0:0:
428,203,111715,6,0,P|441:233|423:283,1,60.0000022888184,10|0,0:2|0:0,0:0:0:0:
308,192,111902,1,0,0:0:0:0:
347,172,111996,1,0,0:0:0:0:
342,130,112089,1,0,0:0:0:0:
300,121,112183,1,0,0:0:0:0:
279,159,112277,2,0,L|194:146,1,60.0000022888184,10|0,0:2|0:0,0:0:0:0:
36,24,112465,6,0,B|23:46|23:46|41:116,1,80,0|0,3:0|3:0,0:0:0:0:
169,162,112652,1,0,3:0:0:0:
184,165,112746,1,0,3:0:0:0:
180,149,112840,5,10,0:2:0:0:
165,75,112933,1,2,3:2:0:0:
150,1,113027,1,2,3:2:0:0:
248,28,113121,1,2,3:2:0:0:
346,55,113215,1,10,0:2:0:0:
