osu file format v14

[General]
AudioFilename: audio.mp3
AudioLeadIn: 0
PreviewTime: 25371
Countdown: 0
SampleSet: Soft
StackLeniency: 0.2
Mode: 0
LetterboxInBreaks: 0
WidescreenStoryboard: 1

[Editor]
Bookmarks: 25465,38590,38965,50965,61465,70465,88465,92965,104965
DistanceSpacing: 0.5
BeatDivisor: 4
GridSize: 16
TimelineZoom: 2.38

[Metadata]
Title:Dual Fractal
TitleUnicode:Dual Fractal
Artist:M2U
ArtistUnicode:M2U
Creator:Hynix
Version:Insane
Source:CHUNITHM STAR PLUS
Tags:setu shiratamamywife necho reincarnation cqmasai electronic instrumental rhythm video game CHUNITHM チュウニズム スター プラス ep. VII 7
BeatmapID:3194250
BeatmapSetID:1563134

[Difficulty]
HPDrainRate:5
CircleSize:3.7
OverallDifficulty:7
ApproachRate:8.5
SliderMultiplier:1.8
SliderTickRate:1

[Events]
//Background and Video events
0,0,"wallhaven-g79dq7.jpg",0,0
//Break Periods
2,88664,91165
//Storyboard Layer 0 (Background)
//Storyboard Layer 1 (Fail)
//Storyboard Layer 2 (Pass)
//Storyboard Layer 3 (Foreground)
//Storyboard Layer 4 (Overlay)
//Storyboard Sound Samples

[TimingPoints]
1465,375,4,2,1,50,1,0
1465,-200,4,2,1,50,0,0
14965,-200,4,2,1,55,0,0
16465,-200,4,2,1,60,0,0
17965,-200,4,2,1,65,0,0
19558,-200,4,2,1,50,0,0
25465,-111.111111111111,4,2,1,70,0,0
29027,-111.111111111111,4,2,1,50,0,0
29121,-111.111111111111,4,2,1,70,0,0
30340,-111.111111111111,4,2,1,50,0,0
30527,-111.111111111111,4,2,1,70,0,0
31089,-111.111111111111,4,2,1,50,0,0
31465,-100,4,2,1,70,0,0
31558,-100,4,2,1,50,0,0
31652,-100,4,2,1,70,0,0
33995,-100,4,2,1,50,0,0
34090,-100,4,2,1,70,0,0
34183,-100,4,2,1,50,0,0
34277,-100,4,2,1,70,0,0
34370,-100,4,2,1,50,0,0
34465,-100,4,2,1,70,0,0
34558,-100,4,2,1,50,0,0
34652,-100,4,2,1,70,0,0
35308,-100,4,2,1,50,0,0
35402,-100,4,2,1,70,0,0
36058,-100,4,2,1,50,0,0
36152,-100,4,2,1,70,0,0
36808,-100,4,2,1,50,0,0
36902,-200,4,2,1,70,0,0
38589,-200,4,2,1,50,0,0
38965,-100,4,2,2,60,0,0
39246,-100,4,2,2,50,0,0
39340,-100,4,2,2,60,0,0
39996,-100,4,2,2,50,0,0
40090,-100,4,2,2,60,0,0
41308,-100,4,2,2,50,0,0
41402,-100,4,2,2,60,0,0
41683,-100,4,2,2,50,0,0
41871,-100,4,2,2,60,0,0
42808,-100,4,2,2,50,0,0
42996,-100,4,2,2,60,0,0
43183,-100,4,2,2,50,0,0
43371,-100,4,2,2,60,0,0
44308,-100,4,2,2,50,0,0
44402,-100,4,2,2,60,0,0
44965,-90.9090909090909,4,2,1,70,0,0
45246,-90.9090909090909,4,2,1,50,0,0
45340,-90.9090909090909,4,2,1,70,0,0
45433,-90.9090909090909,4,2,1,50,0,0
45527,-90.9090909090909,4,2,1,70,0,0
45620,-90.9090909090909,4,2,1,50,0,0
45715,-90.9090909090909,4,2,1,70,0,0
45808,-90.9090909090909,4,2,1,50,0,0
45902,-90.9090909090909,4,2,1,70,0,0
46933,-90.9090909090909,4,2,1,50,0,0
47027,-90.9090909090909,4,2,1,70,0,0
47120,-90.9090909090909,4,2,1,50,0,0
47215,-90.9090909090909,4,2,1,70,0,0
48340,-100,4,2,1,70,0,0
48715,-111.111111111111,4,2,1,70,0,0
49090,-125,4,2,1,70,0,0
50215,-90.9090909090909,4,2,1,70,0,0
50308,-90.9090909090909,4,2,1,50,0,0
50590,-133.333333333333,4,2,1,70,0,0
50871,-133.333333333333,4,2,1,50,0,0
50965,-100,4,2,2,60,0,0
51246,-100,4,2,2,50,0,0
51340,-100,4,2,2,60,0,0
51996,-100,4,2,2,50,0,0
52090,-100,4,2,2,60,0,0
53308,-100,4,2,2,50,0,0
53402,-100,4,2,2,60,0,0
53683,-100,4,2,2,50,0,0
53871,-100,4,2,2,60,0,0
54808,-100,4,2,2,50,0,0
54996,-100,4,2,2,60,0,0
55183,-100,4,2,2,50,0,0
55371,-100,4,2,2,60,0,0
56308,-100,4,2,2,50,0,0
56401,-100,4,2,2,60,0,0
56965,-90.9090909090909,4,2,1,70,0,0
57246,-90.9090909090909,4,2,1,50,0,0
57340,-90.9090909090909,4,2,1,70,0,0
57433,-90.9090909090909,4,2,1,50,0,0
57527,-90.9090909090909,4,2,1,70,0,0
57620,-90.9090909090909,4,2,1,50,0,0
57715,-90.9090909090909,4,2,1,70,0,0
57808,-90.9090909090909,4,2,1,50,0,0
57902,-90.9090909090909,4,2,1,70,0,0
58746,-90.9090909090909,4,2,1,50,0,0
58840,-90.9090909090909,4,2,1,70,0,0
59308,-90.9090909090909,4,2,1,50,0,0
59402,-90.9090909090909,4,2,1,70,0,0
60152,-100,4,2,1,70,0,0
60996,-100,4,2,1,50,0,0
61090,-100,4,2,1,70,0,0
61371,-100,4,2,1,50,0,0
61465,-90.9090909090909,4,2,1,70,0,0
64465,-90.9090909090909,4,2,2,70,0,0
64558,-90.9090909090909,4,2,2,50,0,0
64652,-90.9090909090909,4,2,2,70,0,0
66995,-90.9090909090909,4,2,2,50,0,0
67090,-90.9090909090909,4,2,2,70,0,0
67183,-90.9090909090909,4,2,2,50,0,0
67277,-90.9090909090909,4,2,2,70,0,0
67370,-90.9090909090909,4,2,2,50,0,0
67465,-90.9090909090909,4,2,1,70,0,0
69808,-90.9090909090909,4,2,1,50,0,0
69902,-133.333333333333,4,2,1,70,0,0
70370,-133.333333333333,4,2,1,50,0,0
70465,-76.9230769230769,4,2,1,70,0,0
70652,-76.9230769230769,4,2,1,50,0,0
70840,-76.9230769230769,4,2,1,70,0,1
71121,-76.9230769230769,4,2,1,50,0,1
71215,-76.9230769230769,4,2,1,70,0,1
73465,-76.9230769230769,4,2,1,70,0,0
73652,-76.9230769230769,4,2,1,50,0,0
73840,-76.9230769230769,4,2,1,70,0,1
74121,-76.9230769230769,4,2,1,50,0,1
74215,-76.9230769230769,4,2,1,70,0,1
76090,-76.9230769230769,4,2,1,70,0,0
76465,-76.9230769230769,4,2,1,70,0,1
76746,-76.9230769230769,4,2,1,50,0,1
76840,-125,4,2,1,70,0,1
77215,-100,4,2,1,70,0,1
77965,-74.0740740740741,4,2,1,70,0,1
78246,-74.0740740740741,4,2,1,50,0,1
78340,-117.647058823529,4,2,1,70,0,1
78715,-90.9090909090909,4,2,1,70,0,1
79465,-71.4285714285714,4,2,1,70,0,1
79746,-71.4285714285714,4,2,1,50,0,1
79840,-111.111111111111,4,2,1,70,0,1
80215,-90.9090909090909,4,2,1,70,0,1
80965,-68.9655172413793,4,2,1,70,0,1
81246,-68.9655172413793,4,2,1,50,0,1
81340,-105.263157894737,4,2,1,70,0,1
81902,-90.9090909090909,4,2,1,70,0,1
82465,-76.9230769230769,4,2,1,70,0,1
82746,-76.9230769230769,4,2,1,50,0,1
82840,-125,4,2,1,70,0,1
83590,-90.9090909090909,4,2,1,70,0,1
83965,-74.0740740740741,4,2,1,70,0,1
84340,-117.647058823529,4,2,1,70,0,1
85090,-90.9090909090909,4,2,1,70,0,1
85465,-71.4285714285714,4,2,1,70,0,1
85746,-71.4285714285714,4,2,1,50,0,1
85840,-111.111111111111,4,2,1,70,0,1
86965,-68.9655172413793,4,2,1,70,0,1
87340,-111.111111111111,4,2,1,70,0,1
87715,-100,4,2,1,70,0,1
88465,-100,4,2,1,70,0,0
91840,-200,4,2,1,60,0,0
92965,-100,4,2,2,70,0,0
93215,-100,4,2,2,50,0,0
93340,-100,4,2,2,70,0,0
93902,-100,4,2,2,50,0,0
93996,-100,4,2,2,70,0,0
94183,-100,4,2,2,50,0,0
94277,-100,4,2,2,70,0,0
94370,-100,4,2,2,50,0,0
94465,-100,4,2,2,70,0,0
95402,-100,4,2,2,50,0,0
95496,-100,4,2,2,70,0,0
95683,-100,4,2,2,50,0,0
95777,-100,4,2,2,70,0,0
95870,-100,4,2,2,50,0,0
95965,-100,4,2,2,70,0,0
101402,-100,4,2,2,50,0,0
101496,-100,4,2,2,70,0,0
101683,-100,4,2,2,50,0,0
101777,-100,4,2,2,70,0,0
101870,-100,4,2,2,50,0,0
101965,-100,4,2,2,70,0,0
104840,-100,4,2,2,50,0,0
104965,-90.9090909090909,4,2,1,70,0,0

[Colours]
Combo1 : 197,78,107
Combo2 : 128,128,192
Combo3 : 67,174,209
Combo4 : 182,113,67

[HitObjects]
112,353,1465,6,0,P|162:374|234:292,1,180,2|0,0:0|0:0,0:0:0:0:
160,130,2590,1,0,0:0:0:0:
129,209,2965,6,0,P|81:204|42:172,2,90,2|0|0,0:0|0:0|0:0,0:0:0:0:
213,196,4090,1,0,0:0:0:0:
353,162,4465,2,0,P|400:164|436:191,1,90,2|0,0:0|0:0,0:0:0:0:
400,292,5215,2,0,P|353:290|317:263,1,90,2|0,0:0|0:0,0:0:0:0:
228,289,5965,2,0,L|216:106,1,180,2|0,0:0|0:0,0:0:0:0:
129,74,7090,1,0,0:0:0:0:
46,124,7465,6,0,L|52:225,1,90,2|0,0:0|0:0,0:0:0:0:
61,351,8215,2,0,L|124:360,1,45
169,238,8590,2,0,L|227:235,1,45
268,313,8965,6,0,L|415:303,1,135,2|0,0:0|0:0,0:0:0:0:
478,370,9715,2,0,L|483:315,1,45,2|0,0:0|0:0,0:0:0:0:
392,253,10090,2,0,L|395:298,1,45,2|0,0:0|0:0,0:0:0:0:
469,210,10465,6,0,L|479:105,1,90,2|0,0:0|0:0,0:0:0:0:
368,99,11215,2,0,L|314:13,1,90,2|0,0:0|0:0,0:0:0:0:
227,87,11965,2,0,L|30:101,1,180,2|0,0:0|0:0,0:0:0:0:
52,261,13465,6,0,P|101:300|183:258,1,157.5
181,252,14215,1,2,0:0:0:0:
249,349,14965,6,0,P|307:326|311:234,1,157.5
305,232,15715,1,2,0:0:0:0:
184,59,16465,6,0,L|193:225,1,157.5
195,231,17215,1,2,0:0:0:0:
465,113,17965,6,0,P|400:86|298:104,1,157.5
305,103,18715,1,2,0:0:0:0:
256,192,19465,5,12,0:1:0:0:
256,192,19558,12,0,23777,0:0:0:0:
159,374,23965,5,0,0:0:0:0:
162,356,24340,1,0,0:0:0:0:
165,338,24715,1,0,0:0:0:0:
168,320,25090,1,0,0:0:0:0:
164,237,25465,6,0,B|208:230|248:267|224:268|263:309|321:291,1,161.999995056153,4|0,3:2|0:0,0:0:0:0:
392,264,26027,1,0,0:0:0:0:
467,320,26215,2,0,P|481:241|507:159,1,161.999995056153,8|0,0:0|0:0,0:0:0:0:
363,10,26965,6,0,P|388:86|400:167,1,161.999995056153,0|0,3:0|0:0,0:0:0:0:
309,180,27527,1,0,0:0:0:0:
213,161,27715,2,0,P|192:229|183:327,1,161.999995056153,8|0,0:0|0:0,0:0:0:0:
254,74,28465,6,0,B|215:57|180:79|189:83|152:114|99:90,1,161.999995056153,0|0,3:0|0:0,0:0:0:0:
0,71,29027,5,0,0:0:0:0:
0,71,29121,1,0,0:0:0:0:
0,71,29216,2,0,P|11:151|15:232,1,161.999995056153,8|0,0:0|0:0,0:0:0:0:
31,331,29777,5,0,0:0:0:0:
31,331,29871,1,0,0:0:0:0:
31,331,29966,2,0,B|70:355|113:329|97:324|142:299|188:324,1,161.999995056153,0|0,3:0|0:0,0:0:0:0:
286,355,30527,5,0,0:0:0:0:
286,355,30621,1,0,0:0:0:0:
286,355,30715,2,0,P|296:262|318:185,1,161.999995056153,8|0,0:0|0:0,0:0:0:0:
424,331,31465,6,0,L|501:327,1,45,6|0,3:2|0:0,0:0:0:0:
509,242,31652,1,0,0:0:0:0:
509,242,31746,1,0,0:0:0:0:
509,242,31840,1,8,0:0:0:0:
331,192,32027,1,0,0:0:0:0:
410,247,32215,5,0,3:2:0:0:
405,130,32402,1,0,0:0:0:0:
405,130,32496,1,0,0:0:0:0:
405,130,32590,1,8,0:0:0:0:
233,195,32777,1,0,0:0:0:0:
331,192,32965,5,0,3:2:0:0:
242,110,33152,1,0,0:0:0:0:
242,110,33246,1,0,0:0:0:0:
242,110,33340,1,8,0:0:0:0:
162,257,33527,1,0,0:0:0:0:
233,195,33715,5,2,3:2:0:0:
78,210,33902,2,0,L|19:215,1,45,2|0,0:0|0:0,0:0:0:0:
249,298,34090,2,0,L|306:304,1,45,10|0,0:0|0:0,0:0:0:0:
244,101,34277,2,0,L|252:34,1,45,2|0,0:0|0:0,0:0:0:0:
72,218,34465,6,0,L|77:271,1,45,6|0,3:2|0:0,0:0:0:0:
154,336,34652,1,0,0:0:0:0:
154,336,34746,1,0,0:0:0:0:
154,336,34840,1,8,0:0:0:0:
220,180,35027,1,0,0:0:0:0:
153,243,35215,6,0,L|211:273,1,45,2|0,3:2|0:0,0:0:0:0:
301,236,35402,1,0,0:0:0:0:
301,236,35496,1,0,0:0:0:0:
301,236,35590,1,8,0:0:0:0:
200,98,35777,1,0,0:0:0:0:
220,180,35965,6,0,L|273:148,1,45,2|0,3:2|0:0,0:0:0:0:
288,67,36152,1,0,0:0:0:0:
118,51,36340,1,8,0:0:0:0:
96,79,36433,1,0,3:0:0:0:
88,114,36527,1,0,3:0:0:0:
93,149,36621,1,0,3:0:0:0:
107,181,36715,2,0,L|138:229,1,45,2|0,3:2|0:0,0:0:0:0:
252,274,36902,6,0,B|307:225|307:225|87:275|87:275|197:336,1,405,6|0,0:0|0:0,0:0:0:0:
391,246,38965,6,0,B|410:173|353:195|381:88,1,135,4|0,3:2|0:0,0:0:0:0:
395,36,39340,1,0,0:0:0:0:
370,24,39433,1,0,0:0:0:0:
343,19,39527,1,0,0:0:0:0:
316,22,39621,1,0,0:0:0:0:
288,34,39715,6,0,P|226:58|140:48,1,135,8|0,0:0|0:0,0:0:0:0:
116,29,40090,2,0,L|131:176,1,135
67,233,40465,5,0,3:0:0:0:
91,252,40558,1,0,0:0:0:0:
121,260,40652,1,0,0:0:0:0:
152,258,40746,1,0,0:0:0:0:
179,241,40840,1,0,0:0:0:0:
207,229,40933,1,0,0:0:0:0:
238,225,41027,1,0,0:0:0:0:
268,234,41121,1,0,0:0:0:0:
291,254,41215,6,0,L|284:322,3,45,8|0|0|0,0:0|0:0|0:0|0:0,0:0:0:0:
390,366,41590,2,0,L|383:298,3,45,0|0|0|2,0:0|0:0|0:0|0:0,0:0:0:0:
512,194,41965,6,0,P|451:229|378:206,1,135,0|0,3:0|0:0,0:0:0:0:
379,209,42340,2,0,L|387:152,3,45
324,32,42715,2,0,L|318:88,3,45,8|0|0|0,0:0|0:0|0:0|0:0,0:0:0:0:
305,105,43090,1,0,0:0:0:0:
277,120,43183,1,0,0:0:0:0:
246,127,43277,1,0,0:0:0:0:
213,123,43371,1,0,0:0:0:0:
183,113,43465,6,0,L|107:120,1,45,0|0,3:0|0:0,0:0:0:0:
65,203,43746,1,0,0:0:0:0:
65,203,43840,2,0,L|144:194,1,45
201,266,44121,1,0,0:0:0:0:
201,266,44215,2,0,L|125:273,1,45,8|0,0:0|0:0,0:0:0:0:
124,275,44402,5,0,0:0:0:0:
134,304,44496,1,0,0:0:0:0:
130,335,44590,1,0,0:0:0:0:
107,356,44683,1,0,0:0:0:0:
75,361,44777,1,0,0:0:0:0:
47,346,44871,1,0,0:0:0:0:
38,315,44965,6,0,P|109:305|208:337,1,148.50000453186,2|0,3:2|0:0,0:0:0:0:
198,335,45340,2,0,L|190:383,1,49.5000015106202,8|0,0:0|0:0,0:0:0:0:
278,265,45527,2,0,L|272:215,1,49.5000015106202
371,313,45715,2,0,L|366:368,1,49.5000015106202
454,242,45902,2,0,L|441:126,2,99.0000030212403,0|8|0,3:0|0:0|0:0,0:0:0:0:
262,216,46465,6,0,P|233:142|257:63,1,148.50000453186,2|0,3:2|0:0,0:0:0:0:
263,64,46840,2,0,L|334:57,1,49.5000015106202,8|0,0:0|0:0,0:0:0:0:
149,190,47027,2,0,L|78:183,1,49.5000015106202
20,65,47215,2,0,L|135:81,1,99.0000030212403,0|0,0:0|3:0,0:0:0:0:
156,200,47590,1,10,0:2:0:0:
163,233,47683,1,2,0:0:0:0:
150,265,47777,1,2,0:0:0:0:
89,384,47965,6,0,L|82:325,3,49.5000015106202,2|0|0|0,3:2|0:0|0:0|0:0,0:0:0:0:
177,341,48340,2,0,L|189:282,3,45,2|0|0|0,3:2|0:0|0:0|0:0,0:0:0:0:
269,337,48715,2,0,L|304:300,3,40.4999987640381,2|0|0|0,3:2|0:0|0:0|0:0,0:0:0:0:
360,368,49090,2,0,L|402:355,3,36,2|0|0|0,3:2|0:0|0:0|0:0,0:0:0:0:
487,332,49465,5,2,3:3:0:0:
378,238,49840,1,2,0:3:0:0:
461,129,50215,2,0,L|468:65,1,49.5000015106202,2|0,0:3|0:0,0:0:0:0:
363,54,50590,6,0,L|374:176,1,101.250003862381,4|0,3:0|0:0,0:0:0:0:
378,248,50965,6,0,B|304:221|322:281|230:247,1,135,4|0,3:2|0:0,0:0:0:0:
161,271,51340,1,0,0:0:0:0:
149,246,51433,1,0,0:0:0:0:
147,218,51527,1,0,0:0:0:0:
155,192,51621,1,0,0:0:0:0:
171,170,51715,6,0,P|195:111|171:38,1,135,8|0,0:0|0:0,0:0:0:0:
162,32,52090,2,0,L|318:43,1,135
387,12,52465,5,0,3:0:0:0:
394,42,52558,1,0,0:0:0:0:
388,73,52652,1,0,0:0:0:0:
372,100,52746,1,0,0:0:0:0:
355,126,52840,1,0,0:0:0:0:
349,156,52933,1,0,0:0:0:0:
353,187,53027,1,0,0:0:0:0:
371,212,53121,1,0,0:0:0:0:
395,231,53215,6,0,L|462:227,3,45,8|0|0|0,0:0|0:0|0:0|0:0,0:0:0:0:
512,338,53590,2,0,L|467:335,3,45,0|0|0|2,0:0|0:0|0:0|0:0,0:0:0:0:
344,196,53965,6,0,P|356:256|308:322,1,135,2|0,3:2|0:0,0:0:0:0:
304,314,54340,2,0,L|247:310,3,45
143,228,54715,2,0,L|197:233,3,45,8|0|0|0,0:0|0:0|0:0|0:0,0:0:0:0:
216,218,55090,1,0,0:0:0:0:
233,192,55183,1,0,0:0:0:0:
237,159,55277,1,0,0:0:0:0:
228,128,55371,1,0,0:0:0:0:
206,104,55465,6,0,L|199:40,1,45,0|0,3:0|0:0,0:0:0:0:
109,6,55746,1,0,0:0:0:0:
109,6,55840,2,0,L|116:70,1,45
34,124,56121,1,0,0:0:0:0:
34,124,56215,2,0,L|27:60,1,45,8|0,0:0|0:0,0:0:0:0:
59,70,56401,5,0,0:0:0:0:
89,74,56495,1,0,0:0:0:0:
116,91,56589,1,0,0:0:0:0:
133,118,56683,1,0,0:0:0:0:
137,148,56776,1,0,0:0:0:0:
129,178,56870,1,0,0:0:0:0:
110,202,56965,6,0,P|92:294|110:347,1,148.50000453186,2|0,3:2|0:0,0:0:0:0:
119,349,57340,2,0,L|182:355,1,49.5000015106202,8|0,0:0|0:0,0:0:0:0:
274,282,57527,2,0,L|205:275,1,49.5000015106202
134,187,57715,2,0,L|198:195,1,49.5000015106202
260,133,57902,2,0,L|386:114,2,99.0000030212403,0|8|0,3:0|0:0|0:0,0:0:0:0:
281,289,58465,6,0,P|343:304|438:264,1,148.50000453186,2|0,3:2|0:0,0:0:0:0:
439,267,58840,1,10,0:0:0:0:
439,267,58933,1,0,0:0:0:0:
439,267,59027,1,0,0:0:0:0:
480,181,59215,5,0,0:0:0:0:
469,161,59308,1,0,0:0:0:0:
459,145,59402,1,0,3:0:0:0:
463,55,59590,5,10,0:2:0:0:
434,37,59683,1,2,0:2:0:0:
404,19,59777,1,2,0:2:0:0:
310,42,59965,5,2,3:2:0:0:
251,139,60152,2,0,L|248:187,2,45,2|2|2,0:2|0:2|3:2,0:0:0:0:
181,1,60527,1,2,0:2:0:0:
86,122,60715,6,0,P|63:189|78:251,1,135,2|0,3:2|0:0,0:0:0:0:
67,258,61090,2,0,P|109:307|191:311,1,135,2|0,0:2|0:0,0:0:0:0:
184,329,61465,6,0,P|227:323|286:339,1,99.0000030212403,6|0,3:2|0:0,0:0:0:0:
487,320,61840,6,0,L|462:375,3,49.5000015106202,2|0|0|0,3:2|0:0|0:0|0:0,0:0:0:0:
405,240,62215,2,0,L|411:298,3,49.5000015106202,2|0|0|0,3:2|0:0|0:0|0:0,0:0:0:0:
291,206,62590,2,0,L|325:256,3,49.5000015106202,2|0|0|0,3:2|0:0|0:0|0:0,0:0:0:0:
189,207,62965,6,0,P|198:154|234:90,1,99.0000030212403,2|0,3:2|0:0,0:0:0:0:
261,3,63340,6,0,L|330:-2,3,49.5000015106202,2|0|0|0,3:2|0:0|0:0|0:0,0:0:0:0:
362,67,63715,2,0,L|427:85,3,49.5000015106202,2|0|0|0,3:2|0:0|0:0|0:0,0:0:0:0:
438,166,64090,2,0,L|482:206,3,49.5000015106202,2|0|0|0,3:2|0:0|0:0|0:0,0:0:0:0:
451,288,64465,6,0,L|446:347,1,49.5000015106202,6|0,3:2|0:0,0:0:0:0:
371,384,64652,1,0,0:0:0:0:
371,384,64746,1,0,0:0:0:0:
371,384,64840,1,8,0:0:0:0:
320,225,65027,1,0,0:0:0:0:
371,295,65215,5,0,3:2:0:0:
285,306,65402,1,0,0:0:0:0:
285,306,65496,1,0,0:0:0:0:
285,306,65590,1,8,0:0:0:0:
301,145,65777,1,0,0:0:0:0:
320,225,65965,5,0,3:2:0:0:
234,202,66152,1,0,0:0:0:0:
234,202,66246,1,0,0:0:0:0:
234,202,66340,1,8,0:0:0:0:
314,66,66527,1,0,0:0:0:0:
301,145,66715,5,0,3:2:0:0:
133,126,66902,2,0,L|59:116,1,49.5000015106202,2|0,0:2|0:0,0:0:0:0:
258,49,67090,2,0,L|338:62,1,49.5000015106202,2|0,3:2|0:0,0:0:0:0:
234,202,67277,2,0,L|238:278,1,49.5000015106202,2|0,0:2|0:0,0:0:0:0:
71,111,67465,6,0,L|86:-6,1,99.0000030212403,2|0,3:2|0:0,0:0:0:0:
83,12,67746,1,0,0:0:0:0:
83,12,67840,1,8,0:0:0:0:
170,55,68027,1,0,0:0:0:0:
145,209,68215,6,0,L|160:326,1,99.0000030212403,2|0,3:2|0:0,0:0:0:0:
157,308,68496,1,0,0:0:0:0:
157,308,68590,1,8,0:0:0:0:
248,352,68777,2,0,L|259:297,1,49.5000015106202,4|4,0:3|0:3,0:0:0:0:
266,274,68965,5,8,0:3:0:0:
290,257,69058,1,8,0:3:0:0:
318,249,69152,1,4,0:3:0:0:
347,249,69246,1,4,0:3:0:0:
378,262,69340,5,8,0:2:0:0:
390,293,69433,1,0,3:0:0:0:
397,326,69527,1,0,3:0:0:0:
405,359,69621,1,0,3:0:0:0:
376,379,69715,6,0,L|304:361,1,49.5000015106202,0|0,3:0|0:0,0:0:0:0:
295,247,69902,6,0,B|422:232|422:232|389:209,1,168.750006437302,2|0,0:3|0:0,0:0:0:0:
476,124,70465,6,0,L|325:111,1,116.999994644165,2|0,3:2|0:0,0:0:0:0:
231,150,70840,2,0,P|279:174|269:85,1,175.499991966248,14|0,0:0|0:0,0:0:0:0:
212,74,71215,1,2,0:0:0:0:
212,74,71308,1,2,0:0:0:0:
212,74,71402,1,2,0:0:0:0:
61,114,71590,6,0,L|54:49,3,58.4999973220826,0|0|0|0,3:0|0:0|0:0|0:0,0:0:0:0:
156,153,72058,2,0,L|149:222,1,58.4999973220826,0|2,0:0|3:2,0:0:0:0:
64,252,72340,6,0,L|72:326,3,58.4999973220826,2|0|0|0,0:2|0:2|3:2|3:2,0:0:0:0:
180,296,72715,1,10,0:2:0:0:
250,373,72902,5,0,0:0:0:0:
281,346,72996,1,0,0:0:0:0:
296,307,73090,2,0,P|293:220|241:148,1,175.499991966248,10|2,0:2|0:2,0:0:0:0:
239,159,73465,6,0,L|364:150,1,116.999994644165,2|0,3:2|0:0,0:0:0:0:
477,151,73840,2,0,P|405:167|420:95,1,175.499991966248,14|0,0:0|0:0,0:0:0:0:
506,81,74215,1,2,0:0:0:0:
506,81,74308,1,2,0:0:0:0:
506,81,74402,1,2,0:0:0:0:
438,222,74590,6,0,L|432:303,3,58.4999973220826,0|0|0|0,3:0|0:0|0:0|0:0,0:0:0:0:
336,327,75058,2,0,L|346:399,1,58.4999973220826,0|2,0:0|3:2,0:0:0:0:
229,275,75340,6,0,L|236:201,3,58.4999973220826,2|0|0|0,0:2|0:0|3:0|3:0,0:0:0:0:
244,114,75715,1,10,0:0:0:0:
77,137,75902,2,0,L|29:143,2,29.2499986610413,0|0|0,3:0|3:0|3:0,0:0:0:0:
130,64,76090,5,10,0:2:0:0:
152,93,76183,1,2,3:2:0:0:
161,126,76277,1,2,3:2:0:0:
162,161,76371,1,2,3:2:0:0:
147,193,76465,6,0,B|138:305|138:305|104:322|89:352,1,175.499991966248,6|0,3:2|0:0,0:0:0:0:
102,356,76840,2,0,P|135:319|197:346,1,108,2|0,3:2|0:0,0:0:0:0:
274,384,77215,6,0,B|347:388|347:388|373:369,1,90,10|0,0:0|0:0,0:0:0:0:
432,201,77590,6,0,L|429:270,1,45,2|0,0:0|0:0,0:0:0:0:
369,373,77777,2,0,L|372:304,1,45,2|0,0:0|0:0,0:0:0:0:
325,235,77965,6,0,B|308:117|308:117|300:71|340:48,1,182.250000695229,2|0,3:2|0:0,0:0:0:0:
335,67,78340,2,0,P|322:121|380:140,1,114.750002188683,2|0,3:2|0:0,0:0:0:0:
469,88,78715,6,0,L|409:80,3,49.5000015106202,10|2|2|2,0:2|0:0|0:0|0:0,0:0:0:0:
232,51,79090,6,0,L|172:43,1,49.5000015106202,2|2,0:2|0:2,0:0:0:0:
243,152,79277,2,0,L|303:144,1,49.5000015106202,2|2,0:2|0:2,0:0:0:0:
159,128,79465,6,0,B|61:116|61:116|20:112|-10:141|-5:187,1,188.999994232178,2|0,3:2|0:0,0:0:0:0:
7,171,79840,2,0,P|31:131|96:162,1,121.499996292114,2|0,3:2|0:0,0:0:0:0:
68,234,80215,6,0,L|57:316,3,49.5000015106202,10|2|2|2,0:2|0:2|0:2|0:2,0:0:0:0:
180,372,80590,6,0,L|108:368,1,49.5000015106202,2|2,0:2|0:2,0:0:0:0:
5,287,80777,2,0,L|76:292,1,49.5000015106202,2|2,0:2|0:2,0:0:0:0:
158,246,80965,6,0,B|288:231|288:231|307:266|355:265,1,195.750005973816,2|0,3:2|0:0,0:0:0:0:
347,253,81340,2,0,P|293:221|319:157,1,128.249996575356,2|0,3:2|0:0,0:0:0:0:
398,177,81715,5,10,0:0:0:0:
424,319,81902,2,0,L|421:353,2,24.7500007553101,0|0|0,3:0|3:0|3:0,0:0:0:0:
407,211,82090,5,10,0:2:0:0:
409,181,82183,1,2,3:2:0:0:
411,151,82277,1,2,3:2:0:0:
414,121,82371,1,2,3:2:0:0:
417,90,82465,6,0,P|335:129|286:53,1,175.499991966248,2|0,3:2|0:0,0:0:0:0:
284,64,82840,2,0,L|170:53,1,108,2|0,3:2|0:0,0:0:0:0:
79,45,83215,5,10,0:2:0:0:
80,69,83308,1,2,0:2:0:0:
81,94,83402,1,2,0:2:0:0:
82,119,83496,1,2,0:2:0:0:
85,144,83590,6,0,L|91:225,1,49.5000015106202,2|2,0:2|0:2,0:0:0:0:
198,247,83777,2,0,L|202:195,1,49.5000015106202,2|2,0:2|0:2,0:0:0:0:
57,287,83965,6,0,P|96:320|193:250,1,182.250000695229,2|0,3:2|0:0,0:0:0:0:
201,262,84340,2,0,L|323:275,1,114.750002188683,2|0,3:2|0:0,0:0:0:0:
340,360,84715,5,10,0:2:0:0:
366,363,84808,1,2,0:2:0:0:
392,366,84902,1,2,0:2:0:0:
418,369,84996,1,2,0:2:0:0:
445,372,85090,6,0,L|437:290,1,49.5000015106202,2|2,0:2|0:2,0:0:0:0:
489,184,85277,2,0,L|497:266,1,49.5000015106202,2|2,0:2|0:2,0:0:0:0:
396,217,85465,6,0,P|344:168|381:61,1,188.999994232178,2|0,3:2|0:0,0:0:0:0:
386,59,85840,2,0,L|476:68,1,80.9999975280763,2|0,3:2|0:0,0:0:0:0:
466,67,86121,1,2,0:2:0:0:
462,99,86215,5,10,0:0:0:0:
442,124,86308,1,2,0:0:0:0:
414,140,86402,1,2,0:0:0:0:
381,144,86496,1,2,0:0:0:0:
349,137,86590,6,0,L|294:131,1,40.4999987640381,2|2,0:0|0:0,0:0:0:0:
201,36,86777,2,0,L|256:42,1,40.4999987640381,2|2,0:0|0:0,0:0:0:0:
246,217,86965,6,0,P|262:293|167:370,1,195.750005973816,2|0,3:2|0:0,0:0:0:0:
166,369,87340,2,0,L|40:349,1,121.499996292114,2|0,3:2|0:0,0:0:0:0:
0,244,87715,6,0,B|87:214|102:113|102:113|86:214|171:274,1,360,10|4,0:2|0:1,0:0:0:0:
169,223,91840,6,0,B|328:238|230:285|392:302,1,225,8|0,0:1|0:0,0:0:0:0:
386,300,92965,6,0,L|377:174,1,120,4|0,3:2|0:0,0:0:0:0:
425,102,93340,2,0,L|493:115,2,60
358,34,93715,6,0,P|318:38|261:69,1,90,10|0,0:0|0:0,0:0:0:0:
202,12,93996,2,0,P|185:63|200:116,1,90,10|0,0:0|0:0,0:0:0:0:
132,160,94277,2,0,P|153:173|184:183,1,45,10|0,0:0|0:0,0:0:0:0:
264,145,94465,6,0,L|255:271,1,120,0|2,3:0|0:0,0:0:0:0:
325,313,94840,1,10,0:0:0:0:
322,342,94965,1,8,0:0:0:0:
307,368,95090,1,8,0:0:0:0:
214,372,95215,6,0,P|165:363|116:316,1,90,10|0,0:0|0:0,0:0:0:0:
56,382,95496,2,0,P|45:335|76:273,1,90,10|0,0:0|0:0,0:0:0:0:
8,224,95777,2,0,P|32:212|59:210,1,45,10|0,0:0|0:0,0:0:0:0:
111,157,95965,6,0,L|102:79,2,60,2|2|2,3:2|0:2|3:2,0:0:0:0:
183,200,96340,1,10,3:2:0:0:
212,207,96465,1,0,0:0:0:0:
241,199,96590,1,0,0:0:0:0:
261,177,96715,6,0,L|254:104,2,60,2|2|2,3:2|0:2|3:2,0:0:0:0:
339,226,97090,1,10,3:2:0:0:
374,222,97215,1,0,3:0:0:0:
409,217,97340,1,0,3:0:0:0:
444,215,97465,6,0,L|436:284,2,60,2|0|0,3:2|0:2|3:2,0:0:0:0:
502,109,97840,2,0,L|510:40,2,60,10|0|0,3:2|3:2|3:2,0:0:0:0:
413,133,98215,5,10,3:2:0:0:
377,137,98340,1,2,3:2:0:0:
341,141,98465,1,2,3:2:0:0:
305,145,98590,2,0,P|248:150|256:69,1,120,2|0,3:2|3:0,0:0:0:0:
303,64,98965,6,0,B|246:81|246:81|169:68,1,120,0|0,3:0|0:0,0:0:0:0:
95,58,99340,2,0,L|107:-2,2,60
18,114,99715,6,0,P|30:170|65:203,1,90,10|0,2:2|0:0,0:0:0:0:
6,277,99996,2,0,P|54:285|100:262,1,90,10|0,2:2|0:0,0:0:0:0:
137,343,100277,2,0,P|159:326|173:298,1,45,10|0,2:2|0:0,0:0:0:0:
163,221,100465,6,0,L|293:237,1,120,0|2,3:0|0:0,0:0:0:0:
303,315,100840,1,10,0:0:0:0:
332,319,100965,1,8,0:0:0:0:
361,311,101090,1,8,0:0:0:0:
411,247,101215,6,0,P|421:199|409:157,1,90,10|0,0:2|0:0,0:0:0:0:
483,110,101496,2,0,P|434:75|372:78,1,90,10|0,0:2|0:0,0:0:0:0:
358,0,101777,2,0,P|334:20|326:51,1,45,10|0,0:2|0:0,0:0:0:0:
269,121,101965,6,0,L|329:116,2,60,2|2|2,3:2|0:2|3:2,0:0:0:0:
183,70,102340,1,10,3:2:0:0:
153,68,102465,1,0,0:0:0:0:
123,66,102590,1,0,0:0:0:0:
93,63,102715,6,0,L|84:3,2,60,2|2|2,3:2|0:2|3:2,0:0:0:0:
132,150,103090,1,10,3:2:0:0:
139,185,103215,1,0,3:0:0:0:
144,220,103340,1,0,3:0:0:0:
152,254,103465,6,0,L|129:377,1,120,2|0,3:2|3:0,0:0:0:0:
52,327,103840,2,0,L|66:253,2,60,10|0|0,3:2|0:0|0:0,0:0:0:0:
229,300,104215,2,0,L|215:374,2,60,10|2|2,3:2|0:2|0:2,0:0:0:0:
247,217,104590,2,0,P|303:198|391:244,1,120,10|0,3:2|0:0,0:0:0:0:
447,321,104965,6,0,P|438:253|464:199,1,99.0000030212403,2|0,3:2|0:0,0:0:0:0:
505,113,105340,6,0,L|514:53,3,49.5000015106202,2|0|0|0,3:2|0:0|0:0|0:0,0:0:0:0:
420,74,105715,2,0,L|410:25,3,49.5000015106202,2|0|0|0,3:2|0:0|0:0|0:0,0:0:0:0:
327,59,106090,2,0,L|282:13,3,49.5000015106202,2|0|0|0,3:2|0:0|0:0|0:0,0:0:0:0:
232,82,106465,6,0,P|240:130|228:191,1,99.0000030212403,2|0,3:2|0:0,0:0:0:0:
258,337,106840,2,0,L|332:328,3,49.5000015106202,2|0|0|0,3:2|0:0|0:0|0:0,0:0:0:0:
165,297,107215,2,0,L|224:243,3,49.5000015106202,2|0|0|0,3:2|0:0|0:0|0:0,0:0:0:0:
66,317,107590,2,0,L|72:253,3,49.5000015106202,2|0|0|0,3:2|0:0|0:0|0:0,0:0:0:0:
82,186,107965,5,2,3:2:0:0:
80,171,108058,1,0,0:0:0:0:
78,156,108152,1,0,0:0:0:0:
77,141,108246,1,0,0:0:0:0:
76,126,108340,2,0,L|70:68,2,49.5000015106202,8|0|2,0:2|0:0|0:2,0:0:0:0:
177,202,108715,5,10,0:2:0:0:
173,172,108808,1,0,0:0:0:0:
169,142,108902,1,0,0:0:0:0:
165,112,108996,1,0,0:0:0:0:
161,82,109090,1,0,3:0:0:0:
158,52,109183,1,0,0:0:0:0:
155,22,109277,1,10,0:2:0:0:
258,3,109465,5,2,3:2:0:0:
337,81,109652,1,0,0:0:0:0:
337,81,109746,1,0,0:0:0:0:
337,81,109840,1,10,0:0:0:0:
428,25,110027,5,0,3:0:0:0:
428,25,110121,1,0,3:0:0:0:
428,25,110215,2,0,L|424:82,1,49.5000015106202,10|0,0:0|0:0,0:0:0:0:
485,146,110402,5,0,3:0:0:0:
472,164,110496,1,0,3:0:0:0:
458,184,110590,2,0,L|405:201,3,49.5000015106202,10|0|0|0,0:2|3:0|3:0|3:0,0:0:0:0:
326,220,110965,5,2,3:2:0:0:
328,235,111058,1,0,0:0:0:0:
330,250,111152,1,0,0:0:0:0:
331,265,111246,1,0,0:0:0:0:
332,280,111340,2,0,L|338:338,2,49.5000015106202,8|0|2,0:0|0:0|3:2,0:0:0:0:
231,204,111715,5,10,0:2:0:0:
235,233,111808,1,0,0:0:0:0:
239,264,111902,1,0,0:0:0:0:
243,294,111996,1,0,0:0:0:0:
247,324,112090,1,0,0:0:0:0:
250,354,112183,1,0,0:0:0:0:
253,384,112277,1,10,0:2:0:0:
146,337,112465,5,0,3:0:0:0:
119,349,112558,1,0,3:0:0:0:
89,349,112652,1,0,3:0:0:0:
62,334,112746,1,0,3:0:0:0:
44,310,112840,5,10,0:2:0:0:
52,276,112933,1,2,3:2:0:0:
60,242,113027,1,2,3:2:0:0:
70,208,113121,1,2,3:2:0:0:
103,198,113215,5,10,0:2:0:0:
