osu file format v14

[General]
AudioFilename: audio.mp3
AudioLeadIn: 0
PreviewTime: 25371
Countdown: 0
SampleSet: Soft
StackLeniency: 0.2
Mode: 0
LetterboxInBreaks: 0
WidescreenStoryboard: 0

[Editor]
Bookmarks: 25465,38590,38965,50965,61465,70465,88465,92965,104965
DistanceSpacing: 1.2
BeatDivisor: 4
GridSize: 16
TimelineZoom: 2.7

[Metadata]
Title:Dual Fractal
TitleUnicode:Dual Fractal
Artist:M2U
ArtistUnicode:M2U
Creator:Hynix
Version:Expert
Source:CHUNITHM STAR PLUS
Tags:setu shiratamamywife necho reincarnation cqmasai electronic instrumental rhythm video game CHUNITHM チュウニズム スター プラス ep. VII 7
BeatmapID:3192042
BeatmapSetID:1563134

[Difficulty]
HPDrainRate:5
CircleSize:4
OverallDifficulty:8.8
ApproachRate:9
SliderMultiplier:2.1
SliderTickRate:1

[Events]
//Background and Video events
0,0,"wallhaven-g79dq7.jpg",0,0
//Break Periods
2,88664,89740
//Storyboard Layer 0 (Background)
//Storyboard Layer 1 (Fail)
//Storyboard Layer 2 (Pass)
//Storyboard Layer 3 (Foreground)
//Storyboard Layer 4 (Overlay)
//Storyboard Sound Samples

[TimingPoints]
1465,375,4,2,1,50,1,0
1465,-200,4,2,1,50,0,0
12715,-160,4,2,1,50,0,0
13465,-200,4,2,1,50,0,0
14965,-166.666666666667,4,2,1,55,0,0
16089,-166.666666666667,4,2,1,50,0,0
16465,-142.857142857143,4,2,1,60,0,0
17589,-142.857142857143,4,2,1,50,0,0
17965,-125,4,2,1,65,0,0
19090,-125,4,2,1,50,0,0
19465,-125,4,2,1,65,0,0
19558,-125,4,2,1,50,0,0
25371,-100,4,2,1,70,0,0
30340,-100,4,2,1,50,0,0
30527,-100,4,2,1,70,0,0
31090,-100,4,2,1,50,0,0
31465,-90.9090909090909,4,2,1,70,0,0
31558,-90.9090909090909,4,2,1,50,0,0
31652,-90.9090909090909,4,2,1,70,0,0
33995,-90.9090909090909,4,2,1,50,0,0
34090,-90.9090909090909,4,2,1,70,0,0
34183,-90.9090909090909,4,2,1,50,0,0
34277,-90.9090909090909,4,2,1,70,0,0
34370,-90.9090909090909,4,2,1,50,0,0
34465,-90.9090909090909,4,2,1,70,0,0
34558,-90.9090909090909,4,2,1,50,0,0
34652,-90.9090909090909,4,2,1,70,0,0
35308,-90.9090909090909,4,2,1,50,0,0
35402,-90.9090909090909,4,2,1,70,0,0
36058,-90.9090909090909,4,2,1,50,0,0
36152,-90.9090909090909,4,2,1,70,0,0
36808,-90.9090909090909,4,2,1,50,0,0
36902,-200,4,2,1,70,0,0
38589,-200,4,2,1,50,0,0
38871,-100,4,2,2,60,0,0
38965,-133.333333333333,4,2,2,60,0,0
39246,-133.333333333333,4,2,2,50,0,0
39340,-100,4,2,2,60,0,0
39996,-100,4,2,2,50,0,0
40090,-100,4,2,2,60,0,0
41308,-100,4,2,2,50,0,0
41402,-100,4,2,2,60,0,0
41683,-100,4,2,2,50,0,0
41871,-100,4,2,2,60,0,0
42808,-100,4,2,2,50,0,0
42996,-100,4,2,2,60,0,0
43183,-100,4,2,2,50,0,0
43371,-100,4,2,2,60,0,0
44308,-100,4,2,2,50,0,0
44402,-100,4,2,2,60,0,0
44965,-90.9090909090909,4,2,1,70,0,0
45433,-90.9090909090909,4,2,1,50,0,0
45527,-90.9090909090909,4,2,1,70,0,0
45620,-90.9090909090909,4,2,1,50,0,0
45715,-90.9090909090909,4,2,1,70,0,0
45808,-90.9090909090909,4,2,1,50,0,0
45902,-90.9090909090909,4,2,1,70,0,0
46183,-90.9090909090909,4,2,1,50,0,0
46277,-90.9090909090909,4,2,1,70,0,0
46933,-90.9090909090909,4,2,1,50,0,0
47027,-90.9090909090909,4,2,1,70,0,0
47120,-90.9090909090909,4,2,1,50,0,0
47215,-90.9090909090909,4,2,1,70,0,0
49465,-181.818181818182,4,2,1,70,0,0
50215,-90.9090909090909,4,2,1,70,0,0
50308,-90.9090909090909,4,2,1,50,0,0
50590,-133.333333333333,4,2,1,70,0,0
50871,-133.333333333333,4,2,1,50,0,0
50965,-100,4,2,2,60,0,0
51152,-100,4,2,2,50,0,0
51340,-100,4,2,2,60,0,0
51996,-100,4,2,2,50,0,0
52090,-100,4,2,2,60,0,0
53308,-100,4,2,2,50,0,0
53402,-100,4,2,2,60,0,0
53683,-100,4,2,2,50,0,0
53871,-100,4,2,2,60,0,0
54808,-100,4,2,2,50,0,0
54996,-100,4,2,2,60,0,0
55183,-100,4,2,2,50,0,0
55371,-100,4,2,2,60,0,0
56308,-100,4,2,2,50,0,0
56402,-100,4,2,2,60,0,0
56965,-90.9090909090909,4,2,1,70,0,0
57433,-90.9090909090909,4,2,1,50,0,0
57527,-90.9090909090909,4,2,1,70,0,0
57620,-90.9090909090909,4,2,1,50,0,0
57715,-90.9090909090909,4,2,1,70,0,0
57808,-90.9090909090909,4,2,1,50,0,0
57902,-90.9090909090909,4,2,1,70,0,0
58183,-90.9090909090909,4,2,1,50,0,0
58277,-90.9090909090909,4,2,1,70,0,0
58370,-90.9090909090909,4,2,1,50,0,0
58465,-90.9090909090909,4,2,1,70,0,0
58652,-90.9090909090909,4,2,1,50,0,0
58840,-90.9090909090909,4,2,1,70,0,0
59308,-90.9090909090909,4,2,1,50,0,0
59402,-90.9090909090909,4,2,1,70,0,0
60715,-133.333333333333,4,2,1,70,0,0
60996,-133.333333333333,4,2,1,50,0,0
61090,-90.9090909090909,4,2,1,70,0,0
61371,-90.9090909090909,4,2,1,50,0,0
61465,-100,4,2,1,70,0,0
61746,-100,4,2,1,50,0,0
61840,-100,4,2,1,70,0,0
64465,-100,4,2,2,70,0,0
64558,-100,4,2,2,50,0,0
64652,-100,4,2,2,70,0,0
66995,-100,4,2,2,50,0,0
67090,-100,4,2,2,70,0,0
67183,-100,4,2,2,50,0,0
67277,-100,4,2,2,70,0,0
67370,-100,4,2,2,50,0,0
67465,-90.9090909090909,4,2,1,70,0,0
69808,-90.9090909090909,4,2,1,50,0,0
69902,-125,4,2,1,70,0,0
70370,-125,4,2,1,50,0,0
70465,-66.6666666666667,4,2,1,70,0,0
70652,-66.6666666666667,4,2,1,50,0,0
70840,-66.6666666666667,4,2,1,70,0,1
71121,-66.6666666666667,4,2,1,50,0,0
71215,-66.6666666666667,4,2,1,70,0,0
73465,-66.6666666666667,4,2,1,70,0,0
73652,-66.6666666666667,4,2,1,50,0,0
73840,-66.6666666666667,4,2,1,70,0,1
74121,-66.6666666666667,4,2,1,50,0,0
74215,-66.6666666666667,4,2,1,70,0,0
76465,-66.6666666666667,4,2,1,70,0,1
76746,-66.6666666666667,4,2,1,50,0,0
76840,-100,4,2,1,70,0,0
77965,-62.5,4,2,1,70,0,1
78246,-62.5,4,2,1,50,0,0
78340,-90.9090909090909,4,2,1,70,0,0
79465,-58.8235294117647,4,2,1,70,0,1
79746,-58.8235294117647,4,2,1,50,0,0
79840,-83.3333333333333,4,2,1,70,0,0
80965,-58.8235294117647,4,2,1,70,0,1
81246,-58.8235294117647,4,2,1,50,0,0
81340,-100,4,2,1,70,0,0
82465,-66.6666666666667,4,2,1,70,0,1
82746,-66.6666666666667,4,2,1,50,0,0
82840,-100,4,2,1,70,0,0
83965,-62.5,4,2,1,70,0,1
84246,-62.5,4,2,1,70,0,0
84340,-90.9090909090909,4,2,1,70,0,0
85465,-58.8235294117647,4,2,1,70,0,1
85746,-58.8235294117647,4,2,1,50,0,0
85840,-83.3333333333333,4,2,1,70,0,0
86965,-55.5555555555556,4,2,1,70,0,1
87246,-55.5555555555556,4,2,1,70,0,0
87340,-76.9230769230769,4,2,1,70,0,0
90340,-76.9230769230769,4,2,1,60,0,0
90433,-76.9230769230769,4,2,1,50,0,0
90527,-76.9230769230769,4,2,1,60,0,0
91558,-76.9230769230769,4,2,1,50,0,0
91840,-181.818181818182,4,2,1,60,0,0
92965,-100,4,2,2,70,0,0
93215,-100,4,2,2,50,0,0
93340,-100,4,2,2,70,0,0
93902,-100,4,2,2,50,0,0
93996,-100,4,2,2,70,0,0
94183,-100,4,2,2,50,0,0
94277,-100,4,2,2,70,0,0
94370,-100,4,2,2,50,0,0
94465,-100,4,2,2,70,0,0
95402,-100,4,2,2,50,0,0
95496,-100,4,2,2,70,0,0
95683,-100,4,2,2,50,0,0
95777,-100,4,2,2,70,0,0
95870,-100,4,2,2,50,0,0
95965,-100,4,2,2,70,0,0
101402,-100,4,2,2,50,0,0
101496,-100,4,2,2,70,0,0
101683,-100,4,2,2,50,0,0
101777,-100,4,2,2,70,0,0
101870,-100,4,2,2,50,0,0
101965,-100,4,2,2,70,0,0
104840,-100,4,2,2,50,0,0
104965,-90.9090909090909,4,2,1,70,0,0
105246,-90.9090909090909,4,2,1,50,0,0
105340,-90.9090909090909,4,2,1,70,0,0
109339,-90.9090909090909,4,2,1,50,0,0
109465,-90.9090909090909,4,2,1,70,0,0
109558,-90.9090909090909,4,2,1,50,0,0
109652,-90.9090909090909,4,2,1,70,0,0

[Colours]
Combo1 : 197,78,107
Combo2 : 128,128,192
Combo3 : 67,174,209
Combo4 : 182,113,67

[HitObjects]
59,338,1465,6,0,L|174:333,1,105,2|0,0:0|0:0,0:0:0:0:
238,372,2215,2,0,P|278:342|247:282,2,105,0|0|2,0:0|0:0|0:0,0:0:0:0:
163,333,3340,1,0,0:0:0:0:
156,251,3715,2,0,L|150:141,1,105
114,73,4465,6,0,P|142:45|204:60,1,105,2|0,0:0|0:0,0:0:0:0:
334,131,5215,2,0,P|306:159|244:144,1,105,2|0,0:0|0:0,0:0:0:0:
326,44,5965,2,0,L|445:64,2,105,2|0|0,0:0|0:0|0:0,0:0:0:0:
334,131,7090,1,0,0:0:0:0:
282,278,7465,5,2,0:0:0:0:
465,251,7840,1,0,0:0:0:0:
352,329,8215,2,0,P|364:300|368:272,1,52.5
459,242,8590,2,0,P|447:213|443:185,1,52.5
467,112,8965,6,0,P|427:80|374:101,1,105,2|0,0:0|0:0,0:0:0:0:
375,103,9527,1,0,0:0:0:0:
281,106,9715,2,0,P|286:138|311:170,1,52.5,2|0,0:0|0:0,0:0:0:0:
220,210,10090,2,0,P|251:243|278:250,1,52.5,2|0,0:0|0:0,0:0:0:0:
221,341,10465,6,0,P|275:344|328:314,1,105,2|0,0:0|0:0,0:0:0:0:
154,275,11215,2,0,P|100:272|47:302,1,105,2|0,0:0|0:0,0:0:0:0:
117,362,11965,6,0,P|168:277|160:210,1,157.5,2|0,0:0|0:0,0:0:0:0:
288,225,12715,6,0,P|241:155|261:39,1,196.875
343,36,13465,6,0,P|411:25|359:95,1,183.75
373,104,14215,2,0,P|369:154|384:218,1,105,2|0,0:0|0:0,0:0:0:0:
464,277,14965,6,0,P|378:254|423:332,1,220.499993270874
404,313,15715,2,0,B|341:291|352:332|274:312,1,125.999996154785,2|0,0:0|0:0,0:0:0:0:
164,312,16465,6,0,P|78:361|107:260,1,257.249992149353
131,230,17215,2,0,P|151:168|120:87,1,146.999995513916,2|0,0:0|0:0,0:0:0:0:
41,66,17965,6,0,P|137:76|326:156,1,294
424,144,18715,2,0,P|408:201|484:160,1,168,2|0,0:0|0:0,0:0:0:0:
256,192,19465,5,12,0:1:0:0:
256,192,19558,12,0,23777,0:0:0:0:
103,335,23965,5,0,0:0:0:0:
106,325,24340,1,0,0:0:0:0:
109,312,24715,1,0,0:0:0:0:
118,281,25090,1,0,0:0:0:0:
41,119,25371,6,0,L|7:122,1,26.25,2|2,0:0|0:0,0:0:0:0:
46,105,25465,6,0,P|113:112|179:126,1,105,4|0,3:2|0:0,0:0:0:0:
155,141,25746,1,0,0:0:0:0:
162,166,25840,1,0,0:0:0:0:
263,113,26027,1,0,0:0:0:0:
347,160,26215,2,0,P|302:273|278:370,1,210,8|0,0:0|0:0,0:0:0:0:
462,228,26871,5,0,0:0:0:0:
476,232,26965,2,0,P|463:144|426:24,1,210,0|0,3:0|0:0,0:0:0:0:
332,0,27527,1,0,0:0:0:0:
152,74,27715,2,0,P|239:86|364:121,1,210,8|0,0:0|0:0,0:0:0:0:
359,107,28465,6,0,P|258:78|154:62,1,210,0|0,3:0|0:0,0:0:0:0:
0,219,29121,1,0,0:0:0:0:
4,231,29215,2,0,P|104:216|219:182,1,210,8|0,0:0|0:0,0:0:0:0:
192,212,29683,5,0,0:0:0:0:
188,254,29777,1,0,0:0:0:0:
213,298,29871,1,0,0:0:0:0:
264,317,29965,2,0,P|348:320|495:360,1,210,0|0,3:0|0:0,0:0:0:0:
512,211,30527,5,0,0:0:0:0:
463,218,30621,1,0,0:0:0:0:
414,228,30715,2,0,P|420:132|446:13,1,210,8|0,0:0|0:0,0:0:0:0:
454,18,31277,1,0,0:0:0:0:
388,205,31465,6,0,P|358:215|309:214,1,57.7500017623902,6|0,3:2|0:0,0:0:0:0:
219,128,31652,1,0,0:0:0:0:
219,128,31746,1,0,0:0:0:0:
219,128,31840,1,8,0:0:0:0:
339,85,32027,1,0,0:0:0:0:
317,217,32215,5,0,3:2:0:0:
200,269,32402,1,0,0:0:0:0:
200,269,32496,1,0,0:0:0:0:
200,269,32590,1,8,0:0:0:0:
87,179,32777,1,0,0:0:0:0:
107,41,32965,5,0,3:2:0:0:
219,128,33152,1,0,0:0:0:0:
219,128,33246,1,0,0:0:0:0:
219,128,33340,1,8,0:0:0:0:
193,265,33527,1,0,0:0:0:0:
301,364,33715,5,2,3:2:0:0:
424,297,33902,2,0,L|487:307,1,57.7500017623902,2|0,0:0|0:0,0:0:0:0:
244,250,34090,2,0,L|181:260,1,57.7500017623902,10|0,0:0|0:0,0:0:0:0:
364,107,34277,2,0,L|374:193,1,57.7500017623902,2|0,0:0|0:0,0:0:0:0:
292,358,34465,6,0,P|296:325|309:294,1,57.7500017623902,6|0,3:2|0:0,0:0:0:0:
378,184,34652,1,0,0:0:0:0:
378,184,34746,1,0,0:0:0:0:
378,184,34840,1,8,0:0:0:0:
289,64,35027,1,0,0:0:0:0:
227,188,35215,6,0,P|233:224|247:253,1,57.7500017623902,2|0,3:2|0:0,0:0:0:0:
378,184,35402,1,0,0:0:0:0:
378,184,35496,1,0,0:0:0:0:
378,184,35590,1,8,0:0:0:0:
141,74,35777,1,0,0:0:0:0:
71,199,35965,6,0,P|105:213|150:215,1,57.7500017623902,2|0,3:2|0:0,0:0:0:0:
124,118,36152,1,0,0:0:0:0:
124,118,36246,1,0,0:0:0:0:
111,159,36340,5,8,0:0:0:0:
131,210,36433,5,0,3:0:0:0:
186,241,36527,5,0,3:0:0:0:
254,230,36621,5,0,3:0:0:0:
293,165,36715,6,0,P|294:141|275:100,1,57.7500017623902,2|0,3:2|0:0,0:0:0:0:
427,220,36902,6,0,B|367:289|404:378|404:378|439:307|512:306|512:306|432:267|426:163,1,472.5,6|0,0:0|0:0,0:0:0:0:
291,355,38871,6,0,L|296:399,1,26.25,2|2,0:0|0:0,0:0:0:0:
303,343,38965,6,0,P|304:285|323:218,1,118.125004506111,4|0,3:2|0:0,0:0:0:0:
386,119,39340,1,0,0:0:0:0:
363,77,39433,1,0,0:0:0:0:
320,56,39527,1,0,0:0:0:0:
272,56,39621,1,0,0:0:0:0:
231,81,39715,6,0,P|157:120|91:169,1,157.5,8|0,0:0|0:0,0:0:0:0:
21,144,40090,2,0,P|2:225|62:266,1,157.5
127,291,40465,5,0,3:0:0:0:
167,280,40558,1,0,0:0:0:0:
209,282,40652,1,0,0:0:0:0:
247,297,40746,1,0,0:0:0:0:
279,314,40840,1,0,0:0:0:0:
313,325,40933,1,0,0:0:0:0:
349,321,41027,1,0,0:0:0:0:
381,303,41121,1,0,0:0:0:0:
399,277,41215,6,0,P|405:245|400:217,3,52.5,8|0|0|0,0:0|0:0|0:0|0:0,0:0:0:0:
485,169,41590,6,0,P|471:146|452:128,2,52.5
447,26,41871,2,0,L|484:35,1,26.25,2|2,0:0|0:0,0:0:0:0:
444,9,41965,6,0,P|343:12|287:39,1,157.5,0|0,3:0|0:0,0:0:0:0:
281,64,42340,2,0,L|289:138,3,52.5
215,180,42715,5,8,0:0:0:0:
173,201,42808,1,0,0:0:0:0:
125,203,42902,1,0,0:0:0:0:
80,187,42996,1,0,0:0:0:0:
52,154,43090,1,0,0:0:0:0:
44,112,43183,1,0,0:0:0:0:
52,70,43277,1,0,0:0:0:0:
78,37,43371,1,0,0:0:0:0:
112,23,43465,6,0,L|169:34,1,52.5,0|0,3:0|0:0,0:0:0:0:
278,147,43746,1,0,0:0:0:0:
271,155,43840,2,0,L|206:170,1,52.5
39,252,44121,1,0,0:0:0:0:
53,275,44215,2,0,L|113:287,1,52.5,8|0,0:0|0:0,0:0:0:0:
109,299,44402,5,0,0:0:0:0:
139,328,44496,1,0,0:0:0:0:
178,342,44590,1,0,0:0:0:0:
219,341,44683,1,0,0:0:0:0:
259,328,44777,1,0,0:0:0:0:
288,297,44871,1,0,0:0:0:0:
303,257,44965,6,0,L|432:277,1,115.50000352478,2|0,3:2|0:0,0:0:0:0:
512,354,45340,2,0,P|477:373|452:398,1,57.7500017623902,8|0,0:0|0:0,0:0:0:0:
444,222,45527,2,0,P|417:251|402:283,1,57.7500017623902
342,114,45715,2,0,P|327:151|324:186,1,57.7500017623902
450,120,45902,1,0,3:0:0:0:
272,31,46090,6,0,L|214:36,1,57.7500017623902,8|0,0:0|0:0,0:0:0:0:
56,121,46277,2,0,L|114:116,1,57.7500017623902
235,168,46465,6,0,P|248:227|251:303,1,115.50000352478,2|0,3:2|0:0,0:0:0:0:
188,360,46840,2,0,L|124:366,1,57.7500017623902,8|0,0:0|0:0,0:0:0:0:
344,234,47027,2,0,L|408:240,1,57.7500017623902
121,116,47215,2,0,P|102:173|94:250,1,115.50000352478,0|0,0:0|3:0,0:0:0:0:
168,324,47590,1,10,0:2:0:0:
214,320,47683,1,2,0:0:0:0:
262,315,47777,1,2,0:0:0:0:
400,384,47965,5,2,3:2:0:0:
425,339,48058,1,0,0:0:0:0:
429,287,48152,1,0,0:0:0:0:
413,237,48246,1,0,0:0:0:0:
433,189,48340,5,2,3:2:0:0:
408,150,48433,1,0,0:0:0:0:
366,130,48527,1,0,0:0:0:0:
319,131,48621,1,0,0:0:0:0:
283,100,48715,5,2,3:2:0:0:
243,104,48808,1,0,0:0:0:0:
210,128,48902,1,0,0:0:0:0:
196,166,48996,1,0,0:0:0:0:
158,181,49090,5,2,3:2:0:0:
147,213,49183,1,0,0:0:0:0:
149,247,49277,1,0,0:0:0:0:
165,277,49371,1,0,0:0:0:0:
164,312,49465,6,0,P|220:340|271:328,1,115.50000352478,2|2,3:3|0:3,0:0:0:0:
347,283,50027,1,0,0:0:0:0:
255,98,50215,2,0,L|249:25,1,57.7500017623902,2|0,0:3|0:0,0:0:0:0:
142,14,50590,6,0,L|127:159,1,118.125004506111,4|0,3:0|0:0,0:0:0:0:
43,236,50965,6,0,P|99:225|174:222,1,105,4|0,3:2|0:0,0:0:0:0:
272,215,51340,1,0,0:0:0:0:
313,237,51433,1,0,0:0:0:0:
333,279,51527,1,0,0:0:0:0:
322,325,51621,1,0,0:0:0:0:
279,346,51715,6,0,P|275:270|298:183,1,157.5,8|0,0:0|0:0,0:0:0:0:
255,114,52090,2,0,P|281:59|362:85,1,157.5
439,112,52465,5,0,3:0:0:0:
422,150,52558,1,0,0:0:0:0:
417,191,52652,1,0,0:0:0:0:
428,231,52746,1,0,0:0:0:0:
452,258,52840,1,0,0:0:0:0:
466,291,52933,1,0,0:0:0:0:
470,327,53027,1,0,0:0:0:0:
455,360,53121,1,0,0:0:0:0:
424,382,53215,6,0,P|396:387|363:374,3,52.5,8|0|0|0,0:0|0:0|0:0|0:0,0:0:0:0:
272,384,53590,6,0,P|265:365|262:326,2,52.5
177,284,53871,2,0,L|167:308,1,26.25,2|2,0:0|0:0,0:0:0:0:
169,272,53965,6,0,P|156:187|126:117,1,157.5,2|0,3:2|0:0,0:0:0:0:
103,110,54340,2,0,L|39:107,3,52.5
28,31,54715,5,8,0:0:0:0:
67,12,54808,1,0,0:0:0:0:
114,7,54902,1,0,0:0:0:0:
158,23,54996,1,0,0:0:0:0:
188,59,55090,1,0,0:0:0:0:
198,99,55183,1,0,0:0:0:0:
196,141,55277,1,0,0:0:0:0:
174,177,55371,1,0,0:0:0:0:
139,200,55465,6,0,L|74:197,1,52.5,0|0,3:0|0:0,0:0:0:0:
172,358,55746,1,0,0:0:0:0:
179,369,55840,2,0,L|250:374,1,52.5
391,251,56121,1,0,0:0:0:0:
377,274,56215,2,0,L|306:279,1,52.5,8|0,0:0|0:0,0:0:0:0:
306,270,56402,5,0,0:0:0:0:
269,248,56496,1,0,0:0:0:0:
253,208,56590,1,0,0:0:0:0:
259,166,56683,1,0,0:0:0:0:
287,135,56777,1,0,0:0:0:0:
326,121,56871,1,0,0:0:0:0:
371,129,56965,6,0,P|379:76|409:13,1,115.50000352478,2|0,3:2|0:0,0:0:0:0:
468,125,57340,2,0,P|480:152|486:180,1,57.7500017623902,8|0,0:0|0:0,0:0:0:0:
377,227,57527,2,0,P|400:244|420:265,1,57.7500017623902
378,373,57715,2,0,P|407:376|434:384,1,57.7500017623902
497,311,57902,1,0,3:0:0:0:
294,261,58090,6,0,L|224:269,1,57.7500017623902,8|0,0:0|0:0,0:0:0:0:
57,346,58277,2,0,L|130:339,1,57.7500017623902
112,116,58465,6,0,P|115:178|126:235,1,115.50000352478,2|0,3:2|0:0,0:0:0:0:
239,78,58840,2,0,L|249:1,2,57.7500017623902,10|0|0,0:0|0:0|0:0,0:0:0:0:
247,179,59215,5,0,0:0:0:0:
282,187,59308,1,0,0:0:0:0:
314,182,59402,1,0,3:0:0:0:
344,164,59496,1,0,0:0:0:0:
372,127,59590,1,10,0:2:0:0:
425,107,59683,1,2,0:2:0:0:
486,128,59777,1,2,0:2:0:0:
426,12,59965,5,2,3:2:0:0:
434,202,60152,2,0,P|442:234|467:273,1,57.7500017623902,2|2,0:2|0:2,0:0:0:0:
464,257,60340,1,2,3:2:0:0:
282,98,60527,1,2,0:2:0:0:
306,286,60715,6,0,P|328:230|339:169,1,118.125004506111,2|0,3:2|0:0,0:0:0:0:
173,220,61090,6,0,P|187:304|227:388,1,173.250005287171,2|0,0:2|0:0,0:0:0:0:
197,141,61465,6,0,B|116:115|127:185|39:161,1,157.5,6|0,3:2|0:0,0:0:0:0:
70,84,61840,5,2,3:2:0:0:
111,61,61933,1,0,0:0:0:0:
157,54,62027,1,0,0:0:0:0:
203,61,62121,1,0,0:0:0:0:
232,31,62215,5,2,3:2:0:0:
270,47,62308,1,0,0:0:0:0:
296,79,62402,1,0,0:0:0:0:
311,118,62496,1,0,0:0:0:0:
347,123,62590,5,2,3:2:0:0:
354,158,62683,1,0,0:0:0:0:
350,194,62777,1,0,0:0:0:0:
335,228,62871,1,0,0:0:0:0:
352,258,62965,6,0,P|315:298|264:314,1,105,2|0,3:2|0:0,0:0:0:0:
142,360,63340,5,2,3:2:0:0:
134,324,63433,1,0,0:0:0:0:
138,287,63527,1,0,0:0:0:0:
155,254,63621,1,0,0:0:0:0:
141,225,63715,5,2,3:2:0:0:
164,204,63808,1,0,0:0:0:0:
194,194,63902,1,0,0:0:0:0:
225,194,63996,1,0,0:0:0:0:
240,172,64090,5,2,3:2:0:0:
265,178,64183,1,0,0:0:0:0:
286,192,64277,1,0,0:0:0:0:
302,212,64371,1,0,0:0:0:0:
331,212,64465,6,0,P|345:236|349:284,1,52.5,6|0,3:2|0:0,0:0:0:0:
326,363,64652,1,0,0:0:0:0:
326,363,64746,1,0,0:0:0:0:
326,363,64840,1,8,0:0:0:0:
250,288,65027,1,0,0:0:0:0:
347,269,65215,5,0,3:2:0:0:
423,339,65402,1,0,0:0:0:0:
423,339,65496,1,0,0:0:0:0:
423,339,65590,1,8,0:0:0:0:
445,246,65777,1,0,0:0:0:0:
377,178,65965,5,0,3:2:0:0:
347,269,66152,1,0,0:0:0:0:
347,269,66246,1,0,0:0:0:0:
347,269,66340,1,8,0:0:0:0:
278,193,66527,1,0,0:0:0:0:
315,101,66715,5,0,3:2:0:0:
251,23,66902,2,0,L|192:17,1,52.5,2|0,0:2|0:0,0:0:0:0:
272,198,67090,2,0,L|335:199,1,52.5,2|0,3:2|0:0,0:0:0:0:
464,83,67277,2,0,L|412:89,1,52.5,2|0,0:2|0:0,0:0:0:0:
162,128,67465,6,0,P|171:181|177:252,1,115.50000352478,2|0,3:2|0:0,0:0:0:0:
154,243,67746,1,0,0:0:0:0:
136,245,67840,1,8,0:0:0:0:
247,338,68027,1,0,0:0:0:0:
34,289,68215,6,0,P|40:228|53:154,1,115.50000352478,2|0,3:2|0:0,0:0:0:0:
67,174,68496,1,0,0:0:0:0:
84,173,68590,1,8,0:0:0:0:
243,60,68777,1,4,0:3:0:0:
239,81,68871,1,4,0:3:0:0:
259,108,68965,5,8,0:3:0:0:
289,124,69058,1,8,0:3:0:0:
323,126,69152,1,4,0:3:0:0:
355,114,69246,1,4,0:3:0:0:
379,89,69340,5,8,0:2:0:0:
357,154,69433,1,0,3:0:0:0:
375,221,69527,1,0,3:0:0:0:
438,248,69621,1,0,3:0:0:0:
504,228,69715,6,0,L|511:163,1,57.7500017623902,0|0,3:0|0:0,0:0:0:0:
366,154,69902,6,0,B|375:314|375:314|339:365,1,210,2|0,0:3|0:0,0:0:0:0:
143,260,70465,6,0,P|211:249|304:297,1,157.500006008148,2|0,3:2|0:0,0:0:0:0:
108,336,70840,2,0,B|66:373|66:373|52:180,1,236.250009012223,14|0,0:0|0:0,0:0:0:0:
45,29,71215,5,2,0:0:0:0:
31,73,71308,1,2,0:0:0:0:
17,118,71402,1,2,0:0:0:0:
181,27,71590,5,0,3:0:0:0:
167,79,71683,1,0,0:0:0:0:
199,123,71777,1,0,0:0:0:0:
182,175,71871,1,0,0:0:0:0:
332,53,72058,1,0,0:0:0:0:
318,111,72152,1,2,3:2:0:0:
444,182,72340,5,2,0:2:0:0:
438,133,72434,1,0,0:2:0:0:
488,130,72528,1,0,3:2:0:0:
490,177,72621,1,0,3:2:0:0:
496,252,72715,5,10,0:2:0:0:
450,281,72808,1,0,0:2:0:0:
394,290,72902,1,0,0:0:0:0:
340,280,72996,1,0,0:0:0:0:
293,221,73090,6,0,P|190:194|43:172,1,236.250009012223,10|2,0:2|0:2,0:0:0:0:
159,94,73465,6,0,P|232:75|311:38,1,157.500006008148,2|0,3:2|0:0,0:0:0:0:
74,47,73840,2,0,B|21:100|21:100|47:302,1,236.250009012223,14|0,0:0|0:0,0:0:0:0:
56,366,74215,5,2,0:0:0:0:
102,361,74308,1,2,0:0:0:0:
149,356,74402,1,2,0:0:0:0:
233,309,74590,5,0,3:0:0:0:
287,316,74683,1,0,0:0:0:0:
315,363,74777,1,0,0:0:0:0:
369,369,74871,1,0,0:0:0:0:
490,275,75058,1,0,0:0:0:0:
435,286,75152,1,2,3:2:0:0:
268,162,75340,5,2,0:2:0:0:
322,169,75434,1,0,0:0:0:0:
376,175,75528,1,0,3:0:0:0:
430,182,75622,1,0,3:0:0:0:
484,189,75715,5,10,0:0:0:0:
459,84,75902,2,0,P|455:65|456:44,2,39.3750015020371,0|0|0,3:0|3:0|3:0,0:0:0:0:
295,245,76090,1,10,0:2:0:0:
311,222,76183,1,2,3:2:0:0:
326,183,76277,1,2,3:2:0:0:
323,127,76371,1,2,3:2:0:0:
304,62,76465,6,0,P|190:65|10:125,1,236.250009012223,6|0,3:2|0:0,0:0:0:0:
109,178,76840,2,0,P|120:133|57:98,1,105,2|0,3:2|0:0,0:0:0:0:
13,217,77215,6,0,B|20:297|20:297|41:314,1,105,10|0,0:0|0:0,0:0:0:0:
261,240,77590,6,0,L|190:233,1,52.5,2|0,0:0|0:0,0:0:0:0:
51,317,77777,2,0,L|122:324,1,52.5,2|0,0:0|0:0,0:0:0:0:
289,379,77965,6,0,P|297:267|340:105,1,252,2|0,3:2|0:0,0:0:0:0:
435,136,78340,2,0,P|364:161|328:126,1,115.50000352478,2|0,3:2|0:0,0:0:0:0:
502,62,78715,5,10,0:2:0:0:
482,47,78808,1,2,0:0:0:0:
448,35,78902,5,2,0:0:0:0:
403,27,78996,1,2,0:0:0:0:
351,32,79090,5,2,0:2:0:0:
295,45,79183,1,2,0:2:0:0:
236,71,79277,5,2,0:2:0:0:
174,114,79371,1,2,0:2:0:0:
127,171,79465,6,0,P|258:200|404:257,1,267.750005106926,2|0,3:2|0:0,0:0:0:0:
462,317,79840,2,0,P|391:303|388:241,1,125.999996154785,2|0,3:2|0:0,0:0:0:0:
437,152,80215,5,10,0:2:0:0:
408,144,80308,1,2,0:2:0:0:
366,141,80402,5,2,0:2:0:0:
319,153,80496,1,2,0:2:0:0:
274,184,80590,5,2,0:2:0:0:
239,238,80683,1,2,0:2:0:0:
223,308,80777,5,2,0:2:0:0:
230,384,80871,1,2,0:2:0:0:
299,335,80965,6,0,P|269:235|145:58,1,267.750005106926,2|0,3:2|0:0,0:0:0:0:
42,17,81340,2,0,P|122:63|173:107,1,157.5,2|0,3:2|0:0,0:0:0:0:
162,191,81715,5,10,0:0:0:0:
243,31,81902,2,0,L|248:-11,2,26.25,0|0|0,3:0|3:0|3:0,0:0:0:0:
47,147,82090,1,10,0:2:0:0:
66,183,82183,1,2,3:2:0:0:
74,224,82277,1,2,3:2:0:0:
77,265,82371,1,2,3:2:0:0:
76,307,82465,6,0,P|195:275|332:252,1,236.250009012223,2|0,3:2|0:0,0:0:0:0:
351,344,82840,2,0,P|309:317|315:250,1,105,2|0,3:2|0:0,0:0:0:0:
441,269,83215,5,10,0:2:0:0:
443,232,83308,1,2,0:2:0:0:
473,210,83402,5,2,0:2:0:0:
462,169,83496,1,2,0:2:0:0:
480,131,83590,5,2,0:2:0:0:
447,97,83683,1,2,0:2:0:0:
429,53,83777,5,2,0:2:0:0:
371,46,83871,1,2,0:2:0:0:
329,8,83965,6,0,P|186:43|83:81,1,252,2|0,3:2|0:0,0:0:0:0:
146,165,84340,2,0,P|144:107|89:83,1,115.50000352478,2|0,3:2|0:0,0:0:0:0:
21,177,84715,5,10,0:2:0:0:
39,218,84808,1,2,0:2:0:0:
21,260,84902,5,2,0:2:0:0:
67,284,84996,1,2,0:2:0:0:
77,334,85090,5,2,0:2:0:0:
134,334,85183,1,2,0:2:0:0:
174,374,85277,5,2,0:2:0:0:
231,346,85371,1,2,0:2:0:0:
290,370,85465,6,0,P|323:252|376:113,1,267.750005106926,2|0,3:2|0:0,0:0:0:0:
488,69,85840,2,0,P|446:116|360:101,1,125.999996154785,2|0,3:2|0:0,0:0:0:0:
368,77,86121,1,2,0:2:0:0:
349,36,86215,5,10,0:0:0:0:
300,48,86308,1,2,0:0:0:0:
255,23,86402,5,2,0:0:0:0:
209,57,86496,1,2,0:0:0:0:
152,53,86590,5,2,0:0:0:0:
135,113,86683,1,2,0:0:0:0:
77,138,86777,5,2,0:0:0:0:
94,208,86871,1,2,0:0:0:0:
51,267,86965,6,0,P|201:289|358:335,1,283.499991348267,2|0,3:2|0:0,0:0:0:0:
444,309,87340,2,0,P|377:355|322:321,1,136.499993751526,2|0,3:2|0:0,0:0:0:0:
411,219,87621,1,0,0:0:0:0:
411,219,87715,6,0,B|476:204|438:135|523:119|523:119|336:154|336:154|229:175|283:272|178:291,1,545.999975006105,10|4,0:2|0:1,0:0:0:0:
412,145,90340,6,0,L|325:154,1,68.2499968757631,2|0,0:0|0:0,0:0:0:0:
331,146,90527,1,0,0:0:0:0:
306,151,90715,1,0,0:0:0:0:
262,177,90902,1,0,0:0:0:0:
181,160,91090,1,0,0:0:0:0:
154,80,91277,1,0,0:0:0:0:
221,9,91465,2,0,L|306:26,1,68.2499968757631,2|0,0:0|0:0,0:0:0:0:
255,309,91840,6,0,B|173:194|341:157|251:41,1,288.750008811951,8|0,0:1|0:0,0:0:0:0:
322,247,92965,6,0,P|390:271|476:280,1,140,4|0,3:2|0:0,0:0:0:0:
472,279,93340,1,0,0:0:0:0:
475,238,93465,1,0,0:0:0:0:
475,196,93590,1,0,0:0:0:0:
374,133,93715,6,0,P|341:126|288:73,1,105,10|0,0:0|0:0,0:0:0:0:
98,196,93996,2,0,P|127:180|210:178,1,105,10|0,0:0|0:0,0:0:0:0:
182,26,94277,2,0,P|192:59|193:82,1,52.5,10|0,0:0|0:0,0:0:0:0:
286,138,94465,6,0,P|284:217|266:293,1,140,0|2,3:0|0:0,0:0:0:0:
268,292,94840,1,10,0:0:0:0:
219,365,94965,1,8,0:0:0:0:
131,360,95090,1,8,0:0:0:0:
96,279,95215,6,0,P|90:243|56:184,1,105,10|0,0:0|0:0,0:0:0:0:
131,126,95496,2,0,P|103:102|35:87,1,105,10|0,0:0|0:0,0:0:0:0:
66,1,95777,2,0,P|29:0|2:10,1,52.5,10|0,0:0|0:0,0:0:0:0:
85,215,95965,5,2,3:2:0:0:
116,238,96090,1,2,0:2:0:0:
150,227,96215,1,2,3:2:0:0:
220,284,96340,5,10,3:2:0:0:
294,258,96465,1,0,0:0:0:0:
354,310,96590,1,0,0:0:0:0:
439,352,96715,5,2,3:2:0:0:
461,324,96840,1,2,0:2:0:0:
446,296,96965,1,2,3:2:0:0:
373,222,97090,5,10,3:2:0:0:
339,176,97215,1,0,3:0:0:0:
367,128,97340,1,0,3:0:0:0:
430,33,97465,5,2,3:2:0:0:
393,36,97590,1,0,0:2:0:0:
352,38,97715,2,0,L|310:41,1,35,0|0,3:2|3:2,0:0:0:0:
245,16,97840,5,10,3:2:0:0:
189,75,97965,1,0,3:2:0:0:
107,51,98090,1,0,3:2:0:0:
21,27,98215,5,10,3:2:0:0:
26,64,98340,1,2,3:2:0:0:
30,100,98465,1,2,3:2:0:0:
44,189,98590,6,0,P|31:217|-2:245,2,70,2|0|0,3:2|3:0|3:0,0:0:0:0:
139,193,98965,6,0,P|214:198|290:227,1,140,0|0,3:0|0:0,0:0:0:0:
276,231,99340,1,0,0:0:0:0:
279,265,99465,1,0,0:0:0:0:
282,299,99590,1,0,0:0:0:0:
155,380,99715,6,0,P|206:358|267:349,1,105,10|0,2:2|0:0,0:0:0:0:
505,312,99996,2,0,P|454:290|399:282,1,105,10|0,2:2|0:0,0:0:0:0:
278,142,100277,2,0,P|269:174|270:205,1,52.5,10|0,2:2|0:0,0:0:0:0:
388,221,100465,6,0,P|383:152|361:72,1,140,0|2,3:0|0:0,0:0:0:0:
360,76,100840,1,10,0:0:0:0:
287,28,100965,1,8,0:0:0:0:
198,40,101090,1,8,0:0:0:0:
143,115,101215,6,0,P|134:148|144:217,1,105,10|0,0:2|0:0,0:0:0:0:
39,229,101496,2,0,P|67:268|128:303,1,105,10|0,0:2|0:0,0:0:0:0:
87,381,101777,2,0,P|134:385|177:366,1,52.5,10|0,0:2|0:0,0:0:0:0:
215,292,101965,5,2,3:2:0:0:
260,273,102090,1,2,0:2:0:0:
299,301,102215,1,2,3:2:0:0:
365,354,102340,5,10,3:2:0:0:
426,291,102465,1,0,0:0:0:0:
396,209,102590,1,0,0:0:0:0:
332,125,102715,5,2,3:2:0:0:
337,83,102840,1,2,0:2:0:0:
343,41,102965,1,2,3:2:0:0:
432,120,103090,5,10,3:2:0:0:
341,137,103215,1,0,3:0:0:0:
257,99,103340,1,0,3:0:0:0:
174,50,103465,6,0,P|121:42|35:76,1,140,2|0,3:2|3:0,0:0:0:0:
30,68,103840,1,10,3:2:0:0:
35,116,103965,1,0,0:0:0:0:
40,164,104090,1,0,0:0:0:0:
22,253,104215,5,10,3:2:0:0:
102,282,104340,1,2,0:2:0:0:
175,236,104465,1,2,0:2:0:0:
258,264,104590,6,0,P|257:194|266:122,1,140,10|0,3:2|0:0,0:0:0:0:
354,285,104965,6,0,B|260:327|273:243|153:294,1,173.250005287171,2|0,3:2|0:0,0:0:0:0:
326,375,105340,5,2,3:2:0:0:
377,371,105433,1,0,0:0:0:0:
422,345,105527,1,0,0:0:0:0:
441,296,105621,1,0,0:0:0:0:
488,275,105715,5,2,3:2:0:0:
484,229,105808,1,0,0:0:0:0:
467,185,105902,1,0,0:0:0:0:
435,151,105996,1,0,0:0:0:0:
438,104,106090,5,2,3:2:0:0:
400,88,106183,1,0,0:0:0:0:
359,85,106277,1,0,0:0:0:0:
320,96,106371,1,0,0:0:0:0:
284,74,106465,6,0,P|238:121|227:182,1,115.50000352478,2|0,3:2|0:0,0:0:0:0:
305,227,106840,5,2,3:2:0:0:
274,193,106933,1,0,0:0:0:0:
230,178,107027,1,0,0:0:0:0:
183,182,107121,1,0,0:0:0:0:
152,147,107215,5,2,3:2:0:0:
114,161,107308,1,0,0:0:0:0:
85,189,107402,1,0,0:0:0:0:
66,225,107496,1,0,0:0:0:0:
25,228,107590,5,2,3:2:0:0:
23,262,107683,1,0,0:0:0:0:
32,295,107777,1,0,0:0:0:0:
53,322,107871,1,0,0:0:0:0:
50,356,107965,5,2,3:2:0:0:
84,355,108058,1,0,0:0:0:0:
118,354,108152,1,0,0:0:0:0:
152,353,108246,1,0,0:0:0:0:
186,352,108340,2,0,P|208:330|217:282,1,57.7500017623902,8|0,0:2|0:0,0:0:0:0:
160,239,108527,1,2,0:2:0:0:
313,311,108715,5,10,0:2:0:0:
350,354,108808,1,0,0:0:0:0:
406,367,108902,1,0,0:0:0:0:
457,339,108996,1,0,0:0:0:0:
478,285,109090,1,0,3:0:0:0:
462,229,109183,1,0,0:0:0:0:
413,197,109277,2,0,L|397:242,2,38.5000011749268,10|0|0,0:2|0:0|0:0,0:0:0:0:
491,69,109465,5,2,3:2:0:0:
455,98,109558,1,0,0:0:0:0:
411,115,109652,1,0,0:0:0:0:
365,108,109746,1,0,0:0:0:0:
325,83,109840,1,10,0:0:0:0:
344,0,110027,1,0,3:0:0:0:
344,0,110121,1,0,3:0:0:0:
344,0,110215,6,0,L|255:7,1,57.7500017623902,10|0,0:0|0:0,0:0:0:0:
36,60,110402,1,0,3:0:0:0:
65,58,110496,1,0,3:0:0:0:
93,57,110590,5,10,0:2:0:0:
122,92,110683,1,0,3:0:0:0:
128,137,110777,1,0,3:0:0:0:
111,180,110871,1,0,3:0:0:0:
75,209,110965,5,2,3:2:0:0:
79,243,111058,1,0,0:0:0:0:
83,277,111152,1,0,0:0:0:0:
87,311,111246,1,0,0:0:0:0:
92,345,111340,2,0,P|126:355|176:337,1,57.7500017623902,8|0,0:0|0:0,0:0:0:0:
206,275,111527,1,2,3:2:0:0:
234,156,111715,5,10,0:2:0:0:
207,200,111808,1,0,0:0:0:0:
209,252,111902,1,0,0:0:0:0:
245,288,111996,1,0,0:0:0:0:
296,295,112090,1,0,0:0:0:0:
339,266,112183,1,0,0:0:0:0:
351,215,112277,1,10,0:2:0:0:
460,222,112465,5,0,3:0:0:0:
447,177,112558,1,0,3:0:0:0:
445,130,112652,1,0,3:0:0:0:
463,87,112746,1,0,3:0:0:0:
498,57,112840,5,10,0:2:0:0:
470,100,112933,1,2,3:2:0:0:
413,112,113027,1,2,3:2:0:0:
350,98,113121,1,2,3:2:0:0:
309,41,113215,5,10,0:2:0:0:
