osu file format v14

[General]
AudioFilename: audio.mp3
AudioLeadIn: 0
PreviewTime: 25371
Countdown: 0
SampleSet: Soft
StackLeniency: 0.4
Mode: 0
LetterboxInBreaks: 0
WidescreenStoryboard: 1

[Editor]
Bookmarks: 25465,38590,38965,50965,61465,70465,82465,98965
DistanceSpacing: 1.1
BeatDivisor: 4
GridSize: 16
TimelineZoom: 2.38

[Metadata]
Title:Dual Fractal
TitleUnicode:Dual Fractal
Artist:M2U
ArtistUnicode:M2U
Creator:Hynix
Version:Collab Hard
Source:CHUNITHM STAR PLUS
Tags:setu shiratamamywife necho reincarnation cqmasai electronic instrumental rhythm video game CHUNITHM チュウニズム スター プラス ep. VII 7
BeatmapID:3200330
BeatmapSetID:1563134

[Difficulty]
HPDrainRate:5
CircleSize:4
OverallDifficulty:5
ApproachRate:7.5
SliderMultiplier:1.6
SliderTickRate:1

[Events]
//Background and Video events
0,0,"wallhaven-g79dq7.jpg",0,0
//Break Periods
2,88665,89515
//Storyboard Layer 0 (Background)
//Storyboard Layer 1 (Fail)
//Storyboard Layer 2 (Pass)
//Storyboard Layer 3 (Foreground)
//Storyboard Layer 4 (Overlay)
//Storyboard Sound Samples

[TimingPoints]
1465,375,4,2,1,50,1,0
1465,-133.333333333333,4,2,1,50,0,0
14965,-133.333333333333,4,2,1,55,0,0
16465,-133.333333333333,4,2,1,60,0,0
17965,-133.333333333333,4,2,1,65,0,0
25090,-133.333333333333,4,2,1,50,0,0
25465,-100,4,2,1,70,0,0
29027,-100,4,2,1,50,0,0
29215,-100,4,2,1,70,0,0
30340,-100,4,2,1,50,0,0
30527,-100,4,2,1,70,0,0
31090,-100,4,2,1,50,0,0
31465,-100,4,2,1,70,0,0
38590,-100,4,2,1,50,0,0
38965,-111.111111111111,4,2,2,60,0,0
39902,-111.111111111111,4,2,2,50,0,0
40090,-111.111111111111,4,2,2,60,0,0
40277,-111.111111111111,4,2,2,50,0,0
40465,-111.111111111111,4,2,2,60,0,0
41777,-111.111111111111,4,2,2,50,0,0
41965,-111.111111111111,4,2,2,60,0,0
42902,-111.111111111111,4,2,2,50,0,0
43090,-111.111111111111,4,2,2,60,0,0
43277,-111.111111111111,4,2,2,50,0,0
43465,-111.111111111111,4,2,2,60,0,0
44965,-100,4,2,1,70,0,0
50965,-111.111111111111,4,2,2,60,0,0
51902,-111.111111111111,4,2,2,50,0,0
52090,-111.111111111111,4,2,2,60,0,0
52277,-111.111111111111,4,2,2,50,0,0
52465,-111.111111111111,4,2,2,60,0,0
53777,-111.111111111111,4,2,2,50,0,0
53965,-111.111111111111,4,2,2,60,0,0
54902,-111.111111111111,4,2,2,50,0,0
55090,-111.111111111111,4,2,2,60,0,0
55277,-111.111111111111,4,2,2,50,0,0
55465,-111.111111111111,4,2,2,60,0,0
56965,-100,4,2,1,70,0,0
64465,-100,4,2,2,70,0,0
67465,-100,4,2,1,70,0,0
70277,-100,4,2,1,50,0,0
70465,-100,4,2,1,70,0,0
70840,-100,4,2,1,70,0,1
73465,-100,4,2,1,70,0,0
73840,-100,4,2,1,70,0,1
76090,-100,4,2,1,70,0,0
76465,-100,4,2,1,70,0,1
88465,-100,4,2,1,70,0,0
92965,-100,4,2,2,70,0,0
93215,-100,4,2,2,50,0,0
93340,-100,4,2,2,70,0,0
104871,-100,4,2,2,50,0,0
104965,-100,4,2,1,70,0,0

[Colours]
Combo1 : 197,78,107
Combo2 : 128,128,192
Combo3 : 67,174,209
Combo4 : 182,113,67

[HitObjects]
42,273,1465,6,0,P|99:270|168:298,1,120.000004577637,2|0,0:0|0:0,0:0:0:0:
238,338,2215,2,0,P|292:358|354:347,2,120.000004577637,0|0|2,0:0|0:0|0:0,0:0:0:0:
237,253,3340,1,0,0:0:0:0:
294,191,3715,1,0,0:0:0:0:
505,304,4465,6,0,P|482:259|501:193,1,120.000004577637,2|0,0:0|0:0,0:0:0:0:
417,174,5215,2,0,P|435:114|407:57,1,120.000004577637,2|0,0:0|0:0,0:0:0:0:
342,18,5965,2,0,L|218:47,2,120.000004577637,2|0|0,0:0|0:0|0:0,0:0:0:0:
248,124,7465,6,0,P|169:116|144:77,1,120.000004577637,2|0,0:0|0:0,0:0:0:0:
64,75,8215,2,0,L|74:141,1,60.0000022888184
44,165,8590,2,0,L|55:234,1,60.0000022888184
28,258,8965,2,0,P|69:295|174:254,1,180.000006866455,2|0,0:0|0:0,0:0:0:0:
202,224,9715,2,0,L|262:227,1,60.0000022888184,2|0,0:0|0:0,0:0:0:0:
286,261,10090,2,0,L|346:264,1,60.0000022888184,2|0,0:0|0:0,0:0:0:0:
371,297,10465,6,0,P|422:256|404:188,1,120.000004577637,2|0,0:0|0:0,0:0:0:0:
384,129,11215,2,0,P|384:71|431:38,1,120.000004577637,2|0,0:0|0:0,0:0:0:0:
464,115,11965,2,0,P|366:148|278:130,1,180.000006866455,2|0,0:0|0:0,0:0:0:0:
253,119,12715,2,0,P|164:108|81:140,1,180.000006866455
53,171,13465,6,0,B|32:274|154:248|111:378,1,210.000008010865
101,351,14215,1,2,0:0:0:0:
171,269,14965,6,0,P|238:260|397:308,1,210.000008010865
369,308,15715,1,2,0:0:0:0:
470,324,16465,6,0,B|501:223|402:231|430:128,1,210.000008010865
447,134,17215,1,2,0:0:0:0:
488,56,17965,6,0,P|390:101|278:93,1,210.000008010865
284,79,18715,1,2,0:0:0:0:
256,192,19465,12,0,25090,0:0:0:0:
262,77,25465,6,0,P|345:92|428:132,1,160,4|0,3:2|0:0,0:0:0:0:
500,120,26027,1,0,0:0:0:0:
413,132,26215,2,0,P|339:162|276:211,1,160,8|0,0:0|0:0,0:0:0:0:
419,204,26965,6,0,P|342:161|251:136,1,160,0|0,3:0|0:0,0:0:0:0:
198,186,27527,1,0,0:0:0:0:
125,225,27715,2,0,L|138:399,1,160,8|0,0:0|0:0,0:0:0:0:
128,381,28465,6,0,L|116:221,1,160,0|0,3:0|0:0,0:0:0:0:
117,136,29027,1,0,0:0:0:0:
46,188,29215,2,0,P|111:226|190:185,1,160,8|0,0:0|0:0,0:0:0:0:
271,237,29777,5,0,0:0:0:0:
271,237,29871,1,0,0:0:0:0:
271,237,29965,2,0,P|341:204|433:235,1,160,0|0,3:0|0:0,0:0:0:0:
506,263,30527,5,0,0:0:0:0:
506,263,30621,1,0,0:0:0:0:
506,263,30715,2,0,L|512:97,1,160,8|0,0:0|0:0,0:0:0:0:
450,35,31465,6,0,P|416:63|358:71,1,80,6|0,3:2|0:0,0:0:0:0:
313,30,31840,1,8,0:0:0:0:
252,81,32027,1,0,0:0:0:0:
189,131,32215,6,0,L|184:227,1,80,0|0,3:2|0:0,0:0:0:0:
180,291,32590,1,8,0:0:0:0:
114,245,32777,1,0,0:0:0:0:
184,210,32965,6,0,P|221:203|282:230,1,80,0|0,3:2|0:0,0:0:0:0:
323,264,33340,1,8,0:0:0:0:
383,316,33527,1,0,0:0:0:0:
459,293,33715,6,0,L|451:206,1,80,2|2,3:2|0:0,0:0:0:0:
389,162,34090,2,0,L|398:45,1,80,10|2,0:0|0:0,0:0:0:0:
320,111,34465,6,0,P|272:121|230:99,1,80,6|0,3:2|0:0,0:0:0:0:
237,30,34840,1,8,0:0:0:0:
161,56,35027,1,0,0:0:0:0:
86,84,35215,6,0,P|96:133|63:167,1,80,2|0,3:2|0:0,0:0:0:0:
34,221,35590,1,8,0:0:0:0:
87,280,35777,1,0,0:0:0:0:
142,337,35965,6,0,P|180:319|233:334,1,80,2|0,3:2|0:0,0:0:0:0:
288,360,36340,2,0,L|351:356,3,40,8|0|0|0,0:0|3:0|3:0|3:0,0:0:0:0:
352,326,36715,1,2,3:2:0:0:
256,192,36902,12,0,38590,0:0:0:0:
56,57,38965,6,0,P|106:50|179:119,1,143.999995605469,4|0,3:2|0:0,0:0:0:0:
128,170,39527,1,0,0:0:0:0:
128,170,39621,1,0,0:0:0:0:
128,170,39715,2,0,L|122:248,1,71.9999978027344,8|0,0:0|0:0,0:0:0:0:
165,307,40090,2,0,P|197:325|258:328,1,71.9999978027344
306,304,40465,6,0,P|342:297|446:346,1,143.999995605469,0|0,3:0|0:0,0:0:0:0:
493,285,41027,1,0,0:0:0:0:
493,285,41215,2,0,P|468:257|459:199,1,71.9999978027344,8|0,0:0|0:0,0:0:0:0:
492,152,41590,2,0,L|396:141,1,71.9999978027344
346,171,41965,6,0,P|310:178|206:129,1,143.999995605469,0|0,3:0|0:0,0:0:0:0:
263,78,42527,1,0,0:0:0:0:
263,78,42621,1,0,0:0:0:0:
263,78,42715,2,0,P|308:83|345:110,1,71.9999978027344,8|0,0:0|0:0,0:0:0:0:
346,171,43090,2,0,L|334:269,1,71.9999978027344
284,302,43465,6,0,P|247:317|126:311,1,143.999995605469,0|0,3:0|0:0,0:0:0:0:
96,253,44027,1,0,0:0:0:0:
96,253,44215,2,0,P|99:229|137:169,1,71.9999978027344,8|0,0:0|0:0,0:0:0:0:
198,173,44590,2,0,P|217:187|250:250,1,71.9999978027344
284,302,44965,6,0,P|331:327|443:323,1,160,2|8,3:2|0:0,0:0:0:0:
486,263,45527,1,0,0:0:0:0:
486,263,45715,2,0,L|493:178,1,80,0|0,0:0|3:0,0:0:0:0:
447,117,46090,2,0,P|405:104|355:111,1,80,8|0,0:0|0:0,0:0:0:0:
304,153,46465,6,0,L|128:168,1,160,2|8,3:2|0:0,0:0:0:0:
83,218,47027,1,0,0:0:0:0:
148,264,47215,2,0,P|194:273|266:369,1,160,0|10,0:0|0:2,0:0:0:0:
325,305,47777,1,2,0:0:0:0:
394,344,47965,6,0,L|487:333,1,80,2|0,3:2|0:0,0:0:0:0:
440,261,48340,2,0,L|429:168,1,80,2|0,3:2|0:0,0:0:0:0:
362,223,48715,2,0,L|269:234,1,80,2|0,3:2|0:0,0:0:0:0:
325,305,49090,2,0,L|336:398,1,80,2|0,3:2|0:0,0:0:0:0:
256,354,49465,6,0,L|85:339,1,160,2|2,3:3|0:3,0:0:0:0:
37,286,50027,1,0,0:0:0:0:
48,206,50215,2,0,L|58:98,1,80,2|0,0:3|0:0,0:0:0:0:
115,73,50590,1,4,3:0:0:0:
226,185,50965,6,0,P|269:190|335:116,1,143.999995605469,4|0,3:2|0:0,0:0:0:0:
309,47,51527,1,0,0:0:0:0:
309,47,51621,1,0,0:0:0:0:
309,47,51715,2,0,L|400:37,1,71.9999978027344,8|0,0:0|0:0,0:0:0:0:
447,82,52090,2,0,P|457:117|451:158,1,71.9999978027344
424,225,52465,6,0,P|403:290|431:377,1,143.999995605469,0|0,3:0|0:0,0:0:0:0:
484,315,53027,1,0,0:0:0:0:
484,315,53215,2,0,P|454:290|418:281,1,71.9999978027344,8|0,0:0|0:0,0:0:0:0:
353,320,53590,2,0,L|274:323,1,71.9999978027344
222,376,53965,6,0,P|160:342|140:265,1,143.999995605469,2|0,3:2|0:0,0:0:0:0:
91,211,54527,1,0,0:0:0:0:
91,211,54621,1,0,0:0:0:0:
91,211,54715,2,0,L|102:135,1,71.9999978027344,8|0,0:0|0:0,0:0:0:0:
147,75,55090,2,0,P|181:90|228:83,1,71.9999978027344
290,63,55465,6,0,P|368:57|433:99,1,143.999995605469,0|0,3:0|0:0,0:0:0:0:
502,90,56027,1,0,0:0:0:0:
502,90,56215,2,0,L|494:165,1,71.9999978027344,8|0,0:0|0:0,0:0:0:0:
437,217,56590,2,0,L|428:303,1,71.9999978027344
369,340,56965,6,0,P|319:292|343:199,1,160,2|8,3:2|0:0,0:0:0:0:
336,120,57527,1,0,0:0:0:0:
336,120,57715,2,0,L|243:136,1,80,0|0,0:0|3:0,0:0:0:0:
183,181,58090,2,0,P|210:213|214:262,1,80,8|0,0:0|0:0,0:0:0:0:
161,319,58465,6,0,P|107:265|91:175,1,160,2|10,3:2|0:0,0:0:0:0:
43,110,59027,1,0,0:0:0:0:
106,49,59215,2,0,L|212:63,1,80,0|0,0:0|3:0,0:0:0:0:
280,75,59590,1,10,0:2:0:0:
280,75,59683,1,2,0:2:0:0:
280,75,59777,1,2,0:2:0:0:
350,128,59965,5,2,3:2:0:0:
429,90,60152,2,0,L|433:37,2,40,2|2|2,0:2|0:2|3:2,0:0:0:0:
425,178,60527,1,2,0:2:0:0:
421,266,60715,5,2,3:2:0:0:
256,203,61090,1,2,0:2:0:0:
92,268,61465,1,6,3:2:0:0:
117,93,61840,6,0,L|166:101,3,40,2|0|0|0,3:2|0:0|0:0|0:0,0:0:0:0:
196,80,62215,2,0,L|245:88,3,40,2|0|0|0,3:2|0:0|0:0|0:0,0:0:0:0:
269,114,62590,2,0,L|318:122,3,40,2|0|0|0,3:2|0:0|0:0|0:0,0:0:0:0:
348,102,62965,1,2,3:2:0:0:
421,266,63340,6,0,L|372:258,3,40,2|0|0|0,3:2|0:0|0:0|0:0,0:0:0:0:
342,279,63715,2,0,L|293:271,3,40,2|0|0|0,3:2|0:0|0:0|0:0,0:0:0:0:
269,245,64090,2,0,L|220:237,3,40,2|0|0|0,3:2|0:0|0:0|0:0,0:0:0:0:
190,257,64465,1,6,3:2:0:0:
45,156,64840,6,0,L|52:67,1,80,8|0,0:0|0:0,0:0:0:0:
133,44,65215,2,0,L|117:235,1,160,0|8,3:2|0:0,0:0:0:0:
190,257,65777,1,0,0:0:0:0:
268,216,65965,6,0,L|283:24,1,160,0|8,3:2|0:0,0:0:0:0:
356,100,66527,2,0,L|349:179,1,80,0|0,0:0|3:2,0:0:0:0:
412,248,66902,1,2,0:2:0:0:
412,248,67090,2,0,L|506:225,1,80,2|2,3:2|0:2,0:0:0:0:
479,316,67465,6,0,B|384:334|384:334|324:301,1,160,2|8,3:2|0:0,0:0:0:0:
258,258,68027,1,0,0:0:0:0:
258,258,68215,2,0,P|213:256|137:353,1,160,2|8,3:2|0:0,0:0:0:0:
70,278,68777,5,4,0:3:0:0:
70,278,68871,1,4,0:3:0:0:
70,278,68965,2,0,P|65:243|71:221,3,40,8|8|4|4,0:3|0:3|0:3|0:3,0:0:0:0:
90,202,69340,2,0,P|95:167|89:145,3,40,8|0|0|0,0:2|3:0|3:0|3:0,0:0:0:0:
72,124,69715,5,0,3:0:0:0:
127,55,69902,2,0,L|288:66,1,160,2|0,0:3|0:0,0:0:0:0:
374,75,70465,6,0,L|402:260,1,160,2|14,3:2|0:0,0:0:0:0:
475,79,71215,1,2,0:0:0:0:
475,79,71308,1,2,0:0:0:0:
475,79,71402,1,2,0:0:0:0:
488,166,71590,6,0,L|499:223,3,40,0|0|0|0,3:0|0:0|0:0|0:0,0:0:0:0:
413,237,72058,2,0,L|404:299,1,40,0|2,0:0|3:2,0:0:0:0:
392,363,72340,2,0,L|326:371,3,40,2|0|0|0,0:2|0:2|3:2|3:2,0:0:0:0:
318,337,72715,6,0,P|282:323|233:334,1,80,10|0,0:2|0:0,0:0:0:0:
201,346,72996,1,0,0:0:0:0:
201,346,73090,2,0,P|136:353|82:317,1,120,10|2,0:2|0:2,0:0:0:0:
46,330,73465,6,0,L|67:156,1,160,2|14,3:2|0:0,0:0:0:0:
142,329,74215,1,2,0:0:0:0:
142,329,74308,1,2,0:0:0:0:
142,329,74402,1,2,0:0:0:0:
156,241,74590,6,0,L|165:170,3,40,0|0|0|0,3:0|0:0|0:0|0:0,0:0:0:0:
240,158,75058,2,0,L|249:196,1,40,0|2,0:0|3:2,0:0:0:0:
307,263,75340,2,0,L|301:321,3,40,2|0|0|0,0:2|0:0|3:0|3:0,0:0:0:0:
301,346,75715,6,0,P|357:361|393:338,1,80,10|0,0:0|3:0,0:0:0:0:
463,347,76090,2,0,L|469:287,3,40,10|2|2|2,0:2|3:2|3:2|3:2,0:0:0:0:
442,269,76465,6,0,P|484:207|453:130,1,160,6|2,3:2|3:2,0:0:0:0:
296,57,77215,2,0,L|387:67,1,80,10|0,0:0|0:0,0:0:0:0:
361,152,77590,2,0,B|338:184|338:184|356:229,1,80,2|2,0:0|0:0,0:0:0:0:
279,270,77965,6,0,P|183:287|127:237,1,160,2|2,3:2|3:2,0:0:0:0:
53,97,78715,2,0,L|44:196,2,80,10|2|2,0:2|0:0|0:2,0:0:0:0:
216,31,79465,6,0,P|240:108|197:190,1,160,2|2,3:2|3:2,0:0:0:0:
123,331,80215,2,0,L|116:239,1,80,10|2,0:2|0:2,0:0:0:0:
204,262,80590,2,0,P|243:263|292:286,1,80,2|2,0:2|0:2,0:0:0:0:
361,313,80965,6,0,P|401:373|505:366,1,160,2|2,3:2|3:2,0:0:0:0:
496,203,81715,1,10,0:0:0:0:
413,233,81902,1,0,3:0:0:0:
483,286,82090,2,0,L|491:229,1,40,10|2,0:2|3:2,0:0:0:0:
480,203,82277,2,0,L|488:146,1,40,2|2,3:2|3:2,0:0:0:0:
506,124,82465,6,0,B|471:104|471:104|342:120,1,160,2|2,3:2|3:2,0:0:0:0:
249,262,83215,2,0,L|166:257,1,80,10|2,0:2|0:2,0:0:0:0:
140,173,83590,2,0,L|219:177,1,80,2|2,0:2|0:2,0:0:0:0:
306,194,83965,6,0,P|347:255|449:253,1,160,2|2,3:2|3:2,0:0:0:0:
473,93,84715,2,0,L|476:6,1,80,10|2,0:2|0:2,0:0:0:0:
393,44,85090,2,0,B|376:81|376:81|392:121,1,80,2|2,0:2|0:2,0:0:0:0:
460,172,85465,6,0,L|450:336,1,160,2|2,3:2|3:2,0:0:0:0:
274,347,86215,2,0,B|236:332|236:332|205:282,2,80,10|2|2,0:0|0:0|0:0,0:0:0:0:
346,186,86965,6,0,L|336:22,1,160,2|2,3:2|3:2,0:0:0:0:
187,120,87715,2,0,P|147:141|102:148,1,80,10|2,0:2|0:2,0:0:0:0:
101,235,88090,2,0,P|139:259|167:294,1,80,2|2,0:2|0:0,0:0:0:0:
204,207,88465,5,4,0:1:0:0:
256,192,90340,12,0,91840,0:0:0:0:
29,205,92965,6,0,B|80:185|80:185|132:203,1,106.666666666667,4|0,3:2|0:0,0:0:0:0:
185,154,93340,2,0,L|194:56,2,53.3333333333333
204,224,93715,2,0,L|189:358,2,120,10|10|10,0:0|0:0|0:0,0:0:0:0:
268,163,94465,6,0,B|319:183|319:183|371:165,1,106.666666666667,0|2,3:0|0:0,0:0:0:0:
399,233,94840,2,0,L|389:291,2,53.3333333333333,10|8|8,0:0|0:0|0:0,0:0:0:0:
443,172,95215,2,0,L|426:27,2,120,10|10|10,0:0|0:0|0:0,0:0:0:0:
468,276,95965,6,0,P|489:294|515:306,2,53.3333333333333,2|2|2,3:2|0:2|3:2,0:0:0:0:
389,285,96340,2,0,L|239:306,1,106.666666666667,10|0,3:2|0:0,0:0:0:0:
208,303,96715,2,0,L|200:360,2,53.3333333333333,2|2|2,3:2|0:2|3:2,0:0:0:0:
248,239,97090,2,0,L|228:83,1,106.666666666667,10|0,3:2|3:0,0:0:0:0:
191,72,97465,6,0,P|167:57|134:52,2,53.3333333333333,2|0|0,3:2|0:2|3:2,0:0:0:0:
253,30,97840,2,0,L|312:34,2,53.3333333333333,10|0|0,3:2|3:2|3:2,0:0:0:0:
139,129,98215,6,0,P|110:128|79:140,2,53.3333333333333,10|2|2,3:2|3:2|3:2,0:0:0:0:
194,179,98590,2,0,L|264:187,2,53.3333333333333,2|0|0,3:2|3:0|3:0,0:0:0:0:
124,205,98965,6,0,B|96:249|96:249|124:308,1,106.666666666667,0|0,3:0|0:0,0:0:0:0:
193,330,99340,2,0,L|186:382,2,53.3333333333333
258,279,99715,2,0,L|274:144,2,120,10|10|10,2:2|2:2|2:2,0:0:0:0:
299,356,100465,6,0,B|346:382|346:382|411:363,1,106.666666666667,0|2,3:0|0:0,0:0:0:0:
455,309,100840,2,0,L|526:317,2,53.3333333333333,10|8|8,0:0|0:0|0:0,0:0:0:0:
402,248,101215,2,0,L|249:229,2,120,10|10|10,0:2|0:2|0:2,0:0:0:0:
466,188,101965,6,0,P|477:209|502:231,2,53.3333333333333,2|2|2,3:2|0:2|3:2,0:0:0:0:
469,109,102340,2,0,L|352:121,1,106.666666666667,10|0,3:2|0:0,0:0:0:0:
301,76,102715,6,0,L|306:16,2,53.3333333333333,2|2|2,3:2|0:2|3:2,0:0:0:0:
241,134,103090,2,0,L|234:200,2,53.3333333333333,10|0|0,3:2|3:0|3:0,0:0:0:0:
178,89,103465,2,0,P|128:71|63:88,1,106.666666666667,2|0,3:2|3:0,0:0:0:0:
6,106,103840,6,0,L|-4:36,2,53.3333333333333,10|0|0,3:2|0:0|0:0,0:0:0:0:
76,168,104215,2,0,L|87:105,2,53.3333333333333,10|2|2,3:2|0:2|0:2,0:0:0:0:
13,224,104590,2,0,P|65:265|94:338,1,120,10|0,3:2|0:0,0:0:0:0:
73,318,104965,5,2,3:2:0:0:
213,301,105340,2,0,L|258:295,3,40,2|0|0|0,3:2|0:0|0:0|0:0,0:0:0:0:
291,316,105715,2,0,L|336:310,3,40,2|0|0|0,3:2|0:0|0:0|0:0,0:0:0:0:
356,275,106090,2,0,L|401:269,3,40,2|0|0|0,3:2|0:0|0:0|0:0,0:0:0:0:
426,237,106465,5,2,3:2:0:0:
347,79,106840,2,0,L|291:84,3,40,2|0|0|0,3:2|0:0|0:0|0:0,0:0:0:0:
283,119,107215,2,0,L|226:124,3,40,2|0|0|0,3:2|0:0|0:0|0:0,0:0:0:0:
203,103,107590,2,0,L|145:107,3,40,2|0|0|0,3:2|0:0|0:0|0:0,0:0:0:0:
122,88,107965,5,2,3:2:0:0:
73,161,108152,2,0,L|24:156,2,40,0|0|8,0:0|0:0|0:2,0:0:0:0:
104,243,108527,1,2,0:2:0:0:
182,202,108715,5,10,0:2:0:0:
241,266,108902,2,0,L|237:315,2,40,0|0|0,0:0|0:0|3:0,0:0:0:0:
321,230,109277,1,10,0:2:0:0:
397,273,109465,5,2,3:2:0:0:
391,360,109652,2,0,L|349:367,2,40,0|0|10,0:0|0:0|0:0,0:0:0:0:
477,329,110027,1,0,3:0:0:0:
477,329,110121,1,0,3:0:0:0:
477,329,110215,5,10,0:0:0:0:
484,248,110402,1,0,3:0:0:0:
484,248,110496,1,0,3:0:0:0:
484,248,110590,2,0,L|487:193,3,40,10|0|0|0,0:2|3:0|3:0|3:0,0:0:0:0:
509,170,110965,5,2,3:2:0:0:
444,111,111152,2,0,L|389:114,2,40,0|0|8,0:0|0:0|0:0,0:0:0:0:
485,32,111527,1,2,3:2:0:0:
396,34,111715,5,10,0:2:0:0:
322,82,111902,2,0,L|317:148,2,40
252,28,112277,1,10,0:2:0:0:
178,76,112465,6,0,L|175:134,3,40,0|0|0|0,3:0|3:0|3:0|3:0,0:0:0:0:
138,139,112840,2,0,L|135:197,3,40,10|2|2|2,0:2|3:2|3:2|3:2,0:0:0:0:
102,207,113215,1,10,0:2:0:0:
