osu file format v14

[General]
AudioFilename: audio.mp3
AudioLeadIn: 0
PreviewTime: 92487
Countdown: 0
SampleSet: Normal
StackLeniency: 0.7
Mode: 1
LetterboxInBreaks: 0
WidescreenStoryboard: 1

[Editor]
Bookmarks: 38534
DistanceSpacing: 1.5
BeatDivisor: 8
GridSize: 32
TimelineZoom: 2.999999

[Metadata]
Title:Dual Fractal
TitleUnicode:Dual Fractal
Artist:M2U
ArtistUnicode:M2U
Creator:Cychloryn
Version:Futsuu
Source:CHUNITHM STAR PLUS
Tags:chunithm Capu チュウニズム スター プラス ep. vii 7 piano
BeatmapID:2088706
BeatmapSetID:994663

[Difficulty]
HPDrainRate:6.5
CircleSize:2
OverallDifficulty:3.5
ApproachRate:9
SliderMultiplier:1.4
SliderTickRate:1

[Events]
//Background and Video events
0,0,"bg.png",0,-30
//Break Periods
//Storyboard Layer 0 (Background)
//Storyboard Layer 1 (Fail)
//Storyboard Layer 2 (Pass)
//Storyboard Layer 3 (Foreground)
//Storyboard Layer 4 (Overlay)
//Storyboard Sound Samples

[TimingPoints]
1034,375,4,1,0,30,1,0
1034,-125,4,1,0,30,0,0
19034,-117.647058823529,4,1,0,30,0,0
25034,-111.111111111111,4,1,0,55,0,0
31034,-100,4,1,0,65,0,0
36565,-95.2380952380952,4,1,0,35,0,0
38534,-100,4,1,0,60,0,0
44534,-95.2380952380952,4,1,0,70,0,0
50534,-100,4,1,0,60,0,0
56534,-95.2380952380952,4,1,0,70,0,0
61034,-95.2380952380952,4,1,0,70,0,0
68909,-94.3396226415094,4,1,0,70,0,0
69096,-92.5925925925926,4,1,0,70,0,0
69284,-90.9090909090909,4,1,0,70,0,0
70034,-90.9090909090909,4,1,0,90,0,0
70409,-91.743119266055,4,1,0,90,0,1
70596,-93.4579439252336,4,1,0,90,0,1
70784,-95.2380952380952,4,1,0,90,0,1
73034,-90.9090909090909,4,1,0,90,0,1
73409,-91.743119266055,4,1,0,90,0,1
73596,-93.4579439252336,4,1,0,90,0,1
73784,-95.2380952380952,4,1,0,90,0,1
76784,-95.2380952380952,4,1,0,80,0,1
87987,-95.2380952380952,4,1,0,40,0,0
88034,-95.2380952380952,4,1,0,40,0,0
88596,-111.111111111111,4,1,0,40,0,0
90284,-111.111111111111,4,1,0,45,0,0
90471,-108.695652173913,4,1,0,50,0,0
90659,-106.382978723404,4,1,0,55,0,0
90846,-104.166666666667,4,1,0,60,0,0
91034,-102.040816326531,4,1,0,65,0,0
92534,-100.206626062942,4,1,0,65,0,0
104534,-95.2380952380952,4,1,0,80,0,1
112784,-90.9090909090909,4,1,0,80,0,0

[HitObjects]
256,192,1034,5,0,0:0:0:0:
256,192,1784,1,8,0:0:0:0:
256,192,2159,1,0,0:0:0:0:
256,192,2534,1,8,0:0:0:0:
256,192,3284,1,0,0:0:0:0:
256,192,4034,1,8,0:0:0:0:
256,192,4409,1,8,0:0:0:0:
256,192,4784,1,0,0:0:0:0:
256,192,5534,1,8,0:0:0:0:
256,192,6284,1,0,0:0:0:0:
256,192,6659,1,0,0:0:0:0:
256,192,7034,1,8,0:0:0:0:
256,192,7784,1,8,0:0:0:0:
256,192,8159,1,0,0:0:0:0:
256,192,8346,1,8,0:0:0:0:
256,192,8534,1,8,0:0:0:0:
256,192,8909,1,0,0:0:0:0:
256,192,9284,1,8,0:0:0:0:
256,192,9471,1,0,0:0:0:0:
256,192,9659,1,0,0:0:0:0:
256,192,10034,1,8,0:0:0:0:
256,192,10784,1,8,0:0:0:0:
256,192,11159,1,8,0:0:0:0:
256,192,11534,1,0,0:0:0:0:
256,192,12284,1,8,0:0:0:0:
256,192,13034,1,0,0:0:0:0:
256,192,13784,1,8,0:0:0:0:
256,192,14534,1,0,0:0:0:0:
256,192,15284,1,8,0:0:0:0:
256,192,16034,1,0,0:0:0:0:
256,192,16784,1,8,0:0:0:0:
256,192,17534,1,0,0:0:0:0:
256,192,18284,1,8,0:0:0:0:
256,192,19034,5,4,0:0:0:0:
256,192,19784,1,0,0:0:0:0:
256,192,20159,1,8,0:0:0:0:
256,192,20534,1,8,0:0:0:0:
256,192,20909,1,0,0:0:0:0:
256,192,21096,1,0,0:0:0:0:
256,192,21284,1,8,0:0:0:0:
256,192,21659,1,8,0:0:0:0:
256,192,22034,1,0,0:0:0:0:
256,192,22409,1,0,0:0:0:0:
256,192,22596,1,0,0:0:0:0:
256,192,22784,1,8,0:0:0:0:
256,192,23159,1,8,0:0:0:0:
256,192,23534,1,8,0:0:0:0:
256,192,25034,5,4,0:0:0:0:
256,192,25409,1,8,0:0:0:0:
256,192,25596,1,0,0:0:0:0:
256,192,25784,1,8,0:0:0:0:
256,192,26159,1,8,0:0:0:0:
256,192,26534,1,0,0:0:0:0:
256,192,26909,1,0,0:0:0:0:
256,192,27284,1,8,0:0:0:0:
256,192,28034,1,0,0:0:0:0:
256,192,28409,1,0,0:0:0:0:
256,192,28596,1,8,0:0:0:0:
256,192,28784,1,0,0:0:0:0:
256,192,29159,1,8,0:0:0:0:
256,192,29346,1,0,0:0:0:0:
256,192,29534,1,8,0:0:0:0:
256,192,29909,1,0,0:0:0:0:
256,192,30284,1,8,0:0:0:0:
256,192,31034,5,4,0:0:0:0:
256,192,31409,1,0,0:0:0:0:
256,192,31596,1,8,0:0:0:0:
256,192,31784,1,0,0:0:0:0:
256,192,32159,1,0,0:0:0:0:
256,192,32346,1,8,0:0:0:0:
256,192,32534,1,0,0:0:0:0:
256,192,32909,1,0,0:0:0:0:
256,192,33284,1,0,0:0:0:0:
256,192,33471,1,8,0:0:0:0:
256,192,33659,1,0,0:0:0:0:
256,192,33846,1,0,0:0:0:0:
256,192,34034,1,8,0:0:0:0:
256,192,34409,1,0,0:0:0:0:
256,192,34596,1,8,0:0:0:0:
256,192,34784,1,0,0:0:0:0:
256,192,35159,1,0,0:0:0:0:
256,192,35346,1,8,0:0:0:0:
256,192,35534,1,0,0:0:0:0:
256,192,35909,1,8,0:0:0:0:
256,192,36096,1,8,0:0:0:0:
256,192,36471,1,12,0:0:0:0:
256,192,36659,12,0,38159,0:0:0:0:
256,192,38534,5,12,0:0:0:0:
256,192,38909,1,8,0:0:0:0:
256,192,39096,1,0,0:0:0:0:
256,192,39284,1,8,0:0:0:0:
256,192,39659,1,0,0:0:0:0:
256,192,40034,1,8,0:0:0:0:
256,192,40221,1,8,0:0:0:0:
256,192,40409,1,0,0:0:0:0:
256,192,40596,1,0,0:0:0:0:
256,192,40784,1,8,0:0:0:0:
256,192,41159,1,0,0:0:0:0:
256,192,41534,1,8,0:0:0:0:
256,192,41909,1,0,0:0:0:0:
256,192,42096,1,8,0:0:0:0:
256,192,42284,1,8,0:0:0:0:
256,192,42659,1,0,0:0:0:0:
256,192,43034,1,8,0:0:0:0:
256,192,43221,1,0,0:0:0:0:
256,192,43409,1,8,0:0:0:0:
256,192,43596,1,8,0:0:0:0:
256,192,43784,1,0,0:0:0:0:
256,192,44534,5,4,0:0:0:0:
256,192,44909,1,8,0:0:0:0:
256,192,45096,1,8,0:0:0:0:
256,192,45284,1,0,0:0:0:0:
256,192,45659,1,0,0:0:0:0:
256,192,46034,1,8,0:0:0:0:
256,192,46409,1,8,0:0:0:0:
256,192,46596,1,8,0:0:0:0:
256,192,46784,1,0,0:0:0:0:
256,192,47159,1,0,0:0:0:0:
256,192,47534,1,8,0:0:0:0:
256,192,47909,1,8,0:0:0:0:
256,192,48284,1,0,0:0:0:0:
256,192,48659,1,0,0:0:0:0:
256,192,49034,1,8,0:0:0:0:
256,192,49409,1,0,0:0:0:0:
256,192,49596,1,0,0:0:0:0:
256,192,49784,1,8,0:0:0:0:
256,192,50534,1,4,0:0:0:0:
256,192,50909,1,8,0:0:0:0:
256,192,51096,1,0,0:0:0:0:
256,192,51284,1,8,0:0:0:0:
256,192,51659,1,8,0:0:0:0:
256,192,52034,1,8,0:0:0:0:
256,192,52221,1,8,0:0:0:0:
256,192,52409,1,0,0:0:0:0:
256,192,52596,1,0,0:0:0:0:
256,192,52784,1,8,0:0:0:0:
256,192,53159,1,0,0:0:0:0:
256,192,53534,1,8,0:0:0:0:
256,192,53909,1,8,0:0:0:0:
256,192,54096,1,8,0:0:0:0:
256,192,54284,1,0,0:0:0:0:
256,192,54659,1,0,0:0:0:0:
256,192,55034,1,8,0:0:0:0:
256,192,55221,1,0,0:0:0:0:
256,192,55409,1,0,0:0:0:0:
256,192,55596,1,8,0:0:0:0:
256,192,55784,1,0,0:0:0:0:
256,192,56534,1,12,0:0:0:0:
256,192,57096,1,8,0:0:0:0:
256,192,57284,1,0,0:0:0:0:
256,192,57659,1,0,0:0:0:0:
256,192,57846,1,8,0:0:0:0:
256,192,58034,1,0,0:0:0:0:
256,192,58596,1,8,0:0:0:0:
256,192,58784,1,0,0:0:0:0:
256,192,59159,1,8,0:0:0:0:
256,192,59534,1,0,0:0:0:0:
256,192,59909,1,0,0:0:0:0:
256,192,60096,1,0,0:0:0:0:
256,192,60284,1,8,0:0:0:0:
256,192,60659,1,0,0:0:0:0:
256,192,61034,5,12,0:0:0:0:
256,192,61409,1,0,0:0:0:0:
256,192,61784,1,8,0:0:0:0:
256,192,61971,1,8,0:0:0:0:
256,192,62159,1,0,0:0:0:0:
256,192,62534,1,8,0:0:0:0:
256,192,62909,1,0,0:0:0:0:
256,192,63284,1,0,0:0:0:0:
256,192,63471,1,0,0:0:0:0:
256,192,63659,1,8,0:0:0:0:
256,192,64034,1,8,0:0:0:0:
256,192,64784,1,0,0:0:0:0:
256,192,65534,1,0,0:0:0:0:
256,192,66284,1,0,0:0:0:0:
256,192,66471,1,8,0:0:0:0:
256,192,66659,1,0,0:0:0:0:
256,192,67034,1,8,0:0:0:0:
256,192,67409,1,0,0:0:0:0:
256,192,67596,1,8,0:0:0:0:
256,192,67784,1,0,0:0:0:0:
256,192,68159,1,0,0:0:0:0:
256,192,68346,1,8,0:0:0:0:
256,192,68534,1,0,0:0:0:0:
256,192,68721,1,8,0:0:0:0:
256,192,68909,1,0,0:0:0:0:
256,192,69096,1,0,0:0:0:0:
256,192,69284,1,8,0:0:0:0:
256,192,70034,5,12,0:0:0:0:
256,192,70409,1,0,0:0:0:0:
256,192,70596,1,8,0:0:0:0:
256,192,70784,1,0,0:0:0:0:
256,192,71159,1,8,0:0:0:0:
256,192,71346,1,0,0:0:0:0:
256,192,71534,1,0,0:0:0:0:
256,192,71721,1,8,0:0:0:0:
256,192,72096,1,8,0:0:0:0:
256,192,72284,1,8,0:0:0:0:
256,192,72659,1,0,0:0:0:0:
256,192,73034,1,12,0:0:0:0:
256,192,73409,1,0,0:0:0:0:
256,192,73596,1,8,0:0:0:0:
256,192,73784,1,8,0:0:0:0:
256,192,74159,1,8,0:0:0:0:
256,192,74346,1,8,0:0:0:0:
256,192,74534,1,0,0:0:0:0:
256,192,74721,1,8,0:0:0:0:
256,192,75096,1,0,0:0:0:0:
256,192,75284,1,8,0:0:0:0:
256,192,75659,1,0,0:0:0:0:
256,192,76034,1,4,0:0:0:0:
256,192,76784,1,8,0:0:0:0:
256,192,77159,1,0,0:0:0:0:
256,192,77346,1,0,0:0:0:0:
256,192,77534,1,8,0:0:0:0:
256,192,77909,1,0,0:0:0:0:
256,192,78284,1,8,0:0:0:0:
256,192,78659,1,8,0:0:0:0:
256,192,78846,1,0,0:0:0:0:
256,192,79034,1,8,0:0:0:0:
256,192,79409,1,0,0:0:0:0:
256,192,79784,1,8,0:0:0:0:
256,192,80159,1,0,0:0:0:0:
256,192,80346,1,8,0:0:0:0:
256,192,80534,1,8,0:0:0:0:
256,192,80909,1,0,0:0:0:0:
256,192,81284,1,8,0:0:0:0:
256,192,81659,1,8,0:0:0:0:
256,192,81846,1,0,0:0:0:0:
256,192,82034,1,0,0:0:0:0:
256,192,82784,1,8,0:0:0:0:
256,192,83159,1,8,0:0:0:0:
256,192,83346,1,0,0:0:0:0:
256,192,83534,1,8,0:0:0:0:
256,192,83909,1,0,0:0:0:0:
256,192,84284,1,8,0:0:0:0:
256,192,84659,1,0,0:0:0:0:
256,192,84846,1,0,0:0:0:0:
256,192,85034,1,8,0:0:0:0:
256,192,85409,1,0,0:0:0:0:
256,192,85784,1,8,0:0:0:0:
256,192,86159,1,0,0:0:0:0:
256,192,86346,1,8,0:0:0:0:
256,192,86534,1,8,0:0:0:0:
256,192,86909,1,0,0:0:0:0:
256,192,87284,1,8,0:0:0:0:
256,192,87659,1,8,0:0:0:0:
256,192,87846,1,8,0:0:0:0:
256,192,88034,1,0,0:0:0:0:
256,192,88596,1,8,0:0:0:0:
256,192,88784,1,0,0:0:0:0:
256,192,89159,1,8,0:0:0:0:
256,192,89346,1,0,0:0:0:0:
256,192,89721,1,0,0:0:0:0:
256,192,89909,1,0,0:0:0:0:
256,192,90284,1,0,0:0:0:0:
256,192,90471,1,0,0:0:0:0:
256,192,90659,1,8,0:0:0:0:
256,192,90846,1,0,0:0:0:0:
256,192,91034,1,8,0:0:0:0:
256,192,91409,1,12,0:0:0:0:
256,192,92534,5,0,0:0:0:0:
256,192,93284,1,8,0:0:0:0:
256,192,93565,1,8,0:0:0:0:
256,192,93846,1,8,0:0:0:0:
256,192,94034,1,0,0:0:0:0:
256,192,94784,1,8,0:0:0:0:
256,192,95065,1,8,0:0:0:0:
256,192,95346,1,8,0:0:0:0:
256,192,95534,1,0,0:0:0:0:
256,192,95909,1,8,0:0:0:0:
256,192,96284,1,0,0:0:0:0:
256,192,96659,1,8,0:0:0:0:
256,192,97034,1,0,0:0:0:0:
256,192,97409,1,8,0:0:0:0:
256,192,97659,1,0,0:0:0:0:
256,192,97784,1,0,0:0:0:0:
256,192,98159,1,8,0:0:0:0:
256,192,98534,1,0,0:0:0:0:
256,192,99284,1,8,0:0:0:0:
256,192,99565,1,8,0:0:0:0:
256,192,99846,1,8,0:0:0:0:
256,192,100034,1,0,0:0:0:0:
256,192,100784,1,8,0:0:0:0:
256,192,101065,1,8,0:0:0:0:
256,192,101346,1,8,0:0:0:0:
256,192,101534,1,0,0:0:0:0:
256,192,101909,1,8,0:0:0:0:
256,192,102284,1,0,0:0:0:0:
256,192,102659,1,8,0:0:0:0:
256,192,102909,1,8,0:0:0:0:
256,192,103034,1,8,0:0:0:0:
256,192,103409,1,0,0:0:0:0:
256,192,103784,1,8,0:0:0:0:
256,192,104534,5,12,0:0:0:0:
256,192,105096,1,0,0:0:0:0:
256,192,105284,1,8,0:0:0:0:
256,192,105471,1,8,0:0:0:0:
256,192,105659,1,0,0:0:0:0:
256,192,106034,1,12,0:0:0:0:
256,192,106596,1,0,0:0:0:0:
256,192,106784,1,8,0:0:0:0:
256,192,106971,1,0,0:0:0:0:
256,192,107159,1,8,0:0:0:0:
256,192,107534,1,8,0:0:0:0:
256,192,107909,1,8,0:0:0:0:
256,192,108096,1,0,0:0:0:0:
256,192,108284,1,8,0:0:0:0:
256,192,108659,1,0,0:0:0:0:
256,192,108846,1,0,0:0:0:0:
256,192,109034,1,8,0:0:0:0:
256,192,109409,1,8,0:0:0:0:
256,192,109596,1,8,0:0:0:0:
256,192,109784,1,0,0:0:0:0:
256,192,110159,1,0,0:0:0:0:
256,192,110534,1,8,0:0:0:0:
256,192,110909,1,0,0:0:0:0:
256,192,111096,1,0,0:0:0:0:
256,192,111284,1,8,0:0:0:0:
256,192,111659,1,0,0:0:0:0:
256,192,111846,1,0,0:0:0:0:
256,192,112034,1,8,0:0:0:0:
256,192,112221,1,0,0:0:0:0:
256,192,112409,1,8,0:0:0:0:
256,192,112784,1,12,0:0:0:0:
