osu file format v14

[General]
AudioFilename: audio.mp3
AudioLeadIn: 0
PreviewTime: 63134
Countdown: 0
SampleSet: Normal
StackLeniency: 0.7
Mode: 3
LetterboxInBreaks: 0
SpecialStyle: 0
WidescreenStoryboard: 0

[Editor]
DistanceSpacing: 1.1
BeatDivisor: 4
GridSize: 4
TimelineZoom: 1

[Metadata]
Title:Cherie Amour
TitleUnicode:Cherie Amour
Artist:M2U
ArtistUnicode:M2U
Creator:Hilmi Ghazian
Version:Normal
Source:Danz Base
Tags:dance respect DX leonita Amids syadow-
BeatmapID:1379254
BeatmapSetID:650960

[Difficulty]
HPDrainRate:7.5
CircleSize:4
OverallDifficulty:7
ApproachRate:5
SliderMultiplier:1.4
SliderTickRate:1

[Events]
//Background and Video events
0,0,"m2u+cherie+title+at+left.jpg",0,0
//Break Periods
//Storyboard Layer 0 (Background)
//Storyboard Layer 1 (Fail)
//Storyboard Layer 2 (Pass)
//Storyboard Layer 3 (Foreground)
//Storyboard Sound Samples

[TimingPoints]
88,468.75,4,1,1,50,1,0
65713,-100,4,1,1,50,0,1
95713,-100,4,1,1,50,0,0
120088,-100,4,1,1,50,0,1
150088,-100,4,1,1,50,0,0

[HitObjects]
64,192,88,5,0,0:0:0:0:
448,192,88,1,0,0:0:0:0:
192,192,322,1,0,0:0:0:0:
448,192,556,1,0,0:0:0:0:
320,192,791,1,0,0:0:0:0:
192,192,1259,1,0,0:0:0:0:
64,192,1728,1,0,0:0:0:0:
192,192,3134,1,0,0:0:0:0:
320,192,3369,1,0,0:0:0:0:
448,192,3603,1,0,0:0:0:0:
192,192,3838,1,0,0:0:0:0:
64,192,4072,1,0,0:0:0:0:
448,192,4306,1,0,0:0:0:0:
320,192,4541,1,0,0:0:0:0:
64,192,5009,1,0,0:0:0:0:
192,192,5478,1,0,0:0:0:0:
448,192,5947,1,0,0:0:0:0:
64,192,6416,1,0,0:0:0:0:
320,192,6884,1,0,0:0:0:0:
192,192,7119,1,0,0:0:0:0:
64,192,7353,1,0,0:0:0:0:
448,192,7588,1,0,0:0:0:0:
320,192,7822,1,0,0:0:0:0:
64,192,8056,1,0,0:0:0:0:
192,192,8291,1,0,0:0:0:0:
448,192,8759,1,0,0:0:0:0:
64,192,9228,1,0,0:0:0:0:
192,192,10634,1,0,0:0:0:0:
320,192,10869,1,0,0:0:0:0:
448,192,11103,1,0,0:0:0:0:
192,192,11338,1,0,0:0:0:0:
320,192,11572,1,0,0:0:0:0:
64,192,11806,1,0,0:0:0:0:
448,192,12041,1,0,0:0:0:0:
320,192,12509,1,0,0:0:0:0:
192,192,12978,1,0,0:0:0:0:
64,192,14619,1,8,0:0:0:0:
448,192,14619,1,4,0:0:0:0:
192,192,15088,1,4,0:0:0:0:
320,192,15088,1,2,0:0:0:0:
64,192,15322,1,0,0:0:0:0:
448,192,15556,1,0,0:0:0:0:
192,192,15791,128,0,16259:0:0:0:0:
320,192,16259,1,0,0:0:0:0:
64,192,16494,1,0,0:0:0:0:
448,192,16963,1,0,0:0:0:0:
320,192,17197,1,0,0:0:0:0:
192,192,17431,1,0,0:0:0:0:
64,192,17666,128,0,18134:0:0:0:0:
320,192,18134,1,0,0:0:0:0:
448,192,18369,1,0,0:0:0:0:
192,192,18838,1,0,0:0:0:0:
320,192,19072,1,0,0:0:0:0:
64,192,19306,1,0,0:0:0:0:
448,192,19541,128,0,20009:0:0:0:0:
320,192,20009,1,0,0:0:0:0:
64,192,20244,1,0,0:0:0:0:
192,192,20478,128,0,20947:0:0:0:0:
448,192,20947,1,0,0:0:0:0:
320,192,21181,1,0,0:0:0:0:
64,192,21416,1,0,0:0:0:0:
192,192,21650,1,0,0:0:0:0:
448,192,21884,1,0,0:0:0:0:
320,192,22119,1,0,0:0:0:0:
64,192,22353,1,0,0:0:0:0:
448,192,22588,1,0,0:0:0:0:
192,192,22822,1,0,0:0:0:0:
64,192,23056,1,0,0:0:0:0:
320,192,23291,128,0,23759:0:0:0:0:
448,192,23759,1,0,0:0:0:0:
64,192,23994,1,0,0:0:0:0:
192,192,24463,1,0,0:0:0:0:
320,192,24697,1,0,0:0:0:0:
448,192,24931,1,0,0:0:0:0:
64,192,25048,1,0,0:0:0:0:
192,192,25283,128,0,25517:0:0:0:0:
448,192,25517,1,0,0:0:0:0:
320,192,25752,1,0,0:0:0:0:
64,192,25986,1,0,0:0:0:0:
448,192,26220,128,0,26806:0:0:0:0:
64,192,27041,128,0,27509:0:0:0:0:
448,192,27509,1,0,0:0:0:0:
320,192,27744,1,0,0:0:0:0:
192,192,27978,128,0,30088:0:0:0:0:
64,192,28213,1,2,0:0:0:0:
448,192,28681,1,2,0:0:0:0:
320,192,29150,1,2,0:0:0:0:
64,192,29619,1,2,0:0:0:0:
448,192,30088,128,2,30556:0:0:0:0:
320,192,30088,1,4,0:0:0:0:
192,192,30556,1,2,0:0:0:0:
320,192,30791,128,0,31025:0:0:0:0:
64,192,31025,1,2,0:0:0:0:
448,192,31142,1,0,0:0:0:0:
320,192,31259,1,0,0:0:0:0:
192,192,31377,1,0,0:0:0:0:
64,192,31494,1,2,0:0:0:0:
320,192,31611,1,0,0:0:0:0:
448,192,31728,1,0,0:0:0:0:
192,192,31963,128,2,32197:0:0:0:0:
64,192,32197,1,0,0:0:0:0:
448,192,32314,1,0,0:0:0:0:
320,192,32431,1,2,0:0:0:0:
192,192,32666,128,0,32900:0:0:0:0:
320,192,32900,1,2,0:0:0:0:
448,192,33017,1,0,0:0:0:0:
64,192,33134,1,0,0:0:0:0:
320,192,33252,1,0,0:0:0:0:
192,192,33369,1,2,0:0:0:0:
448,192,33486,1,0,0:0:0:0:
320,192,33603,128,0,33838:0:0:0:0:
64,192,33838,128,2,34306:0:0:0:0:
320,192,34306,1,2,0:0:0:0:
448,192,34541,128,0,34775:0:0:0:0:
64,192,34775,1,2,0:0:0:0:
320,192,34892,1,0,0:0:0:0:
192,192,35009,1,0,0:0:0:0:
448,192,35127,1,0,0:0:0:0:
64,192,35244,1,2,0:0:0:0:
192,192,35361,1,0,0:0:0:0:
320,192,35478,1,0,0:0:0:0:
448,192,35713,128,2,35947:0:0:0:0:
64,192,35947,1,0,0:0:0:0:
320,192,36064,1,0,0:0:0:0:
192,192,36181,1,2,0:0:0:0:
64,192,36416,128,0,36650:0:0:0:0:
448,192,36650,1,2,0:0:0:0:
320,192,36884,128,0,37119:0:0:0:0:
192,192,37119,128,2,37353:0:0:0:0:
448,192,37353,128,0,37588:0:0:0:0:
64,192,37588,128,2,38056:0:0:0:0:
192,192,38056,1,2,0:0:0:0:
448,192,38291,128,0,38525:0:0:0:0:
320,192,38525,1,2,0:0:0:0:
64,192,38642,1,0,0:0:0:0:
192,192,38759,1,0,0:0:0:0:
448,192,38877,1,0,0:0:0:0:
320,192,38994,1,2,0:0:0:0:
64,192,39111,1,0,0:0:0:0:
192,192,39228,1,0,0:0:0:0:
320,192,39463,128,2,39697:0:0:0:0:
64,192,39931,128,2,40283:0:0:0:0:
192,192,40283,1,0,0:0:0:0:
320,192,40400,1,2,0:0:0:0:
448,192,40517,1,0,0:0:0:0:
64,192,40634,1,0,0:0:0:0:
192,192,40752,1,0,0:0:0:0:
448,192,40869,1,0,0:0:0:0:
320,192,40986,1,2,0:0:0:0:
64,192,41220,1,0,0:0:0:0:
192,192,41338,128,2,41572:0:0:0:0:
448,192,41572,1,0,0:0:0:0:
320,192,41689,1,0,0:0:0:0:
64,192,41806,1,2,0:0:0:0:
448,192,42041,128,0,42275:0:0:0:0:
64,192,42275,1,2,0:0:0:0:
192,192,42392,1,0,0:0:0:0:
320,192,42509,1,0,0:0:0:0:
64,192,42744,1,0,0:0:0:0:
448,192,42978,1,2,0:0:0:0:
320,192,42978,1,4,0:0:0:0:
64,192,43447,1,4,0:0:0:0:
192,192,43447,1,2,0:0:0:0:
320,192,43916,1,2,0:0:0:0:
448,192,43916,1,4,0:0:0:0:
192,192,44384,1,4,0:0:0:0:
320,192,44384,1,2,0:0:0:0:
448,192,44619,1,2,0:0:0:0:
64,192,44619,128,4,45088:0:0:0:0:
320,192,45088,1,2,0:0:0:0:
448,192,45088,1,0,0:0:0:0:
192,192,45322,1,0,0:0:0:0:
64,192,45556,1,2,0:0:0:0:
448,192,45791,1,0,0:0:0:0:
192,192,46025,1,2,0:0:0:0:
320,192,46259,1,0,0:0:0:0:
64,192,46494,1,2,0:0:0:0:
448,192,46728,1,0,0:0:0:0:
320,192,46963,1,2,0:0:0:0:
192,192,47197,1,0,0:0:0:0:
64,192,47431,1,2,0:0:0:0:
448,192,47666,1,0,0:0:0:0:
64,192,47900,1,2,0:0:0:0:
192,192,48134,1,0,0:0:0:0:
320,192,48369,1,2,0:0:0:0:
448,192,48603,1,0,0:0:0:0:
64,192,48838,1,2,0:0:0:0:
192,192,49072,1,0,0:0:0:0:
448,192,49306,1,2,0:0:0:0:
320,192,49541,1,0,0:0:0:0:
64,192,49775,1,2,0:0:0:0:
192,192,50009,1,0,0:0:0:0:
320,192,50244,1,2,0:0:0:0:
448,192,50478,1,0,0:0:0:0:
64,192,50713,1,2,0:0:0:0:
320,192,50947,128,0,51181:0:0:0:0:
192,192,51181,128,2,51416:0:0:0:0:
448,192,51416,128,0,51650:0:0:0:0:
64,192,51650,1,2,0:0:0:0:
320,192,51884,128,0,52119:0:0:0:0:
192,192,52119,1,2,0:0:0:0:
64,192,52353,128,0,52588:0:0:0:0:
320,192,52588,1,2,0:0:0:0:
192,192,52822,128,0,53056:0:0:0:0:
448,192,53056,1,2,0:0:0:0:
320,192,53291,128,0,53525:0:0:0:0:
64,192,53525,1,2,0:0:0:0:
192,192,53759,128,0,53994:0:0:0:0:
448,192,53994,1,2,0:0:0:0:
320,192,54228,128,0,54463:0:0:0:0:
64,192,54463,1,2,0:0:0:0:
448,192,54697,128,0,54931:0:0:0:0:
192,192,54931,1,2,0:0:0:0:
64,192,55166,128,0,55400:0:0:0:0:
320,192,55400,1,2,0:0:0:0:
448,192,55634,128,0,55869:0:0:0:0:
192,192,55869,1,2,0:0:0:0:
64,192,56103,128,0,56338:0:0:0:0:
320,192,56338,1,2,0:0:0:0:
192,192,56572,128,0,56806:0:0:0:0:
448,192,56806,1,2,0:0:0:0:
320,192,57041,128,0,57275:0:0:0:0:
64,192,57275,1,2,0:0:0:0:
448,192,57509,128,0,57744:0:0:0:0:
192,192,57744,1,2,0:0:0:0:
64,192,57978,128,0,58213:0:0:0:0:
448,192,58213,1,4,0:0:0:0:
320,192,58213,1,2,0:0:0:0:
192,192,58447,1,0,0:0:0:0:
320,192,58681,1,2,0:0:0:0:
64,192,58681,1,4,0:0:0:0:
448,192,58916,1,0,0:0:0:0:
192,192,59150,1,2,0:0:0:0:
320,192,59150,1,4,0:0:0:0:
64,192,59384,1,0,0:0:0:0:
192,192,59619,1,2,0:0:0:0:
448,192,59619,1,4,0:0:0:0:
320,192,59853,1,0,0:0:0:0:
448,192,60088,1,4,0:0:0:0:
64,192,60088,1,2,0:0:0:0:
192,192,60322,1,0,0:0:0:0:
64,192,60556,1,4,0:0:0:0:
320,192,60556,1,2,0:0:0:0:
448,192,60791,1,0,0:0:0:0:
192,192,61025,1,2,0:0:0:0:
320,192,61025,1,4,0:0:0:0:
64,192,61259,1,0,0:0:0:0:
192,192,61494,1,4,0:0:0:0:
448,192,61494,1,2,0:0:0:0:
320,192,61728,1,0,0:0:0:0:
64,192,61963,1,2,0:0:0:0:
448,192,61963,1,4,0:0:0:0:
192,192,62197,1,0,0:0:0:0:
320,192,62431,1,2,0:0:0:0:
64,192,62548,1,0,0:0:0:0:
192,192,62783,1,0,0:0:0:0:
448,192,62900,1,2,0:0:0:0:
64,192,63134,128,0,63369:0:0:0:0:
192,192,63369,1,2,0:0:0:0:
320,192,63603,1,0,0:0:0:0:
64,192,63838,1,4,0:0:0:0:
448,192,63838,1,2,0:0:0:0:
320,192,64072,1,0,0:0:0:0:
192,192,64306,1,2,0:0:0:0:
64,192,64541,1,0,0:0:0:0:
320,192,64775,1,4,0:0:0:0:
448,192,64775,1,2,0:0:0:0:
64,192,65009,1,0,0:0:0:0:
192,192,65244,128,4,65713:0:0:0:0:
320,192,65244,128,2,65713:0:0:0:0:
64,192,65713,1,4,0:0:0:0:
448,192,65713,128,0,66181:0:0:0:0:
320,192,66181,1,2,0:0:0:0:
64,192,66416,128,0,66650:0:0:0:0:
192,192,66650,1,2,0:0:0:0:
320,192,66767,1,0,0:0:0:0:
448,192,66884,1,0,0:0:0:0:
192,192,67002,1,0,0:0:0:0:
64,192,67119,1,2,0:0:0:0:
448,192,67236,1,0,0:0:0:0:
320,192,67353,1,0,0:0:0:0:
64,192,67588,128,2,67822:0:0:0:0:
320,192,67822,1,0,0:0:0:0:
192,192,67939,1,0,0:0:0:0:
448,192,68056,1,2,0:0:0:0:
320,192,68291,128,0,68525:0:0:0:0:
64,192,68525,1,2,0:0:0:0:
448,192,68642,1,0,0:0:0:0:
192,192,68759,1,0,0:0:0:0:
320,192,68877,1,0,0:0:0:0:
64,192,68994,1,2,0:0:0:0:
448,192,69111,1,0,0:0:0:0:
192,192,69228,128,0,69463:0:0:0:0:
64,192,69463,128,2,69931:0:0:0:0:
448,192,69931,1,2,0:0:0:0:
320,192,70166,128,0,70400:0:0:0:0:
192,192,70400,1,2,0:0:0:0:
448,192,70517,1,0,0:0:0:0:
64,192,70634,1,0,0:0:0:0:
320,192,70752,1,0,0:0:0:0:
448,192,70869,1,2,0:0:0:0:
64,192,70986,1,0,0:0:0:0:
192,192,71103,1,0,0:0:0:0:
320,192,71338,128,2,71572:0:0:0:0:
64,192,71572,1,0,0:0:0:0:
448,192,71689,1,0,0:0:0:0:
192,192,71806,1,2,0:0:0:0:
320,192,72041,128,0,72275:0:0:0:0:
64,192,72275,1,2,0:0:0:0:
448,192,72509,128,0,72744:0:0:0:0:
320,192,72744,128,2,72978:0:0:0:0:
64,192,72978,128,0,73213:0:0:0:0:
192,192,73213,128,2,73681:0:0:0:0:
448,192,73681,1,2,0:0:0:0:
320,192,73916,128,0,74150:0:0:0:0:
448,192,74150,1,2,0:0:0:0:
192,192,74267,1,0,0:0:0:0:
64,192,74384,1,0,0:0:0:0:
192,192,74502,1,0,0:0:0:0:
448,192,74619,1,0,0:0:0:0:
320,192,74736,1,2,0:0:0:0:
64,192,74853,1,0,0:0:0:0:
192,192,75088,1,2,0:0:0:0:
320,192,75322,1,0,0:0:0:0:
448,192,75556,1,0,0:0:0:0:
192,192,75673,1,0,0:0:0:0:
320,192,75908,1,0,0:0:0:0:
64,192,76142,1,0,0:0:0:0:
448,192,76377,1,0,0:0:0:0:
192,192,76611,1,0,0:0:0:0:
320,192,76845,1,0,0:0:0:0:
64,192,76963,128,2,77197:0:0:0:0:
448,192,77197,1,0,0:0:0:0:
320,192,77314,1,0,0:0:0:0:
192,192,77431,1,2,0:0:0:0:
448,192,77666,128,0,77900:0:0:0:0:
64,192,77900,1,2,0:0:0:0:
192,192,78017,1,0,0:0:0:0:
320,192,78134,1,0,0:0:0:0:
192,192,78369,1,2,0:0:0:0:
320,192,78603,128,0,78838:0:0:0:0:
64,192,78838,1,2,0:0:0:0:
448,192,78838,1,4,0:0:0:0:
192,192,79306,1,2,0:0:0:0:
448,192,79306,1,4,0:0:0:0:
64,192,79775,1,2,0:0:0:0:
320,192,79775,1,4,0:0:0:0:
192,192,80009,1,0,0:0:0:0:
320,192,80244,1,2,0:0:0:0:
448,192,80244,128,4,80713:0:0:0:0:
192,192,80713,1,4,0:0:0:0:
64,192,80713,128,2,81181:0:0:0:0:
448,192,81181,1,2,0:0:0:0:
192,192,81416,128,0,81650:0:0:0:0:
320,192,81650,1,2,0:0:0:0:
448,192,81767,1,0,0:0:0:0:
64,192,81884,1,0,0:0:0:0:
192,192,82002,1,0,0:0:0:0:
448,192,82119,1,2,0:0:0:0:
320,192,82236,1,0,0:0:0:0:
64,192,82353,1,0,0:0:0:0:
320,192,82588,128,2,82822:0:0:0:0:
192,192,82822,1,0,0:0:0:0:
448,192,82939,1,0,0:0:0:0:
64,192,83056,1,2,0:0:0:0:
448,192,83291,128,0,83525:0:0:0:0:
64,192,83525,1,2,0:0:0:0:
192,192,83642,1,0,0:0:0:0:
320,192,83759,1,0,0:0:0:0:
448,192,83877,1,0,0:0:0:0:
64,192,83994,1,2,0:0:0:0:
192,192,84111,1,0,0:0:0:0:
320,192,84228,128,0,84463:0:0:0:0:
64,192,84463,128,2,84931:0:0:0:0:
192,192,84931,1,2,0:0:0:0:
448,192,85166,128,0,85400:0:0:0:0:
320,192,85400,1,2,0:0:0:0:
192,192,85517,1,0,0:0:0:0:
64,192,85634,1,0,0:0:0:0:
320,192,85752,1,0,0:0:0:0:
448,192,85869,1,2,0:0:0:0:
64,192,85986,1,0,0:0:0:0:
192,192,86103,1,0,0:0:0:0:
320,192,86338,128,2,86572:0:0:0:0:
448,192,86572,1,0,0:0:0:0:
64,192,86689,1,0,0:0:0:0:
192,192,86806,1,2,0:0:0:0:
448,192,87041,128,0,87275:0:0:0:0:
192,192,87275,1,2,0:0:0:0:
64,192,87509,128,0,87744:0:0:0:0:
192,192,87744,128,2,87978:0:0:0:0:
320,192,87978,128,0,88213:0:0:0:0:
448,192,88213,128,2,88681:0:0:0:0:
64,192,88681,1,2,0:0:0:0:
192,192,88916,128,0,89150:0:0:0:0:
320,192,89150,1,2,0:0:0:0:
64,192,89267,1,0,0:0:0:0:
448,192,89384,1,0,0:0:0:0:
192,192,89502,1,0,0:0:0:0:
320,192,89619,1,2,0:0:0:0:
64,192,89736,1,0,0:0:0:0:
448,192,89853,1,0,0:0:0:0:
192,192,90088,1,2,0:0:0:0:
64,192,90322,1,0,0:0:0:0:
320,192,90556,1,0,0:0:0:0:
192,192,90673,1,0,0:0:0:0:
448,192,90908,1,0,0:0:0:0:
64,192,91142,1,0,0:0:0:0:
320,192,91377,1,0,0:0:0:0:
192,192,91611,1,0,0:0:0:0:
64,192,91845,1,0,0:0:0:0:
448,192,91963,128,2,92197:0:0:0:0:
64,192,92197,1,0,0:0:0:0:
192,192,92314,1,0,0:0:0:0:
320,192,92431,1,2,0:0:0:0:
192,192,92666,128,0,92900:0:0:0:0:
448,192,92900,1,2,0:0:0:0:
64,192,93017,1,0,0:0:0:0:
448,192,93134,1,0,0:0:0:0:
192,192,93369,1,2,0:0:0:0:
320,192,93603,128,0,93838:0:0:0:0:
64,192,93838,1,2,0:0:0:0:
448,192,93838,1,4,0:0:0:0:
192,192,94306,1,2,0:0:0:0:
320,192,94306,1,4,0:0:0:0:
64,192,94775,1,2,0:0:0:0:
448,192,94775,1,4,0:0:0:0:
320,192,95009,1,0,0:0:0:0:
448,192,95244,1,4,0:0:0:0:
192,192,95244,128,2,95713:0:0:0:0:
64,192,95713,1,0,0:0:0:0:
448,192,95713,1,8,0:0:0:0:
192,192,95947,1,0,0:0:0:0:
320,192,96181,1,0,0:0:0:0:
448,192,96416,1,0,0:0:0:0:
320,192,96884,1,0,0:0:0:0:
192,192,97119,1,0,0:0:0:0:
64,192,97353,1,0,0:0:0:0:
192,192,97822,1,0,0:0:0:0:
448,192,98056,1,0,0:0:0:0:
320,192,98291,1,0,0:0:0:0:
64,192,98759,1,0,0:0:0:0:
192,192,98994,1,0,0:0:0:0:
448,192,99463,1,0,0:0:0:0:
64,192,99697,1,0,0:0:0:0:
320,192,99931,1,0,0:0:0:0:
192,192,100166,1,0,0:0:0:0:
64,192,100400,1,0,0:0:0:0:
192,192,100634,1,0,0:0:0:0:
320,192,100869,1,0,0:0:0:0:
448,192,101103,1,0,0:0:0:0:
64,192,101338,1,0,0:0:0:0:
192,192,101572,1,0,0:0:0:0:
448,192,101806,1,0,0:0:0:0:
320,192,102041,1,0,0:0:0:0:
64,192,102275,1,0,0:0:0:0:
448,192,102509,1,0,0:0:0:0:
192,192,102744,1,0,0:0:0:0:
320,192,102978,1,0,0:0:0:0:
64,192,103213,1,0,0:0:0:0:
192,192,103447,1,0,0:0:0:0:
320,192,103681,1,0,0:0:0:0:
448,192,103916,1,0,0:0:0:0:
192,192,104150,1,0,0:0:0:0:
448,192,104384,1,0,0:0:0:0:
64,192,104619,1,0,0:0:0:0:
320,192,104853,1,0,0:0:0:0:
192,192,105088,1,0,0:0:0:0:
448,192,105322,128,0,105556:0:0:0:0:
64,192,105556,128,0,105791:0:0:0:0:
192,192,105791,128,0,106025:0:0:0:0:
320,192,106025,1,0,0:0:0:0:
448,192,106259,128,0,106494:0:0:0:0:
64,192,106494,1,0,0:0:0:0:
192,192,106728,128,0,106963:0:0:0:0:
320,192,106963,1,0,0:0:0:0:
64,192,107197,128,0,107431:0:0:0:0:
192,192,107431,1,0,0:0:0:0:
448,192,107666,128,0,107900:0:0:0:0:
320,192,107900,1,0,0:0:0:0:
64,192,108134,128,0,108369:0:0:0:0:
192,192,108369,1,0,0:0:0:0:
320,192,108603,128,0,108838:0:0:0:0:
64,192,108838,1,0,0:0:0:0:
448,192,109072,128,0,109306:0:0:0:0:
320,192,109306,1,0,0:0:0:0:
192,192,109541,128,0,109775:0:0:0:0:
448,192,109775,1,0,0:0:0:0:
64,192,110009,128,0,110244:0:0:0:0:
192,192,110244,1,0,0:0:0:0:
320,192,110478,128,0,110713:0:0:0:0:
448,192,110713,1,0,0:0:0:0:
64,192,110947,128,0,111181:0:0:0:0:
192,192,111181,1,0,0:0:0:0:
320,192,111416,128,0,111650:0:0:0:0:
64,192,111650,1,0,0:0:0:0:
448,192,111884,128,0,112119:0:0:0:0:
192,192,112119,1,0,0:0:0:0:
64,192,112353,128,0,112588:0:0:0:0:
320,192,112588,1,4,0:0:0:0:
448,192,112588,1,2,0:0:0:0:
192,192,112822,1,0,0:0:0:0:
64,192,113056,1,4,0:0:0:0:
448,192,113056,1,2,0:0:0:0:
320,192,113291,1,0,0:0:0:0:
192,192,113525,1,4,0:0:0:0:
64,192,113525,1,2,0:0:0:0:
448,192,113759,1,0,0:0:0:0:
320,192,113994,1,4,0:0:0:0:
192,192,113994,1,2,0:0:0:0:
64,192,114228,1,0,0:0:0:0:
448,192,114463,1,4,0:0:0:0:
320,192,114463,1,2,0:0:0:0:
64,192,114697,1,0,0:0:0:0:
192,192,114931,1,2,0:0:0:0:
448,192,114931,1,4,0:0:0:0:
320,192,115166,1,0,0:0:0:0:
192,192,115400,1,4,0:0:0:0:
64,192,115400,1,2,0:0:0:0:
320,192,115634,1,0,0:0:0:0:
448,192,115869,1,4,0:0:0:0:
64,192,115869,1,2,0:0:0:0:
192,192,116103,1,0,0:0:0:0:
64,192,116338,1,2,0:0:0:0:
448,192,116338,1,4,0:0:0:0:
320,192,116572,1,0,0:0:0:0:
192,192,116806,1,0,0:0:0:0:
448,192,116923,1,0,0:0:0:0:
320,192,117158,1,0,0:0:0:0:
64,192,117275,1,0,0:0:0:0:
448,192,117509,128,0,117744:0:0:0:0:
192,192,117744,1,0,0:0:0:0:
320,192,117978,1,0,0:0:0:0:
64,192,118213,1,4,0:0:0:0:
448,192,118213,1,2,0:0:0:0:
320,192,118447,5,0,0:0:0:0:
64,192,118681,1,2,0:0:0:0:
192,192,118916,1,0,0:0:0:0:
64,192,119150,1,4,0:0:0:0:
448,192,119150,1,2,0:0:0:0:
320,192,119384,1,0,0:0:0:0:
448,192,119619,128,2,120088:0:0:0:0:
192,192,119619,128,4,120088:0:0:0:0:
64,192,120088,128,2,120556:0:0:0:0:
320,192,120088,1,4,0:0:0:0:
192,192,120556,1,2,0:0:0:0:
448,192,120791,128,0,121025:0:0:0:0:
320,192,121025,1,2,0:0:0:0:
192,192,121142,1,0,0:0:0:0:
64,192,121259,1,0,0:0:0:0:
320,192,121377,1,0,0:0:0:0:
448,192,121494,1,2,0:0:0:0:
64,192,121611,1,0,0:0:0:0:
192,192,121728,1,0,0:0:0:0:
448,192,121963,128,2,122197:0:0:0:0:
192,192,122197,1,0,0:0:0:0:
320,192,122314,1,0,0:0:0:0:
64,192,122431,1,2,0:0:0:0:
192,192,122666,128,0,122900:0:0:0:0:
448,192,122900,1,2,0:0:0:0:
64,192,123017,1,0,0:0:0:0:
320,192,123134,1,0,0:0:0:0:
192,192,123252,1,0,0:0:0:0:
448,192,123369,1,2,0:0:0:0:
64,192,123486,1,0,0:0:0:0:
320,192,123603,128,0,123838:0:0:0:0:
448,192,123838,128,2,124306:0:0:0:0:
64,192,124306,1,2,0:0:0:0:
192,192,124541,128,0,124775:0:0:0:0:
320,192,124775,1,2,0:0:0:0:
64,192,124892,1,0,0:0:0:0:
448,192,125009,1,0,0:0:0:0:
192,192,125127,1,0,0:0:0:0:
64,192,125244,1,2,0:0:0:0:
448,192,125361,1,0,0:0:0:0:
320,192,125478,1,0,0:0:0:0:
192,192,125713,128,2,125947:0:0:0:0:
448,192,125947,1,0,0:0:0:0:
64,192,126064,1,0,0:0:0:0:
320,192,126181,1,2,0:0:0:0:
192,192,126416,128,0,126650:0:0:0:0:
448,192,126650,1,2,0:0:0:0:
64,192,126884,128,0,127119:0:0:0:0:
192,192,127119,128,2,127353:0:0:0:0:
448,192,127353,128,0,127588:0:0:0:0:
320,192,127588,128,2,128056:0:0:0:0:
64,192,128056,1,2,0:0:0:0:
192,192,128291,128,0,128525:0:0:0:0:
64,192,128525,1,2,0:0:0:0:
320,192,128642,1,0,0:0:0:0:
448,192,128759,1,0,0:0:0:0:
320,192,128877,1,0,0:0:0:0:
192,192,128994,1,2,0:0:0:0:
64,192,129111,1,0,0:0:0:0:
448,192,129228,1,0,0:0:0:0:
320,192,129463,1,2,0:0:0:0:
192,192,129697,1,0,0:0:0:0:
64,192,129931,1,0,0:0:0:0:
320,192,130048,1,0,0:0:0:0:
192,192,130283,1,0,0:0:0:0:
448,192,130517,1,0,0:0:0:0:
64,192,130752,1,0,0:0:0:0:
320,192,130986,1,0,0:0:0:0:
192,192,131220,1,0,0:0:0:0:
448,192,131338,128,2,131572:0:0:0:0:
64,192,131572,1,0,0:0:0:0:
192,192,131689,1,0,0:0:0:0:
320,192,131806,1,2,0:0:0:0:
64,192,132041,128,0,132275:0:0:0:0:
448,192,132275,1,2,0:0:0:0:
320,192,132392,1,0,0:0:0:0:
192,192,132509,1,0,0:0:0:0:
320,192,132744,1,2,0:0:0:0:
192,192,132978,128,0,133213:0:0:0:0:
448,192,133213,1,2,0:0:0:0:
64,192,133213,1,4,0:0:0:0:
320,192,133681,1,2,0:0:0:0:
64,192,133681,1,4,0:0:0:0:
448,192,134150,1,2,0:0:0:0:
192,192,134150,1,4,0:0:0:0:
320,192,134384,1,0,0:0:0:0:
192,192,134619,1,2,0:0:0:0:
64,192,134619,128,4,135088:0:0:0:0:
320,192,135088,1,4,0:0:0:0:
448,192,135088,128,2,135556:0:0:0:0:
64,192,135556,1,2,0:0:0:0:
320,192,135791,128,0,136025:0:0:0:0:
192,192,136025,1,2,0:0:0:0:
64,192,136142,1,0,0:0:0:0:
448,192,136259,1,0,0:0:0:0:
320,192,136377,1,0,0:0:0:0:
64,192,136494,1,2,0:0:0:0:
192,192,136611,1,0,0:0:0:0:
448,192,136728,1,0,0:0:0:0:
192,192,136963,128,2,137197:0:0:0:0:
448,192,137197,1,0,0:0:0:0:
64,192,137314,1,0,0:0:0:0:
320,192,137431,1,2,0:0:0:0:
64,192,137666,128,0,137900:0:0:0:0:
448,192,137900,1,2,0:0:0:0:
320,192,138017,1,0,0:0:0:0:
192,192,138134,1,0,0:0:0:0:
64,192,138252,1,0,0:0:0:0:
448,192,138369,1,2,0:0:0:0:
320,192,138486,1,0,0:0:0:0:
192,192,138603,128,0,138838:0:0:0:0:
448,192,138838,128,2,139306:0:0:0:0:
320,192,139306,1,2,0:0:0:0:
64,192,139541,128,0,139775:0:0:0:0:
192,192,139775,1,2,0:0:0:0:
320,192,139892,1,0,0:0:0:0:
448,192,140009,1,0,0:0:0:0:
192,192,140127,1,0,0:0:0:0:
64,192,140244,1,2,0:0:0:0:
448,192,140361,1,0,0:0:0:0:
320,192,140478,1,0,0:0:0:0:
192,192,140713,128,2,140947:0:0:0:0:
64,192,140947,1,0,0:0:0:0:
448,192,141064,1,0,0:0:0:0:
320,192,141181,1,2,0:0:0:0:
64,192,141416,128,0,141650:0:0:0:0:
320,192,141650,1,2,0:0:0:0:
448,192,141884,128,0,142119:0:0:0:0:
320,192,142119,128,2,142353:0:0:0:0:
192,192,142353,128,0,142588:0:0:0:0:
64,192,142588,128,2,143056:0:0:0:0:
448,192,143056,1,2,0:0:0:0:
320,192,143291,128,0,143525:0:0:0:0:
192,192,143525,1,2,0:0:0:0:
448,192,143642,1,0,0:0:0:0:
64,192,143759,1,0,0:0:0:0:
320,192,143877,1,0,0:0:0:0:
192,192,143994,1,2,0:0:0:0:
448,192,144111,1,0,0:0:0:0:
64,192,144228,1,0,0:0:0:0:
320,192,144463,1,2,0:0:0:0:
448,192,144697,1,0,0:0:0:0:
192,192,144931,1,0,0:0:0:0:
320,192,145048,1,0,0:0:0:0:
64,192,145283,1,0,0:0:0:0:
448,192,145517,1,0,0:0:0:0:
192,192,145752,1,0,0:0:0:0:
320,192,145986,1,0,0:0:0:0:
448,192,146220,1,0,0:0:0:0:
64,192,146338,128,2,146572:0:0:0:0:
448,192,146572,1,0,0:0:0:0:
320,192,146689,1,0,0:0:0:0:
192,192,146806,1,2,0:0:0:0:
320,192,147041,128,0,147275:0:0:0:0:
64,192,147275,1,2,0:0:0:0:
448,192,147392,1,0,0:0:0:0:
64,192,147509,1,0,0:0:0:0:
320,192,147744,1,2,0:0:0:0:
192,192,147978,128,0,148213:0:0:0:0:
448,192,148213,1,2,0:0:0:0:
64,192,148213,1,4,0:0:0:0:
320,192,148681,1,2,0:0:0:0:
192,192,148681,1,4,0:0:0:0:
448,192,149150,1,2,0:0:0:0:
64,192,149150,1,4,0:0:0:0:
192,192,149384,1,0,0:0:0:0:
64,192,149619,1,4,0:0:0:0:
320,192,149619,128,2,150088:0:0:0:0:
448,192,150088,1,0,0:0:0:0:
64,192,150088,1,8,0:0:0:0:
192,192,150322,1,0,0:0:0:0:
448,192,150556,1,0,0:0:0:0:
320,192,150791,1,0,0:0:0:0:
320,192,151259,1,0,0:0:0:0:
64,192,151494,1,0,0:0:0:0:
192,192,151728,1,0,0:0:0:0:
448,192,152197,1,0,0:0:0:0:
64,192,152666,1,0,0:0:0:0:
320,192,153134,1,0,0:0:0:0:
192,192,153603,1,0,0:0:0:0:
