osu file format v14

[General]
AudioFilename: audio.mp3
AudioLeadIn: 0
PreviewTime: -1
Countdown: 0
SampleSet: None
StackLeniency: 0.7
Mode: 3
LetterboxInBreaks: 0
SpecialStyle: 0
WidescreenStoryboard: 1

[Editor]
DistanceSpacing: 1.3
BeatDivisor: 4
GridSize: 32
TimelineZoom: 1.6

[Metadata]
Title:Body Talk
TitleUnicode:Body Talk
Artist:M2U
ArtistUnicode:M2U
Creator:Tantei B
Version:Stage 3 : Flirt
Source:cytus II
Tags:ln wall invert
BeatmapID:2080516
BeatmapSetID:994841

[Difficulty]
HPDrainRate:8
CircleSize:4
OverallDifficulty:7
ApproachRate:5
SliderMultiplier:1.4
SliderTickRate:1

[Events]
//Background and Video events
0,0,"Body_Talk.png",0,0
//Break Periods
//Storyboard Layer 0 (Background)
//Storyboard Layer 1 (Fail)
//Storyboard Layer 2 (Pass)
//Storyboard Layer 3 (Foreground)
//Storyboard Sound Samples

[TimingPoints]
109,468.75,4,2,0,50,1,0
75115,-100,4,2,0,50,0,1
103240,-100,4,2,0,50,0,0
105115,-100,4,2,0,50,0,1
133240,-100,4,2,0,50,0,0

[HitObjects]
448,192,109,128,0,577:0:0:0:0:
320,192,109,128,0,343:0:0:0:0:
192,192,460,1,0,0:0:0:0:
64,192,577,1,0,0:0:0:0:
320,192,812,128,0,1046:0:0:0:0:
192,192,1046,1,0,0:0:0:0:
64,192,1046,128,0,1515:0:0:0:0:
448,192,1280,1,0,0:0:0:0:
320,192,1398,1,0,0:0:0:0:
192,192,1515,1,0,0:0:0:0:
320,192,1749,128,0,1984:0:0:0:0:
448,192,1984,128,0,2452:0:0:0:0:
192,192,1984,1,0,0:0:0:0:
64,192,2218,1,0,0:0:0:0:
192,192,2335,1,0,0:0:0:0:
320,192,2452,1,0,0:0:0:0:
192,192,2687,128,0,2921:0:0:0:0:
64,192,2921,128,0,3390:0:0:0:0:
448,192,2921,1,0,0:0:0:0:
320,192,3155,1,0,0:0:0:0:
192,192,3273,1,0,0:0:0:0:
448,192,3390,1,0,0:0:0:0:
320,192,3624,128,0,3859:0:0:0:0:
192,192,3859,128,0,4327:0:0:0:0:
64,192,3859,1,0,0:0:0:0:
448,192,4093,1,0,0:0:0:0:
320,192,4210,1,0,0:0:0:0:
64,192,4327,1,0,0:0:0:0:
320,192,4562,128,0,4796:0:0:0:0:
64,192,4796,128,0,5265:0:0:0:0:
192,192,4796,1,0,0:0:0:0:
448,192,5030,1,0,0:0:0:0:
320,192,5148,1,0,0:0:0:0:
192,192,5265,1,0,0:0:0:0:
320,192,5499,128,0,5734:0:0:0:0:
448,192,5734,128,0,6202:0:0:0:0:
64,192,5734,1,0,0:0:0:0:
192,192,5968,1,0,0:0:0:0:
64,192,6085,1,0,0:0:0:0:
320,192,6202,1,0,0:0:0:0:
192,192,6437,128,0,6671:0:0:0:0:
448,192,6671,128,0,7140:0:0:0:0:
320,192,6671,1,0,0:0:0:0:
192,192,6905,1,0,0:0:0:0:
64,192,7023,1,0,0:0:0:0:
320,192,7140,1,0,0:0:0:0:
192,192,7374,128,0,7609:0:0:0:0:
64,192,7609,128,0,8077:0:0:0:0:
320,192,7609,1,0,0:0:0:0:
448,192,7843,1,0,0:0:0:0:
320,192,7960,1,0,0:0:0:0:
192,192,8077,1,0,0:0:0:0:
320,192,8312,128,0,8546:0:0:0:0:
64,192,8546,128,0,9015:0:0:0:0:
192,192,8546,1,0,0:0:0:0:
320,192,8780,1,0,0:0:0:0:
192,192,8898,1,0,0:0:0:0:
448,192,9015,1,0,0:0:0:0:
192,192,9249,128,0,9484:0:0:0:0:
320,192,9484,128,0,9952:0:0:0:0:
448,192,9484,1,0,0:0:0:0:
64,192,9718,1,0,0:0:0:0:
192,192,9835,1,0,0:0:0:0:
448,192,9952,1,0,0:0:0:0:
320,192,10187,128,0,10421:0:0:0:0:
64,192,10421,128,0,10890:0:0:0:0:
192,192,10421,1,0,0:0:0:0:
448,192,10655,1,0,0:0:0:0:
320,192,10773,1,0,0:0:0:0:
192,192,10890,1,0,0:0:0:0:
320,192,11124,128,0,11359:0:0:0:0:
448,192,11359,128,0,11827:0:0:0:0:
64,192,11359,1,0,0:0:0:0:
192,192,11593,1,0,0:0:0:0:
320,192,11710,1,0,0:0:0:0:
64,192,11827,1,0,0:0:0:0:
320,192,12062,128,0,12296:0:0:0:0:
64,192,12296,128,0,12765:0:0:0:0:
192,192,12296,1,0,0:0:0:0:
448,192,12530,128,0,12765:0:0:0:0:
192,192,12648,1,0,0:0:0:0:
320,192,12765,1,0,0:0:0:0:
320,192,12999,128,0,13468:0:0:0:0:
448,192,13234,128,0,13702:0:0:0:0:
64,192,13468,1,0,0:0:0:0:
192,192,13585,128,0,14640:0:0:0:0:
320,192,13702,1,0,0:0:0:0:
448,192,13937,128,0,14405:0:0:0:0:
320,192,14171,128,0,14405:0:0:0:0:
64,192,14171,1,0,0:0:0:0:
64,192,14405,128,0,14640:0:0:0:0:
320,192,14640,1,0,0:0:0:0:
448,192,14640,1,0,0:0:0:0:
320,192,14874,128,0,15109:0:0:0:0:
64,192,15109,128,0,15577:0:0:0:0:
192,192,15109,128,0,15343:0:0:0:0:
448,192,15109,1,0,0:0:0:0:
448,192,15343,128,0,15577:0:0:0:0:
320,192,15460,128,0,15577:0:0:0:0:
192,192,15577,1,0,0:0:0:0:
448,192,15812,128,0,16046:0:0:0:0:
192,192,16046,128,0,16515:0:0:0:0:
320,192,16046,128,0,16280:0:0:0:0:
64,192,16046,1,0,0:0:0:0:
448,192,16280,128,0,16515:0:0:0:0:
64,192,16398,128,0,16515:0:0:0:0:
320,192,16515,1,0,0:0:0:0:
320,192,16749,128,0,16984:0:0:0:0:
192,192,16984,128,0,17452:0:0:0:0:
64,192,16984,128,0,17218:0:0:0:0:
448,192,16984,1,0,0:0:0:0:
320,192,17218,128,0,17452:0:0:0:0:
448,192,17335,128,0,17452:0:0:0:0:
64,192,17452,1,0,0:0:0:0:
192,192,17687,128,0,17921:0:0:0:0:
64,192,17921,128,0,18390:0:0:0:0:
448,192,17921,128,0,18155:0:0:0:0:
320,192,17921,1,0,0:0:0:0:
192,192,18155,128,0,18390:0:0:0:0:
320,192,18273,128,0,18390:0:0:0:0:
448,192,18390,1,0,0:0:0:0:
320,192,18624,128,0,18859:0:0:0:0:
192,192,18859,128,0,19327:0:0:0:0:
64,192,18859,128,0,19093:0:0:0:0:
448,192,18859,1,0,0:0:0:0:
320,192,19093,128,0,19327:0:0:0:0:
448,192,19210,128,0,19327:0:0:0:0:
64,192,19327,1,0,0:0:0:0:
320,192,19562,128,0,19796:0:0:0:0:
64,192,19796,128,0,20265:0:0:0:0:
192,192,19796,128,0,20030:0:0:0:0:
448,192,19796,1,0,0:0:0:0:
448,192,20030,128,0,20265:0:0:0:0:
320,192,20148,128,0,20265:0:0:0:0:
192,192,20265,1,0,0:0:0:0:
192,192,20499,128,0,20734:0:0:0:0:
320,192,20734,128,0,21202:0:0:0:0:
448,192,20734,128,0,20968:0:0:0:0:
64,192,20734,1,0,0:0:0:0:
192,192,21085,128,0,21202:0:0:0:0:
64,192,21202,1,0,0:0:0:0:
448,192,21202,1,0,0:0:0:0:
320,192,21437,128,0,21671:0:0:0:0:
192,192,21671,128,0,22140:0:0:0:0:
64,192,21671,128,0,21905:0:0:0:0:
448,192,21671,1,0,0:0:0:0:
320,192,21905,128,0,22140:0:0:0:0:
448,192,22023,128,0,22140:0:0:0:0:
64,192,22140,1,0,0:0:0:0:
192,192,22374,128,0,22609:0:0:0:0:
64,192,22609,128,0,23077:0:0:0:0:
448,192,22609,1,0,0:0:0:0:
320,192,22609,128,0,22843:0:0:0:0:
448,192,22843,128,0,23077:0:0:0:0:
192,192,22960,128,0,23077:0:0:0:0:
320,192,23077,1,0,0:0:0:0:
320,192,23312,128,0,23546:0:0:0:0:
64,192,23546,128,0,24015:0:0:0:0:
192,192,23546,128,0,23780:0:0:0:0:
448,192,23546,1,0,0:0:0:0:
448,192,23780,128,0,24015:0:0:0:0:
320,192,23898,128,0,24015:0:0:0:0:
192,192,24015,1,0,0:0:0:0:
192,192,24249,128,0,24484:0:0:0:0:
320,192,24484,128,0,24952:0:0:0:0:
448,192,24484,128,0,24718:0:0:0:0:
64,192,24484,1,0,0:0:0:0:
64,192,24718,128,0,24952:0:0:0:0:
192,192,24835,128,0,24952:0:0:0:0:
448,192,24952,1,0,0:0:0:0:
192,192,25187,128,0,25421:0:0:0:0:
448,192,25421,128,0,25890:0:0:0:0:
320,192,25421,128,0,25655:0:0:0:0:
64,192,25421,1,0,0:0:0:0:
192,192,25655,128,0,25890:0:0:0:0:
64,192,25773,128,0,25890:0:0:0:0:
320,192,25890,1,0,0:0:0:0:
320,192,26124,128,0,26359:0:0:0:0:
64,192,26359,128,0,26827:0:0:0:0:
192,192,26359,128,0,26593:0:0:0:0:
448,192,26359,1,0,0:0:0:0:
320,192,26593,128,0,26827:0:0:0:0:
448,192,26710,128,0,26827:0:0:0:0:
192,192,26827,1,0,0:0:0:0:
448,192,27062,128,0,27296:0:0:0:0:
64,192,27296,128,0,27765:0:0:0:0:
320,192,27296,1,0,0:0:0:0:
192,192,27296,128,0,27765:0:0:0:0:
320,192,27648,128,0,27765:0:0:0:0:
448,192,27765,1,0,0:0:0:0:
320,192,27999,128,0,28234:0:0:0:0:
448,192,28234,128,0,28585:0:0:0:0:
64,192,28234,1,0,0:0:0:0:
192,192,28234,1,0,0:0:0:0:
192,192,28585,128,0,28937:0:0:0:0:
64,192,28937,128,0,29171:0:0:0:0:
320,192,29171,128,0,29523:0:0:0:0:
192,192,29523,128,0,29874:0:0:0:0:
320,192,29874,128,0,30109:0:0:0:0:
64,192,30109,128,0,31046:0:0:0:0:
448,192,30109,128,0,30577:0:0:0:0:
192,192,30577,128,0,30812:0:0:0:0:
320,192,30812,128,0,31280:0:0:0:0:
192,192,31046,128,0,31280:0:0:0:0:
320,192,31749,128,0,32218:0:0:0:0:
448,192,32218,128,0,32452:0:0:0:0:
320,192,32452,128,0,32687:0:0:0:0:
64,192,32687,128,0,33155:0:0:0:0:
320,192,33155,128,0,33507:0:0:0:0:
192,192,34093,128,0,34327:0:0:0:0:
320,192,34327,128,0,34562:0:0:0:0:
448,192,34562,128,0,34796:0:0:0:0:
192,192,34796,128,0,35030:0:0:0:0:
320,192,35030,128,0,35265:0:0:0:0:
320,192,35499,128,0,35968:0:0:0:0:
64,192,35499,128,0,37023:0:0:0:0:
448,192,35968,128,0,36437:0:0:0:0:
192,192,36437,128,0,37023:0:0:0:0:
320,192,37374,128,0,37609:0:0:0:0:
448,192,37609,128,0,37843:0:0:0:0:
320,192,38077,128,0,38312:0:0:0:0:
192,192,38312,128,0,38546:0:0:0:0:
64,192,38546,128,0,38780:0:0:0:0:
192,192,39249,128,0,39542:0:0:0:0:
320,192,39718,128,0,39952:0:0:0:0:
192,192,39952,128,0,40187:0:0:0:0:
448,192,40187,128,0,40655:0:0:0:0:
64,192,40655,128,0,40890:0:0:0:0:
320,192,40890,128,0,41124:0:0:0:0:
192,192,41124,128,0,41359:0:0:0:0:
448,192,41359,128,0,41651:0:0:0:0:
192,192,41827,128,0,42296:0:0:0:0:
64,192,42062,128,0,42530:0:0:0:0:
448,192,42296,128,0,42530:0:0:0:0:
320,192,42530,128,0,42648:0:0:0:0:
192,192,42765,128,0,42999:0:0:0:0:
448,192,42999,128,0,44523:0:0:0:0:
320,192,43468,128,0,44523:0:0:0:0:
192,192,43702,128,0,44523:0:0:0:0:
64,192,43937,128,0,44523:0:0:0:0:
64,192,44640,1,0,0:0:0:0:
192,192,44640,1,0,0:0:0:0:
320,192,44640,1,0,0:0:0:0:
448,192,44640,1,0,0:0:0:0:
448,192,45109,128,0,45577:0:0:0:0:
64,192,45109,128,0,45343:0:0:0:0:
320,192,45343,1,0,0:0:0:0:
192,192,45460,1,0,0:0:0:0:
64,192,45577,1,0,0:0:0:0:
320,192,45577,128,0,45812:0:0:0:0:
64,192,45812,128,0,46046:0:0:0:0:
448,192,46046,128,0,46280:0:0:0:0:
320,192,46046,1,0,0:0:0:0:
64,192,46280,1,0,0:0:0:0:
192,192,46398,1,0,0:0:0:0:
320,192,46515,1,0,0:0:0:0:
448,192,46515,1,0,0:0:0:0:
192,192,46749,128,0,47218:0:0:0:0:
448,192,46984,1,0,0:0:0:0:
320,192,46984,1,0,0:0:0:0:
320,192,47218,128,0,47452:0:0:0:0:
448,192,47335,1,0,0:0:0:0:
64,192,47452,128,0,47687:0:0:0:0:
192,192,47452,1,0,0:0:0:0:
448,192,47687,128,0,48390:0:0:0:0:
192,192,47921,1,0,0:0:0:0:
320,192,47921,1,0,0:0:0:0:
64,192,48155,1,0,0:0:0:0:
192,192,48273,1,0,0:0:0:0:
320,192,48390,1,0,0:0:0:0:
192,192,48624,128,0,48859:0:0:0:0:
64,192,48859,1,0,0:0:0:0:
448,192,48859,1,0,0:0:0:0:
320,192,49093,128,0,49327:0:0:0:0:
192,192,49210,1,0,0:0:0:0:
64,192,49327,1,0,0:0:0:0:
448,192,49327,128,0,49562:0:0:0:0:
192,192,49562,128,0,49796:0:0:0:0:
64,192,49796,128,0,50030:0:0:0:0:
448,192,49796,1,0,0:0:0:0:
448,192,50030,128,0,50265:0:0:0:0:
320,192,50148,1,0,0:0:0:0:
192,192,50265,128,0,50499:0:0:0:0:
64,192,50265,1,0,0:0:0:0:
448,192,50499,128,0,50968:0:0:0:0:
192,192,50734,1,0,0:0:0:0:
320,192,50734,1,0,0:0:0:0:
320,192,50968,128,0,51437:0:0:0:0:
64,192,50968,1,0,0:0:0:0:
192,192,51085,1,0,0:0:0:0:
64,192,51202,1,0,0:0:0:0:
192,192,51437,128,0,51905:0:0:0:0:
448,192,51671,1,0,0:0:0:0:
64,192,51671,1,0,0:0:0:0:
320,192,51905,1,0,0:0:0:0:
448,192,52023,1,0,0:0:0:0:
64,192,52140,128,0,52609:0:0:0:0:
192,192,52374,128,0,52609:0:0:0:0:
320,192,52609,128,0,53077:0:0:0:0:
448,192,52609,1,0,0:0:0:0:
64,192,52843,1,0,0:0:0:0:
192,192,52960,1,0,0:0:0:0:
448,192,53077,128,0,53546:0:0:0:0:
192,192,53312,128,0,53546:0:0:0:0:
64,192,53546,128,0,53898:0:0:0:0:
320,192,53546,1,0,0:0:0:0:
448,192,53780,1,0,0:0:0:0:
320,192,53898,1,0,0:0:0:0:
64,192,54015,128,0,54484:0:0:0:0:
192,192,54015,1,0,0:0:0:0:
320,192,54249,128,0,54718:0:0:0:0:
192,192,54484,1,0,0:0:0:0:
448,192,54484,128,0,54952:0:0:0:0:
64,192,54718,128,0,54952:0:0:0:0:
192,192,54835,1,0,0:0:0:0:
320,192,54952,128,0,55187:0:0:0:0:
192,192,55187,128,0,55421:0:0:0:0:
64,192,55421,128,0,55890:0:0:0:0:
448,192,55421,1,0,0:0:0:0:
320,192,55655,128,0,55890:0:0:0:0:
448,192,55890,128,0,56124:0:0:0:0:
192,192,55890,1,0,0:0:0:0:
192,192,56124,128,0,56359:0:0:0:0:
320,192,56359,128,0,56827:0:0:0:0:
64,192,56359,1,0,0:0:0:0:
192,192,56593,1,0,0:0:0:0:
64,192,56710,1,0,0:0:0:0:
448,192,56827,128,0,57296:0:0:0:0:
192,192,57062,128,0,57530:0:0:0:0:
64,192,57296,128,0,57765:0:0:0:0:
320,192,57296,1,0,0:0:0:0:
448,192,57530,128,0,57765:0:0:0:0:
320,192,57648,1,0,0:0:0:0:
192,192,57765,128,0,58234:0:0:0:0:
448,192,57999,128,0,58702:0:0:0:0:
64,192,58234,1,0,0:0:0:0:
320,192,58234,1,0,0:0:0:0:
320,192,58468,128,0,58937:0:0:0:0:
192,192,58468,1,0,0:0:0:0:
64,192,58585,1,0,0:0:0:0:
192,192,58702,128,0,59171:0:0:0:0:
64,192,58937,128,0,59640:0:0:0:0:
448,192,59171,1,0,0:0:0:0:
320,192,59171,1,0,0:0:0:0:
320,192,59405,1,0,0:0:0:0:
448,192,59523,1,0,0:0:0:0:
192,192,59640,1,0,0:0:0:0:
320,192,59640,1,0,0:0:0:0:
64,192,60109,128,0,60929:0:0:0:0:
192,192,60109,128,0,60577:0:0:0:0:
448,192,60577,128,0,60929:0:0:0:0:
320,192,60577,128,0,61046:0:0:0:0:
192,192,60812,128,0,61046:0:0:0:0:
64,192,61046,128,0,61398:0:0:0:0:
448,192,61046,128,0,61398:0:0:0:0:
192,192,61280,128,0,61632:0:0:0:0:
320,192,61398,128,0,61866:0:0:0:0:
448,192,61515,128,0,61866:0:0:0:0:
64,192,61515,128,0,63273:0:0:0:0:
192,192,61749,128,0,63155:0:0:0:0:
320,192,61984,128,0,62335:0:0:0:0:
448,192,61984,128,0,62335:0:0:0:0:
320,192,62452,128,0,62804:0:0:0:0:
448,192,62452,128,0,62804:0:0:0:0:
448,192,62921,128,0,63273:0:0:0:0:
320,192,62921,128,0,63507:0:0:0:0:
192,192,63273,128,0,63507:0:0:0:0:
448,192,63390,128,0,65148:0:0:0:0:
64,192,63390,128,0,63741:0:0:0:0:
192,192,63624,128,0,63741:0:0:0:0:
320,192,63624,128,0,64913:0:0:0:0:
64,192,63859,128,0,64210:0:0:0:0:
192,192,63859,128,0,64210:0:0:0:0:
64,192,64327,128,0,64679:0:0:0:0:
192,192,64327,128,0,64679:0:0:0:0:
192,192,64796,128,0,65030:0:0:0:0:
64,192,64796,128,0,65499:0:0:0:0:
320,192,65030,128,0,65148:0:0:0:0:
192,192,65148,128,0,65265:0:0:0:0:
320,192,65265,128,0,65499:0:0:0:0:
448,192,65265,128,0,66788:0:0:0:0:
192,192,65499,128,0,65734:0:0:0:0:
64,192,65734,128,0,65968:0:0:0:0:
320,192,65734,128,0,65968:0:0:0:0:
192,192,65968,128,0,66202:0:0:0:0:
64,192,66202,128,0,66437:0:0:0:0:
320,192,66202,128,0,66437:0:0:0:0:
192,192,66437,128,0,66671:0:0:0:0:
320,192,66671,128,0,67023:0:0:0:0:
64,192,66671,128,0,67374:0:0:0:0:
448,192,66905,128,0,67023:0:0:0:0:
192,192,67023,128,0,67140:0:0:0:0:
448,192,67140,128,0,67374:0:0:0:0:
320,192,67140,128,0,67374:0:0:0:0:
192,192,67374,128,0,67609:0:0:0:0:
64,192,67609,128,0,67843:0:0:0:0:
320,192,67609,128,0,67843:0:0:0:0:
448,192,67609,128,0,67843:0:0:0:0:
192,192,67843,128,0,68077:0:0:0:0:
64,192,68077,128,0,68312:0:0:0:0:
320,192,68077,128,0,68312:0:0:0:0:
448,192,68077,128,0,68312:0:0:0:0:
192,192,68312,128,0,68546:0:0:0:0:
64,192,68546,128,0,68898:0:0:0:0:
320,192,68546,128,0,68780:0:0:0:0:
448,192,68546,128,0,68898:0:0:0:0:
192,192,68780,128,0,69249:0:0:0:0:
320,192,68898,128,0,69132:0:0:0:0:
64,192,69015,128,0,69249:0:0:0:0:
448,192,69015,128,0,69249:0:0:0:0:
320,192,69249,128,0,69484:0:0:0:0:
64,192,69484,128,0,69718:0:0:0:0:
192,192,69484,128,0,69718:0:0:0:0:
448,192,69484,128,0,69718:0:0:0:0:
320,192,69718,128,0,69952:0:0:0:0:
64,192,69952,128,0,70187:0:0:0:0:
192,192,69952,128,0,70187:0:0:0:0:
448,192,69952,128,0,70187:0:0:0:0:
320,192,70187,128,0,70421:0:0:0:0:
64,192,70421,128,0,70773:0:0:0:0:
448,192,70421,128,0,70773:0:0:0:0:
192,192,70421,128,0,70655:0:0:0:0:
320,192,70655,128,0,70890:0:0:0:0:
192,192,70773,128,0,70890:0:0:0:0:
64,192,70890,128,0,71124:0:0:0:0:
448,192,70890,128,0,71124:0:0:0:0:
192,192,71124,128,0,71710:0:0:0:0:
320,192,71241,128,0,71710:0:0:0:0:
64,192,71359,128,0,71710:0:0:0:0:
448,192,71359,128,0,71710:0:0:0:0:
64,192,71827,128,0,72179:0:0:0:0:
192,192,71827,128,0,72179:0:0:0:0:
320,192,71827,128,0,72179:0:0:0:0:
448,192,71827,128,0,72179:0:0:0:0:
64,192,72296,128,0,72648:0:0:0:0:
192,192,72296,128,0,72648:0:0:0:0:
448,192,72296,128,0,72413:0:0:0:0:
320,192,72296,128,0,72530:0:0:0:0:
448,192,72530,1,0,0:0:0:0:
320,192,72648,1,0,0:0:0:0:
64,192,72765,1,0,0:0:0:0:
192,192,72765,1,0,0:0:0:0:
320,192,72882,1,0,0:0:0:0:
448,192,72999,128,0,73585:0:0:0:0:
320,192,73116,128,0,73351:0:0:0:0:
192,192,73234,128,0,74523:0:0:0:0:
64,192,73234,128,0,73819:0:0:0:0:
320,192,73468,128,0,74523:0:0:0:0:
448,192,73702,128,0,74523:0:0:0:0:
64,192,73937,128,0,74523:0:0:0:0:
64,192,74640,1,0,0:0:0:0:
192,192,74640,1,0,0:0:0:0:
320,192,74640,1,0,0:0:0:0:
448,192,74640,1,0,0:0:0:0:
64,192,75109,128,0,75577:0:0:0:0:
192,192,75109,128,0,75343:0:0:0:0:
320,192,75343,128,0,75577:0:0:0:0:
448,192,75460,128,0,75577:0:0:0:0:
192,192,75577,128,0,75812:0:0:0:0:
64,192,75812,128,0,76046:0:0:0:0:
448,192,75812,128,0,76046:0:0:0:0:
192,192,76046,128,0,76280:0:0:0:0:
320,192,76046,128,0,76749:0:0:0:0:
64,192,76280,128,0,76515:0:0:0:0:
192,192,76398,128,0,76515:0:0:0:0:
448,192,76515,128,0,76749:0:0:0:0:
64,192,76749,128,0,77218:0:0:0:0:
192,192,76749,128,0,76984:0:0:0:0:
448,192,76984,128,0,77218:0:0:0:0:
320,192,76984,128,0,77452:0:0:0:0:
192,192,77218,128,0,77452:0:0:0:0:
64,192,77335,128,0,77452:0:0:0:0:
448,192,77687,128,0,77804:0:0:0:0:
64,192,77687,128,0,77804:0:0:0:0:
64,192,77921,128,0,78624:0:0:0:0:
448,192,77921,128,0,78624:0:0:0:0:
192,192,78155,128,0,78390:0:0:0:0:
320,192,78390,128,0,78624:0:0:0:0:
192,192,78624,128,0,78859:0:0:0:0:
64,192,78859,128,0,79327:0:0:0:0:
320,192,78859,128,0,79093:0:0:0:0:
192,192,79093,128,0,79327:0:0:0:0:
448,192,79210,128,0,79562:0:0:0:0:
320,192,79327,128,0,79562:0:0:0:0:
64,192,79562,128,0,80030:0:0:0:0:
192,192,79562,128,0,79796:0:0:0:0:
448,192,79796,128,0,80030:0:0:0:0:
320,192,79796,128,0,80499:0:0:0:0:
192,192,80030,128,0,80265:0:0:0:0:
64,192,80148,128,0,80265:0:0:0:0:
448,192,80265,128,0,80499:0:0:0:0:
192,192,80499,128,0,80968:0:0:0:0:
64,192,80734,128,0,81202:0:0:0:0:
448,192,80734,128,0,81085:0:0:0:0:
320,192,80968,128,0,81085:0:0:0:0:
192,192,81085,128,0,81202:0:0:0:0:
448,192,81202,128,0,81437:0:0:0:0:
320,192,81202,128,0,82140:0:0:0:0:
192,192,81437,128,0,81554:0:0:0:0:
64,192,81437,128,0,81554:0:0:0:0:
64,192,81671,128,0,81788:0:0:0:0:
192,192,81671,128,0,81788:0:0:0:0:
192,192,81905,128,0,82374:0:0:0:0:
64,192,81905,128,0,82374:0:0:0:0:
448,192,82140,128,0,82609:0:0:0:0:
320,192,82374,128,0,82609:0:0:0:0:
192,192,82609,128,0,82843:0:0:0:0:
64,192,82609,128,0,83077:0:0:0:0:
448,192,82843,128,0,83077:0:0:0:0:
320,192,82960,128,0,83077:0:0:0:0:
192,192,83077,128,0,83546:0:0:0:0:
320,192,83312,128,0,83546:0:0:0:0:
64,192,83546,128,0,84015:0:0:0:0:
448,192,83546,128,0,83780:0:0:0:0:
192,192,83780,128,0,84015:0:0:0:0:
320,192,83898,128,0,84015:0:0:0:0:
448,192,84015,128,0,84249:0:0:0:0:
64,192,84249,128,0,84484:0:0:0:0:
192,192,84249,128,0,84484:0:0:0:0:
320,192,84484,128,0,84952:0:0:0:0:
448,192,84484,128,0,84718:0:0:0:0:
64,192,84718,128,0,84952:0:0:0:0:
192,192,84835,128,0,84952:0:0:0:0:
448,192,84952,128,0,85655:0:0:0:0:
64,192,85187,128,0,85304:0:0:0:0:
320,192,85187,128,0,85304:0:0:0:0:
64,192,85421,128,0,85890:0:0:0:0:
320,192,85421,128,0,85655:0:0:0:0:
192,192,85655,128,0,86124:0:0:0:0:
320,192,85890,128,0,86359:0:0:0:0:
448,192,86124,128,0,86359:0:0:0:0:
64,192,86359,128,0,86827:0:0:0:0:
192,192,86359,128,0,86593:0:0:0:0:
448,192,86593,128,0,86827:0:0:0:0:
320,192,86710,128,0,86827:0:0:0:0:
192,192,86827,1,0,0:0:0:0:
192,192,87062,128,0,87296:0:0:0:0:
320,192,87062,128,0,87530:0:0:0:0:
64,192,87296,128,0,87765:0:0:0:0:
448,192,87296,128,0,87530:0:0:0:0:
192,192,87530,128,0,87765:0:0:0:0:
320,192,87648,128,0,87765:0:0:0:0:
448,192,87765,1,0,0:0:0:0:
192,192,87999,128,0,88234:0:0:0:0:
320,192,88234,128,0,88468:0:0:0:0:
448,192,88234,128,0,88702:0:0:0:0:
192,192,88468,128,0,88702:0:0:0:0:
64,192,88585,128,0,88702:0:0:0:0:
192,192,88937,128,0,89171:0:0:0:0:
64,192,88937,128,0,89171:0:0:0:0:
192,192,89405,128,0,89640:0:0:0:0:
64,192,89405,128,0,89640:0:0:0:0:
320,192,89640,128,0,90109:0:0:0:0:
448,192,89640,128,0,90109:0:0:0:0:
192,192,90109,128,0,90343:0:0:0:0:
64,192,90109,128,0,90577:0:0:0:0:
448,192,90343,128,0,90577:0:0:0:0:
320,192,90460,128,0,90577:0:0:0:0:
192,192,90577,128,0,90812:0:0:0:0:
320,192,90812,128,0,91280:0:0:0:0:
448,192,91046,128,0,91280:0:0:0:0:
64,192,91046,128,0,91515:0:0:0:0:
192,192,91280,128,0,91515:0:0:0:0:
320,192,91398,128,0,91515:0:0:0:0:
448,192,91515,128,0,91749:0:0:0:0:
192,192,91749,128,0,91984:0:0:0:0:
64,192,91984,128,0,92687:0:0:0:0:
320,192,91984,128,0,92335:0:0:0:0:
448,192,91984,128,0,92335:0:0:0:0:
192,192,92335,128,0,92687:0:0:0:0:
320,192,92687,128,0,92804:0:0:0:0:
448,192,92687,128,0,92804:0:0:0:0:
448,192,92921,128,0,93390:0:0:0:0:
320,192,92921,128,0,93038:0:0:0:0:
320,192,93155,128,0,93624:0:0:0:0:
192,192,93390,128,0,93859:0:0:0:0:
64,192,93390,128,0,93624:0:0:0:0:
448,192,93624,128,0,93859:0:0:0:0:
64,192,93859,128,0,94327:0:0:0:0:
320,192,93859,128,0,94093:0:0:0:0:
192,192,94093,128,0,94327:0:0:0:0:
320,192,94210,128,0,94327:0:0:0:0:
448,192,94327,128,0,94562:0:0:0:0:
64,192,94562,128,0,94796:0:0:0:0:
192,192,94562,128,0,94796:0:0:0:0:
448,192,94796,128,0,95265:0:0:0:0:
320,192,95030,128,0,95265:0:0:0:0:
192,192,95148,128,0,95265:0:0:0:0:
64,192,95265,128,0,95499:0:0:0:0:
192,192,95499,128,0,96085:0:0:0:0:
320,192,95499,128,0,95734:0:0:0:0:
448,192,95734,128,0,96437:0:0:0:0:
64,192,95734,128,0,96085:0:0:0:0:
320,192,96085,128,0,96437:0:0:0:0:
64,192,96437,128,0,96554:0:0:0:0:
192,192,96437,128,0,96554:0:0:0:0:
192,192,96671,128,0,96788:0:0:0:0:
64,192,96671,128,0,97140:0:0:0:0:
192,192,96905,128,0,97140:0:0:0:0:
448,192,97140,128,0,97609:0:0:0:0:
320,192,97374,128,0,97609:0:0:0:0:
64,192,97609,128,0,97843:0:0:0:0:
192,192,97609,128,0,98312:0:0:0:0:
320,192,97843,128,0,98077:0:0:0:0:
448,192,97960,128,0,98077:0:0:0:0:
64,192,98077,128,0,98312:0:0:0:0:
448,192,98312,128,0,98780:0:0:0:0:
192,192,98546,128,0,98780:0:0:0:0:
320,192,98546,128,0,99249:0:0:0:0:
64,192,98780,128,0,99015:0:0:0:0:
192,192,98898,128,0,99015:0:0:0:0:
448,192,99015,128,0,99249:0:0:0:0:
192,192,99249,128,0,99484:0:0:0:0:
320,192,99484,128,0,99835:0:0:0:0:
448,192,99484,128,0,99835:0:0:0:0:
192,192,99718,1,0,0:0:0:0:
64,192,99835,128,0,100187:0:0:0:0:
192,192,100187,128,0,100304:0:0:0:0:
320,192,100187,128,0,100304:0:0:0:0:
320,192,100421,128,0,100538:0:0:0:0:
192,192,100421,128,0,101359:0:0:0:0:
320,192,100655,128,0,101124:0:0:0:0:
64,192,100890,128,0,101359:0:0:0:0:
448,192,101124,128,0,101359:0:0:0:0:
320,192,101359,128,0,101827:0:0:0:0:
192,192,101593,128,0,101827:0:0:0:0:
64,192,101710,128,0,101827:0:0:0:0:
448,192,101827,128,0,102062:0:0:0:0:
192,192,102062,128,0,102296:0:0:0:0:
64,192,102296,128,0,102765:0:0:0:0:
448,192,102296,128,0,102530:0:0:0:0:
192,192,102530,128,0,102765:0:0:0:0:
320,192,102648,128,0,102765:0:0:0:0:
448,192,102765,128,0,102999:0:0:0:0:
320,192,102999,128,0,103234:0:0:0:0:
64,192,103234,1,0,0:0:0:0:
192,192,103234,1,0,0:0:0:0:
64,192,104640,1,0,0:0:0:0:
320,192,104640,1,0,0:0:0:0:
448,192,104640,1,0,0:0:0:0:
192,192,105109,128,0,105343:0:0:0:0:
320,192,105109,128,0,105460:0:0:0:0:
64,192,105109,128,0,105694:0:0:0:0:
448,192,105109,128,0,107218:0:0:0:0:
192,192,105460,128,0,105929:0:0:0:0:
320,192,105577,128,0,106866:0:0:0:0:
64,192,105812,128,0,105929:0:0:0:0:
64,192,106046,128,0,106398:0:0:0:0:
192,192,106046,128,0,106398:0:0:0:0:
64,192,106515,128,0,107569:0:0:0:0:
192,192,106515,128,0,107569:0:0:0:0:
320,192,106984,128,0,107335:0:0:0:0:
448,192,107335,128,0,108507:0:0:0:0:
320,192,107452,128,0,108273:0:0:0:0:
64,192,107687,128,0,107804:0:0:0:0:
192,192,107687,128,0,107804:0:0:0:0:
64,192,107921,128,0,108741:0:0:0:0:
192,192,107921,128,0,109444:0:0:0:0:
320,192,108390,128,0,109210:0:0:0:0:
448,192,108624,128,0,109093:0:0:0:0:
64,192,108859,128,0,109444:0:0:0:0:
448,192,109210,128,0,111319:0:0:0:0:
320,192,109327,128,0,110382:0:0:0:0:
192,192,109562,128,0,109679:0:0:0:0:
64,192,109562,128,0,109679:0:0:0:0:
64,192,109796,128,0,110148:0:0:0:0:
192,192,109796,128,0,110148:0:0:0:0:
192,192,110265,128,0,110968:0:0:0:0:
64,192,110265,128,0,110616:0:0:0:0:
320,192,110499,128,0,111319:0:0:0:0:
64,192,110734,128,0,112843:0:0:0:0:
192,192,111085,128,0,112726:0:0:0:0:
320,192,111437,128,0,111554:0:0:0:0:
448,192,111437,128,0,111554:0:0:0:0:
320,192,111671,128,0,112257:0:0:0:0:
448,192,111671,128,0,112023:0:0:0:0:
448,192,112140,128,0,112491:0:0:0:0:
320,192,112374,128,0,113194:0:0:0:0:
448,192,112609,128,0,113429:0:0:0:0:
192,192,112843,128,0,113429:0:0:0:0:
64,192,112960,128,0,114366:0:0:0:0:
320,192,113312,128,0,115069:0:0:0:0:
192,192,113546,128,0,113898:0:0:0:0:
448,192,113546,128,0,113898:0:0:0:0:
192,192,114015,128,0,114366:0:0:0:0:
448,192,114015,128,0,114718:0:0:0:0:
64,192,114484,128,0,115773:0:0:0:0:
192,192,114484,128,0,114601:0:0:0:0:
192,192,114718,128,0,115069:0:0:0:0:
448,192,114835,128,0,116007:0:0:0:0:
192,192,115187,128,0,115304:0:0:0:0:
320,192,115187,128,0,115304:0:0:0:0:
192,192,115421,128,0,116241:0:0:0:0:
320,192,115421,128,0,116593:0:0:0:0:
64,192,115890,128,0,116944:0:0:0:0:
448,192,116124,128,0,116476:0:0:0:0:
192,192,116359,128,0,116710:0:0:0:0:
448,192,116593,128,0,118116:0:0:0:0:
320,192,116710,128,0,117882:0:0:0:0:
192,192,116827,128,0,117179:0:0:0:0:
64,192,117062,128,0,117179:0:0:0:0:
64,192,117296,128,0,117648:0:0:0:0:
192,192,117296,128,0,117648:0:0:0:0:
64,192,117765,128,0,117999:0:0:0:0:
192,192,117765,128,0,117999:0:0:0:0:
320,192,117999,128,0,118468:0:0:0:0:
448,192,118234,128,0,119640:0:0:0:0:
320,192,118585,128,0,119523:0:0:0:0:
64,192,118937,128,0,120460:0:0:0:0:
192,192,119288,128,0,119991:0:0:0:0:
320,192,119640,128,0,120343:0:0:0:0:
448,192,119874,128,0,120226:0:0:0:0:
192,192,120109,128,0,120929:0:0:0:0:
448,192,120343,128,0,122335:0:0:0:0:
320,192,120460,128,0,120694:0:0:0:0:
64,192,120577,128,0,120929:0:0:0:0:
320,192,120812,128,0,121866:0:0:0:0:
64,192,121046,128,0,121398:0:0:0:0:
192,192,121046,128,0,121398:0:0:0:0:
64,192,121515,128,0,122101:0:0:0:0:
192,192,121515,128,0,122218:0:0:0:0:
320,192,121984,128,0,123273:0:0:0:0:
64,192,122218,128,0,122569:0:0:0:0:
192,192,122335,128,0,122569:0:0:0:0:
448,192,122452,128,0,123507:0:0:0:0:
192,192,122687,128,0,122804:0:0:0:0:
64,192,122687,128,0,122804:0:0:0:0:
64,192,122921,128,0,124210:0:0:0:0:
192,192,122921,128,0,123741:0:0:0:0:
320,192,123390,128,0,124093:0:0:0:0:
448,192,123624,128,0,123976:0:0:0:0:
192,192,123859,128,0,125382:0:0:0:0:
448,192,124093,128,0,124444:0:0:0:0:
320,192,124210,128,0,124444:0:0:0:0:
64,192,124327,128,0,125616:0:0:0:0:
320,192,124562,128,0,124679:0:0:0:0:
448,192,124562,128,0,124679:0:0:0:0:
320,192,124796,128,0,125148:0:0:0:0:
448,192,124796,128,0,125148:0:0:0:0:
320,192,125265,128,0,125968:0:0:0:0:
448,192,125265,128,0,126085:0:0:0:0:
192,192,125499,128,0,125851:0:0:0:0:
64,192,125734,128,0,126319:0:0:0:0:
192,192,125968,128,0,126319:0:0:0:0:
320,192,126085,128,0,127023:0:0:0:0:
448,192,126202,128,0,127257:0:0:0:0:
192,192,126437,128,0,126554:0:0:0:0:
64,192,126437,128,0,126554:0:0:0:0:
64,192,126671,128,0,127726:0:0:0:0:
192,192,126671,128,0,127491:0:0:0:0:
320,192,127140,128,0,127843:0:0:0:0:
448,192,127374,128,0,127960:0:0:0:0:
192,192,127609,128,0,128194:0:0:0:0:
64,192,127843,128,0,128194:0:0:0:0:
320,192,127960,128,0,129601:0:0:0:0:
448,192,128077,128,0,129366:0:0:0:0:
192,192,128312,128,0,128429:0:0:0:0:
64,192,128312,128,0,128429:0:0:0:0:
64,192,128546,128,0,128898:0:0:0:0:
192,192,128546,128,0,128898:0:0:0:0:
64,192,129015,128,0,129835:0:0:0:0:
192,192,129015,128,0,129718:0:0:0:0:
448,192,129484,128,0,130069:0:0:0:0:
320,192,129718,128,0,130069:0:0:0:0:
192,192,129835,128,0,131007:0:0:0:0:
64,192,129952,128,0,131593:0:0:0:0:
320,192,130187,128,0,130304:0:0:0:0:
448,192,130187,128,0,130304:0:0:0:0:
320,192,130421,128,0,130773:0:0:0:0:
448,192,130421,128,0,130773:0:0:0:0:
320,192,130890,128,0,131241:0:0:0:0:
448,192,130890,128,0,131241:0:0:0:0:
192,192,131124,128,0,131593:0:0:0:0:
448,192,131359,128,0,131944:0:0:0:0:
320,192,131359,128,0,131944:0:0:0:0:
64,192,131710,128,0,132179:0:0:0:0:
192,192,131710,128,0,132179:0:0:0:0:
320,192,132062,128,0,132882:0:0:0:0:
448,192,132062,128,0,133116:0:0:0:0:
192,192,132296,128,0,132648:0:0:0:0:
64,192,132296,128,0,132648:0:0:0:0:
64,192,132765,128,0,133234:0:0:0:0:
192,192,132765,128,0,133234:0:0:0:0:
320,192,132999,128,0,133234:0:0:0:0:
448,192,133234,1,0,0:0:0:0:
