osu file format v14

[General]
AudioFilename: audio.mp3
AudioLeadIn: 0
PreviewTime: 33046
Countdown: 0
SampleSet: Soft
StackLeniency: 0.3
Mode: 0
LetterboxInBreaks: 0
WidescreenStoryboard: 1

[Editor]
Bookmarks: 16171,103359
DistanceSpacing: 1.2
BeatDivisor: 4
GridSize: 4
TimelineZoom: 1.7

[Metadata]
Title:Black Rose Remix by TAK
TitleUnicode:Black Rose Remix by TAK
Artist:M2U
ArtistUnicode:M2U
Creator:Juiceys
Version:Advanced
Source:
Tags:White Smooth Jazz EZ2DJ
BeatmapID:1351111
BeatmapSetID:635676

[Difficulty]
HPDrainRate:5
CircleSize:3.7
OverallDifficulty:4.5
ApproachRate:6
SliderMultiplier:1.2
SliderTickRate:1

[Events]
//Background and Video events
0,0,"black rose.jpg",0,0
//Break Periods
2,48246,54496
2,78246,84496
//Storyboard Layer 0 (Background)
//Storyboard Layer 1 (Fail)
//Storyboard Layer 2 (Pass)
//Storyboard Layer 3 (Foreground)
//Storyboard Sound Samples

[TimingPoints]
3046,468.75,4,3,0,35,1,0
18046,-100,4,2,0,40,0,0
33046,-100,4,2,0,50,0,1
48046,-100,4,2,0,35,0,0
63046,-100,4,2,0,50,0,1
78046,-100,4,2,0,40,0,0
93046,-100,4,2,0,55,0,1
108046,-100,4,2,0,45,0,0

[Colours]
Combo1 : 255,98,98
Combo2 : 0,183,0
Combo3 : 255,0,128
Combo4 : 253,190,45

[HitObjects]
140,344,3046,6,0,L|4:360,2,120,4|4|4,0:0|0:0|0:0,0:0:0:0:
256,312,4453,1,4,0:0:0:0:
372,344,4921,2,0,L|491:358,2,120,4|4|4,0:0|0:0|0:0,0:0:0:0:
256,312,6328,1,4,0:0:0:0:
228,196,6796,6,0,P|224:132|264:88,1,120,4|4,0:0|0:0,0:0:0:0:
324,56,7500,1,0,0:0:0:0:
392,84,7734,2,0,L|424:216,1,120,4|4,0:0|0:0,0:0:0:0:
397,270,8437,1,0,0:0:0:0:
324,268,8671,2,0,P|277:232|219:238,1,120,4|4,0:0|0:0,0:0:0:0:
88,296,9609,2,0,P|123:249|117:191,1,120,4|4,0:0|0:0,0:0:0:0:
52,64,10546,6,0,L|196:48,1,120,4|4,0:0|0:0,0:0:0:0:
244,48,11250,1,0,0:0:0:0:
316,60,11484,2,0,L|460:44,1,120,4|4,0:0|0:0,0:0:0:0:
508,44,12187,1,0,0:0:0:0:
500,116,12421,6,8,P|472:164|492:236,1,120,4|4,0:0|0:0,0:0:0:0:
496,368,13359,2,0,B|408:324|368:388|304:340,1,180,4|0,0:0|0:0,0:0:0:0:
260,308,14296,2,0,L|272:172,1,120,4|4,0:0|0:0,0:0:0:0:
280,116,15000,1,0,0:0:0:0:
208,108,15234,2,0,B|116:132|116:132|120:104,1,120,4|4,0:0|0:0,0:0:0:0:
48,284,16171,6,0,L|184:240,1,120,4|4,0:0|0:0,0:0:0:0:
232,228,16875,1,0,0:0:0:0:
300,256,17109,6,0,B|308:304|356:312|356:312|388:292,1,120,2|0,0:0|0:0,0:0:0:0:
436,240,17812,1,0,0:0:0:0:
420,168,18046,6,0,P|414:109|375:64,1,120,4|8,1:0|0:0,0:0:0:0:
308,36,18750,1,0,0:0:0:0:
240,60,18984,2,0,L|236:119,1,60
231,191,19453,1,8,0:0:0:0:
168,320,19921,6,0,P|208:340|288:324,1,120,0|8,0:0|0:0,0:0:0:0:
344,292,20625,1,0,0:0:0:0:
412,316,20859,2,0,L|480:360,2,60,0|0|8,0:0|0:0|0:0,0:0:0:0:
344,292,21562,1,0,0:0:0:0:
332,220,21796,6,0,P|280:200|204:228,1,120,0|8,0:0|0:0,0:0:0:0:
172,272,22500,1,0,0:0:0:0:
107,239,22734,2,0,L|103:167,1,60
31,184,23203,2,0,L|35:256,1,60,8|0,0:0|0:0,0:0:0:0:
40,316,23671,6,0,P|96:328|172:328,1,120,0|8,0:0|0:0,0:0:0:0:
232,316,24375,1,0,0:0:0:0:
304,320,24609,2,0,P|344:324|380:312,2,60,0|0|8,0:0|0:0|0:0,0:0:0:0:
232,316,25312,1,0,0:0:0:0:
208,248,25546,6,0,L|180:124,1,120,0|8,0:0|0:0,0:0:0:0:
165,59,26250,1,0,0:0:0:0:
92,56,26484,2,0,P|88:104|80:132,1,60
56,180,26952,2,0,P|60:228|68:256,1,60,8|0,0:0|0:0,0:0:0:0:
72,312,27421,6,0,P|124:312|152:304,1,60
200,292,27890,2,0,P|216:224|264:164,1,120,8|0,0:0|0:0,0:0:0:0:
312,156,28593,1,0,0:0:0:0:
348,220,28828,2,0,P|356:268|372:296,1,60,8|0,0:0|0:0,0:0:0:0:
408,332,29296,5,0,0:0:0:0:
452,275,29531,1,0,0:0:0:0:
499,220,29765,2,0,P|439:204|387:243,1,120,8|0,0:0|0:0,0:0:0:0:
332,272,30468,1,0,0:0:0:0:
264,245,30703,2,0,L|248:165,1,60,8|0,0:0|0:0,0:0:0:0:
193,145,31171,6,0,L|85:189,2,90
252,104,32109,2,0,P|316:108|416:48,1,180,2|0,3:0|0:0,0:0:0:0:
479,22,33046,6,0,L|483:106,1,60,4|0,1:0|0:0,0:0:0:0:
468,152,33515,2,0,L|470:211,1,60,8|0,0:0|0:0,0:0:0:0:
504,275,33984,2,0,P|436:271|384:303,1,120,0|8,0:0|0:0,0:0:0:0:
320,304,34687,1,0,0:0:0:0:
256,268,34921,6,0,L|128:288,1,120,0|8,0:0|0:0,0:0:0:0:
64,280,35625,1,0,0:0:0:0:
28,216,35859,2,0,P|24:176|40:136,1,60,0|0,0:0|0:0,0:0:0:0:
96,188,36328,1,8,0:0:0:0:
232,236,36796,6,0,B|200:180|216:132|216:132|264:148|304:116,1,180,0|0,0:0|0:0,0:0:0:0:
352,100,37734,2,0,L|308:228,1,120,0|8,0:0|0:0,0:0:0:0:
268,272,38437,1,0,0:0:0:0:
236,336,38671,6,0,P|300:352|364:332,1,120,0|8,0:0|0:0,0:0:0:0:
392,280,39375,1,0,0:0:0:0:
464,280,39609,2,0,L|464:196,1,60,0|0,0:0|0:0,0:0:0:0:
464,148,40078,2,0,P|420:144|392:128,1,60,8|0,0:0|0:0,0:0:0:0:
388,68,40546,6,0,P|340:108|344:176,1,120,0|8,0:0|0:0,0:0:0:0:
342,234,41250,1,0,0:0:0:0:
304,296,41484,2,0,L|216:304,1,60,0|0,0:0|0:0,0:0:0:0:
172,304,41953,1,8,0:0:0:0:
188,232,42187,1,0,0:0:0:0:
256,204,42421,6,0,L|380:192,1,120,0|8,0:0|0:0,0:0:0:0:
428,140,43125,1,0,0:0:0:0:
360,112,43359,2,0,B|268:120|268:120|276:80,1,120,0|8,0:0|0:0,0:0:0:0:
228,36,44062,1,0,0:0:0:0:
176,88,44296,6,0,P|148:124|148:164,1,60,0|0,0:0|0:0,0:0:0:0:
140,208,44765,2,0,P|149:236|170:257,1,60,8|0,0:0|0:0,0:0:0:0:
200,324,45234,2,0,P|244:292|324:304,1,120,0|8,0:0|0:0,0:0:0:0:
376,316,45937,1,0,0:0:0:0:
444,288,46171,2,0,L|484:376,2,90
408,224,47109,2,0,L|376:160,3,40,2|2|2|2,3:0|3:0|3:0|3:0,0:0:0:0:
357,123,47812,1,2,3:0:0:0:
357,123,48046,5,4,0:0:0:0:
36,40,55546,6,0,P|76:68|108:76,1,60,0|0,0:0|0:0,0:0:0:0:
152,104,56015,2,0,P|179:116|202:135,1,60,8|0,0:0|0:0,0:0:0:0:
176,204,56484,2,0,P|228:204|276:132,1,120,0|8,0:0|0:0,0:0:0:0:
304,92,57187,1,0,0:0:0:0:
360,140,57421,6,0,L|376:268,1,120,0|8,0:0|0:0,0:0:0:0:
356,328,58125,1,0,0:0:0:0:
284,312,58359,2,0,P|248:300|188:312,2,90,0|0|0,0:0|0:0|0:0,0:0:0:0:
356,328,59296,6,0,P|416:328|460:272,1,120,0|8,0:0|0:0,0:0:0:0:
460,216,60000,1,0,0:0:0:0:
424,152,60234,2,0,B|356:160|356:160|308:140,1,120,0|8,0:0|0:0,0:0:0:0:
242,109,60937,1,0,0:0:0:0:
201,169,61171,2,0,L|274:204,2,80
102,137,62109,2,0,L|66:181,3,40,2|2|2|2,3:0|3:0|3:0|3:0,0:0:0:0:
24,220,62812,1,2,3:0:0:0:
80,268,63046,6,0,P|140:280|212:272,1,120,4|8,1:0|0:0,0:0:0:0:
232,212,63750,2,0,P|256:232|256:320,1,120,0|0,0:0|0:0,0:0:0:0:
200,360,64453,2,0,P|152:356|120:364,1,60,8|0,0:0|0:0,0:0:0:0:
68,348,64921,6,0,L|40:216,1,120,0|8,0:0|0:0,0:0:0:0:
24,160,65625,1,0,0:0:0:0:
92,132,65859,2,0,P|140:136|172:128,1,60,0|0,0:0|0:0,0:0:0:0:
224,120,66328,1,8,0:0:0:0:
296,136,66562,1,0,0:0:0:0:
340,76,66796,6,0,P|372:124|348:188,1,120,0|8,0:0|0:0,0:0:0:0:
308,236,67500,1,0,0:0:0:0:
236,252,67734,2,0,L|220:184,2,60,0|0|8,0:0|0:0|0:0,0:0:0:0:
252,324,68437,1,0,0:0:0:0:
324,336,68671,6,0,B|364:316|400:356|460:324,1,120,0|8,0:0|0:0,0:0:0:0:
500,288,69375,1,0,0:0:0:0:
472,220,69609,2,0,L|460:140,1,60,0|0,0:0|0:0,0:0:0:0:
392,176,70078,2,0,L|404:256,1,60,8|0,0:0|0:0,0:0:0:0:
348,284,70546,6,0,B|308:304|272:264|212:296,1,120,4|8,0:0|0:0,0:0:0:0:
164,320,71250,1,0,0:0:0:0:
100,284,71484,2,0,L|72:156,1,120,0|8,0:0|0:0,0:0:0:0:
52,96,72187,1,0,0:0:0:0:
112,56,72421,6,0,L|188:88,1,60,0|0,0:0|0:0,0:0:0:0:
216,132,72890,2,0,L|292:164,1,60,8|0,0:0|0:0,0:0:0:0:
344,164,73359,1,0,0:0:0:0:
384,224,73593,2,0,P|384:272|400:296,1,60,0|8,0:0|0:0,0:0:0:0:
452,248,74062,1,0,0:0:0:0:
476,180,74296,6,0,B|480:88|480:88|444:104,1,120,0|8,0:0|0:0,0:0:0:0:
388,129,75000,2,0,L|324:145,1,60,0|0,0:0|0:0,0:0:0:0:
261,120,75468,1,0,0:0:0:0:
191,141,75703,2,0,L|132:126,1,60,8|0,0:0|0:0,0:0:0:0:
62,108,76171,6,0,P|58:172|70:212,1,80,4|0,0:0|0:0,0:0:0:0:
177,216,76875,2,0,P|181:255|176:295,1,80,4|0,0:0|0:0,0:0:0:0:
281,352,77578,2,0,L|349:348,1,60,8|8,3:0|3:0,0:0:0:0:
409,328,78046,1,8,3:0:0:0:
337,52,85546,6,0,P|295:78|255:79,1,90,12|0,3:0|0:0,0:0:0:0:
255,79,86015,2,0,L|266:150,1,60,0|0,0:0|0:0,0:0:0:0:
302,199,86484,2,0,B|396:241|396:241|363:265,1,120,0|0,0:0|0:0,0:0:0:0:
321,290,87187,1,12,3:0:0:0:
245,282,87421,6,0,L|156:246,1,90,12|0,3:0|0:0,0:0:0:0:
161,248,87890,2,0,P|144:292|123:311,1,60,0|0,0:0|0:0,0:0:0:0:
66,280,88359,2,0,B|51:190|51:190|78:202,1,120,0|0,0:0|0:0,0:0:0:0:
146,178,89062,1,12,3:0:0:0:
213,152,89296,6,0,P|257:149|306:108,1,90,12|0,3:0|0:0,0:0:0:0:
321,100,89765,1,0,0:0:0:0:
390,118,90000,1,12,3:0:0:0:
432,176,90234,6,0,P|417:221|423:280,1,90,12|0,3:0|0:0,0:0:0:0:
424,300,90703,2,0,L|347:323,1,60
294,312,91171,1,8,3:0:0:0:
228,341,91406,1,8,3:0:0:0:
167,302,91640,1,8,3:0:0:0:
104,338,91875,1,8,3:0:0:0:
63,278,92109,6,0,B|88:231|73:190|73:190|137:213|137:213|129:178,1,180
118,122,93046,6,0,P|172:120|199:106,1,60
239,82,93515,2,0,L|250:152,1,60,8|0,0:0|0:0,0:0:0:0:
291,199,93984,2,0,B|372:243|372:243|337:258,1,120,0|8,0:0|0:0,0:0:0:0:
278,279,94687,1,0,0:0:0:0:
208,258,94921,6,0,L|138:266,1,60
90,230,95390,2,0,L|90:316,1,60,8|0,0:0|0:0,0:0:0:0:
128,351,95859,2,0,B|218:342|218:342|194:374,1,120,0|8,0:0|0:0,0:0:0:0:
89,273,96796,6,0,P|100:227|84:172,1,90
83,150,97265,2,0,L|141:94,1,60,8|0,0:0|0:0,0:0:0:0:
190,75,97734,2,0,P|199:110|183:152,1,60
164,198,98203,1,8,0:0:0:0:
219,243,98437,1,0,0:0:0:0:
288,223,98671,6,0,P|338:214|388:228,1,90
410,211,99140,2,0,L|403:146,1,60,8|0,0:0|0:0,0:0:0:0:
386,81,99609,1,0,0:0:0:0:
321,48,99843,1,0,0:0:0:0:
267,96,100078,2,0,P|264:145|249:176,1,60,8|0,0:0|0:0,0:0:0:0:
194,184,100546,6,0,P|186:212|187:242,1,60,0|0,0:0|0:0,0:0:0:0:
220,307,101015,2,0,L|156:333,1,60,8|0,0:0|0:0,0:0:0:0:
92,322,101484,2,0,P|98:258|73:194,1,120,0|8,0:0|0:0,0:0:0:0:
40,145,102187,1,0,0:0:0:0:
104,113,102421,6,0,P|161:120|211:94,1,90,0|0,0:0|0:0,0:0:0:0:
225,98,102890,2,0,L|242:169,1,60,8|0,0:0|0:0,0:0:0:0:
269,221,103359,2,0,B|310:188|343:235|408:202,1,120,0|8,0:0|0:0,0:0:0:0:
480,102,104296,6,0,B|378:111|378:111|395:74,1,120,0|8,0:0|0:0,0:0:0:0:
407,25,105000,1,0,0:0:0:0:
335,26,105234,2,0,L|251:35,1,60,0|0,0:0|0:0,0:0:0:0:
203,40,105703,1,8,0:0:0:0:
223,109,105937,1,0,0:0:0:0:
200,177,106171,6,0,B|178:245|178:245|167:229,1,90,0|0,0:0|0:0,0:0:0:0:
119,160,106796,1,0,0:0:0:0:
50,227,107109,2,0,P|19:286|41:351,1,120,0|2,0:0|3:0,0:0:0:0:
100,350,107812,1,2,3:0:0:0:
171,341,108046,6,0,P|193:321|221:311,1,60,4|0,1:0|0:0,0:0:0:0:
293,312,108515,2,0,P|320:322|343:342,1,60,8|0,0:0|0:0,0:0:0:0:
414,350,108984,2,0,L|432:229,1,120,0|8,0:0|0:0,0:0:0:0:
419,160,109687,1,0,0:0:0:0:
347,159,109921,6,0,P|286:161|247:117,2,120,0|8|0,0:0|0:0|0:0,0:0:0:0:
419,160,111093,2,0,L|422:244,1,60,0|8,0:0|0:0,0:0:0:0:
407,290,111562,1,0,0:0:0:0:
335,297,111796,6,0,B|256:257|188:339|89:270,1,240,0|0,0:0|0:0,0:0:0:0:
120,134,113203,2,0,P|155:153|175:178,1,60,8|0,0:0|0:0,0:0:0:0:
224,212,113671,6,0,B|261:182|301:222|355:196,1,120,0|8,0:0|0:0,0:0:0:0:
474,148,114609,2,0,L|496:219,2,60,0|0|8,0:0|0:0|0:0,0:0:0:0:
412,105,115312,1,0,0:0:0:0:
341,120,115546,6,0,P|305:129|261:119,1,60,0|0,0:0|0:0,0:0:0:0:
212,108,116015,2,0,L|207:187,1,60,8|0,0:0|0:0,0:0:0:0:
190,237,116484,2,0,P|124:229|66:263,1,120,0|8,0:0|0:0,0:0:0:0:
34,310,117187,1,0,0:0:0:0:
92,352,117421,6,0,P|158:360|216:326,1,120,0|8,0:0|0:0,0:0:0:0:
270,307,118125,2,0,L|295:362,2,60
236,242,118828,2,0,P|285:214|299:183,1,90,8|0,0:0|0:0,0:0:0:0:
312,152,119296,6,0,B|359:181|391:177,2,60,0|0|8,0:0|0:0|0:0,0:0:0:0:
245,124,120000,1,0,0:0:0:0:
183,160,120233,1,0,0:0:0:0:
116,132,120468,2,0,L|104:197,2,60,0|8|0,0:0|0:0|0:0,0:0:0:0:
132,60,121171,6,0,P|179:76|264:65,1,120,0|8,0:0|0:0,0:0:0:0:
380,57,122109,2,0,L|389:118,3,40,8|0|8|8,3:0|0:0|3:0|0:0,0:0:0:0:
396,168,122812,1,8,3:0:0:0:
256,192,123046,12,2,127381,0:0:0:0:
