osu file format v14

[General]
AudioFilename: audio.mp3
AudioLeadIn: 1500
PreviewTime: 50118
Countdown: 1
SampleSet: Normal
StackLeniency: 0.7
Mode: 0
LetterboxInBreaks: 0
WidescreenStoryboard: 0

[Editor]
Bookmarks: 13318,26118,38918,90118,102918
DistanceSpacing: 1.3
BeatDivisor: 4
GridSize: 4
TimelineZoom: 1.4

[Metadata]
Title:Backstreet
TitleUnicode:Backstreet
Artist:M2U
ArtistUnicode:M2U
Creator:SkyDevil
Version:Insane
Source:
Tags:musiq squaremusiq diversity
BeatmapID:1388600
BeatmapSetID:655233

[Difficulty]
HPDrainRate:6
CircleSize:4
OverallDifficulty:8.5
ApproachRate:8.5
SliderMultiplier:1.6
SliderTickRate:2

[Events]
//Background and Video events
0,0,"bg.jpg",0,0
//Break Periods
2,77518,89443
//Storyboard Layer 0 (Background)
//Storyboard Layer 1 (Fail)
//Storyboard Layer 2 (Pass)
//Storyboard Layer 3 (Foreground)
//Storyboard Sound Samples

[TimingPoints]
518,400,4,2,1,45,1,0
518,-133.333333333333,4,2,1,45,0,0
13318,-133.333333333333,4,1,1,60,0,0
14318,-133.333333333333,4,2,1,45,0,0
19118,-133.333333333333,4,1,1,60,0,0
20718,-133.333333333333,4,2,1,45,0,0
22918,-133.333333333333,4,1,1,60,0,0
27118,-133.333333333333,4,2,1,45,0,0
28718,-133.333333333333,4,1,1,60,0,0
30318,-133.333333333333,4,2,1,45,0,0
31518,-133.333333333333,4,1,1,45,0,0
31918,-133.333333333333,4,1,1,60,0,0
33518,-133.333333333333,4,2,1,45,0,0
35118,-133.333333333333,4,1,1,60,0,0
36718,-133.333333333333,4,1,1,40,0,0
50118,-50,4,1,1,90,0,0
50168,-50,4,1,1,5,0,0
50918,-100,4,1,1,90,0,0
51718,-100,4,1,0,100,0,1
77318,-133.333333333333,4,1,1,60,0,0
114118,-50,4,1,1,100,0,0
114168,-50,4,1,1,5,0,0
114918,-100,4,1,1,90,0,0
115718,-100,4,1,0,100,0,1
141318,-100,4,1,0,100,0,0

[Colours]
Combo1 : 130,0,0
Combo2 : 59,59,59
Combo3 : 192,192,192

[HitObjects]
68,56,518,6,0,B|76:100|76:100|108:120|108:120|120:176,1,120.000004577637,4|0,0:3|0:0,0:0:0:0:
56,292,1318,2,0,P|92:324|180:312,1,120.000004577637,8|0,0:0|0:0,0:0:0:0:
272,228,2118,1,0,0:0:0:0:
404,296,2518,1,0,0:0:0:0:
260,308,2918,2,0,L|208:188,1,120.000004577637,8|0,0:0|0:0,0:0:0:0:
384,80,3718,6,0,P|408:132|380:184,1,120.000004577637,4|0,0:3|0:0,0:0:0:0:
224,128,4518,2,0,B|204:216|204:216|216:248,1,120.000004577637,8|0,0:0|0:0,0:0:0:0:
392,312,5318,1,0,0:0:0:0:
232,372,5718,1,0,0:0:0:0:
268,200,6118,2,0,P|200:180|148:224,1,120.000004577637,8|0,0:0|0:0,0:0:0:0:
60,68,6918,6,0,L|188:32,1,120.000004577637,4|0,0:3|0:0,0:0:0:0:
368,72,7718,2,0,B|388:120|376:152|376:152|336:180,1,120.000004577637,8|0,0:0|0:0,0:0:0:0:
264,212,8318,1,0,0:0:0:0:
180,244,8518,1,0,0:0:0:0:
400,288,8918,1,0,0:0:0:0:
200,168,9318,2,0,L|72:152,1,120.000004577637,8|0,0:0|0:0,0:0:0:0:
32,80,9918,1,0,0:0:0:0:
32,224,10118,6,0,P|48:268|136:288,1,120.000004577637,4|0,0:3|0:0,0:0:0:0:
280,192,10918,2,0,L|412:192,1,120.000004577637,8|0,0:0|0:0,0:0:0:0:
484,256,11518,1,0,0:0:0:0:
496,112,11718,2,0,P|444:76|384:88,1,120.000004577637
256,240,12518,2,0,P|176:276|128:252,1,120.000004577637,8|0,0:0|0:0,0:0:0:0:
100,188,13118,1,0,0:0:0:0:
60,104,13318,6,0,L|200:88,1,120.000004577637,4|0,1:2|1:0,0:0:0:0:
448,200,14118,1,2,0:3:0:0:
448,200,14518,6,0,L|368:204,1,60.0000022888184
300,288,14918,2,0,P|264:308|184:288,1,120.000004577637
148,84,15718,2,0,B|212:100|212:100|232:116|236:152,1,120.000004577637,8|0,0:0|0:0,0:0:0:0:
152,200,16318,1,0,0:0:0:0:
68,252,16518,6,0,P|80:308|140:344,1,120.000004577637
336,260,17318,2,0,B|352:224|340:196|340:196|328:172|356:128,1,120.000004577637,8|0,0:0|0:0,0:0:0:0:
416,64,17918,1,8,0:3:0:0:
256,128,18118,6,0,P|204:160|144:136,1,120.000004577637
60,304,18918,2,0,L|128:284,1,60.0000022888184,8|0,0:0|0:0,0:0:0:0:
300,316,19318,5,0,0:0:0:0:
156,212,19518,1,0,0:0:0:0:
308,232,19718,2,0,L|448:200,1,120.000004577637
112,88,20518,1,2,0:3:0:0:
112,88,20918,6,0,L|88:160,1,60.0000022888184
56,240,21318,2,0,P|104:288|160:272,1,120.000004577637
392,108,22118,2,0,L|268:124,1,120.000004577637,8|2,0:0|0:0,0:0:0:0:
392,312,22918,5,0,0:0:0:0:
464,104,23318,1,0,0:0:0:0:
252,44,23718,1,0,0:0:0:0:
184,256,24118,1,0,0:0:0:0:
392,316,24518,6,0,L|460:344,1,60.0000022888184
324,204,24918,2,0,L|248:216,1,60.0000022888184
96,148,25318,2,0,L|172:124,1,60.0000022888184
228,280,25718,1,0,0:0:0:0:
140,216,25918,1,0,0:0:0:0:
268,128,26118,6,0,P|328:104|376:124,1,120.000004577637,4|2,0:0|0:2,0:0:0:0:
200,328,26918,1,0,0:0:0:0:
200,328,27318,6,0,L|124:308,1,60.0000022888184,2|0,0:0|0:0,0:0:0:0:
72,204,27718,2,0,P|52:144|68:92,1,120.000004577637,0|2,0:0|0:0,0:0:0:0:
400,40,28518,1,8,0:0:0:0:
440,132,28718,1,0,0:0:0:0:
388,224,28918,2,0,L|376:288,1,60.0000022888184,2|0,0:2|0:0,0:0:0:0:
260,308,29318,6,0,L|284:184,1,120.000004577637,0|2,0:0|0:2,0:0:0:0:
40,32,30118,1,0,0:0:0:0:
40,32,30518,6,0,L|16:100,1,60.0000022888184,2|0,0:2|0:0,0:0:0:0:
12,208,30918,2,0,P|56:256|116:244,1,120.000004577637,0|2,0:0|0:2,0:0:0:0:
240,188,31518,1,0,0:0:0:0:
240,188,31618,1,0,0:0:0:0:
240,188,31718,2,0,P|268:168|296:164,1,60.0000022888184
396,244,32118,2,0,L|432:248,4,30.0000011444092,2|0|0|0|0,0:2|0:0|0:0|0:0|0:0,0:0:0:0:
128,344,32918,5,0,0:0:0:0:
416,164,33318,1,0,0:0:0:0:
412,164,33718,6,0,L|336:152,1,60.0000022888184,2|0,0:0|0:0,0:0:0:0:
212,136,34118,2,0,P|156:124|84:144,1,120.000004577637,0|2,0:0|0:0,0:0:0:0:
300,340,34918,1,0,0:0:0:0:
384,252,35118,2,0,P|400:224|396:184,1,60.0000022888184,0|2,0:0|0:2,0:0:0:0:
268,112,35518,1,0,0:0:0:0:
328,200,35718,6,0,L|444:124,1,120.000004577637,0|2,0:0|0:2,0:0:0:0:
120,80,36518,1,0,0:0:0:0:
32,140,36718,2,0,P|20:180|32:220,1,60.0000022888184
176,304,37118,2,0,L|228:312,2,30.0000011444092
112,192,37518,1,0,0:0:0:0:
64,312,37718,1,0,0:0:0:0:
228,208,37918,1,0,0:0:0:0:
240,204,38018,1,0,0:0:0:0:
252,200,38118,1,0,0:0:0:0:
264,196,38218,1,0,0:0:0:0:
276,192,38318,1,0,0:0:0:0:
288,188,38418,1,0,0:0:0:0:
300,184,38518,1,0,0:0:0:0:
312,180,38618,1,0,0:0:0:0:
324,176,38718,1,0,0:0:0:0:
336,172,38818,1,0,0:0:0:0:
348,168,38918,6,0,L|376:300,1,120.000004577637,4|8,0:0|0:0,0:0:0:0:
76,196,39718,2,0,P|64:148|72:96,1,90.0000034332277,8|0,0:0|0:0,0:0:0:0:
80,100,40118,2,0,L|152:88,1,60.0000022888184,8|0,0:0|0:0,0:0:0:0:
264,120,40518,5,8,0:0:0:0:
80,340,40918,1,8,0:0:0:0:
344,60,41318,2,0,P|388:48|432:72,1,90.0000034332277,8|0,0:0|0:0,0:0:0:0:
440,84,41718,2,0,L|444:152,1,60.0000022888184,8|0,0:0|0:0,0:0:0:0:
388,272,42118,5,8,0:0:0:0:
216,40,42518,1,8,0:0:0:0:
108,304,42918,2,0,P|144:336|192:332,1,90.0000034332277,8|0,0:0|0:0,0:0:0:0:
200,328,43318,2,0,P|228:324|268:328,1,60.0000022888184,8|0,0:0|0:0,0:0:0:0:
400,360,43718,5,8,0:0:0:0:
352,36,44118,1,8,0:0:0:0:
200,56,44318,1,0,0:0:0:0:
180,60,44418,1,0,0:0:0:0:
160,64,44518,2,0,L|140:136,1,60.0000022888184,8|0,0:0|0:0,0:0:0:0:
92,240,44918,1,8,0:0:0:0:
96,260,45018,1,0,0:0:0:0:
100,280,45118,1,0,0:0:0:0:
104,300,45218,1,0,0:0:0:0:
108,320,45318,5,8,0:0:0:0:
428,224,45718,1,8,0:0:0:0:
60,168,46118,1,8,0:0:0:0:
424,316,46518,1,8,0:0:0:0:
104,72,46918,1,8,0:0:0:0:
308,336,47318,1,8,0:0:0:0:
416,28,47718,2,0,L|328:40,1,60.0000022888184,8|0,0:0|0:0,0:0:0:0:
204,120,48118,2,0,L|116:132,1,60.0000022888184,8|0,0:0|0:0,0:0:0:0:
32,248,48518,5,8,0:0:0:0:
240,320,48718,1,0,0:0:0:0:
116,208,48918,1,8,0:0:0:0:
68,344,49118,1,0,0:0:0:0:
220,212,49318,1,8,0:0:0:0:
232,200,49418,1,0,0:0:0:0:
244,188,49518,1,0,0:0:0:0:
256,176,49618,1,0,0:0:0:0:
268,164,49718,1,8,0:0:0:0:
280,152,49818,1,0,0:0:0:0:
292,140,49918,1,0,0:0:0:0:
304,128,50018,1,0,0:0:0:0:
316,116,50118,6,0,L|356:76,12,40,4|0|0|0|0|0|0|0|0|0|0|0|0,0:2|0:0|0:0|0:0|0:0|0:0|0:0|0:0|0:0|0:0|0:0|0:0|0:0,0:0:0:0:
168,144,50918,1,0,0:0:0:0:
368,228,51118,1,0,0:0:0:0:
252,320,51318,2,0,L|120:304,1,120,4|0,0:2|0:2,0:0:0:0:
124,308,51718,6,0,P|92:256|120:156,1,160
392,200,52318,1,0,0:0:0:0:
192,116,52518,1,8,0:2:0:0:
488,220,52918,1,0,0:0:0:0:
124,60,53318,1,0,0:0:0:0:
260,252,53518,1,0,0:0:0:0:
316,64,53718,1,0,0:0:0:0:
316,64,53818,1,0,0:0:0:0:
316,64,53918,1,0,0:0:0:0:
92,180,54118,1,8,0:2:0:0:
368,224,54318,6,0,L|464:232,1,80
148,104,54718,2,0,L|52:96,1,80
368,120,55318,5,0,0:0:0:0:
256,300,55518,1,0,0:0:0:0:
192,124,55718,1,8,0:2:0:0:
336,348,56118,1,0,0:0:0:0:
152,48,56518,1,0,0:0:0:0:
152,48,56618,1,0,0:0:0:0:
152,48,56718,1,0,0:0:0:0:
72,244,56918,1,0,0:0:0:0:
80,272,57018,1,0,0:0:0:0:
96,296,57118,1,0,0:0:0:0:
124,308,57218,1,0,0:0:0:0:
152,316,57318,1,8,0:2:0:0:
364,264,57518,6,0,L|452:292,1,80
236,116,57918,2,0,L|160:91,1,80
456,152,58518,5,0,0:0:0:0:
252,296,58718,1,0,0:0:0:0:
280,72,58918,1,8,0:2:0:0:
308,364,59318,1,0,0:0:0:0:
200,16,59718,1,0,0:0:0:0:
352,196,59918,1,0,0:0:0:0:
128,148,60118,1,0,0:0:0:0:
128,148,60218,1,0,0:0:0:0:
128,148,60318,1,0,0:0:0:0:
344,88,60518,1,8,0:2:0:0:
388,276,60718,6,0,L|368:360,1,80
164,136,61118,2,0,L|184:52,1,80
440,204,61718,5,0,0:0:0:0:
260,312,61918,1,0,0:0:0:0:
364,112,62118,1,8,0:2:0:0:
172,344,62518,2,0,L|36:320,1,120
20,332,62918,6,0,L|52:236,1,80
152,52,63318,2,0,L|232:48,1,80
420,164,63718,1,2,0:2:0:0:
428,184,63818,1,0,0:0:0:0:
436,204,63918,1,2,0:2:0:0:
444,224,64018,1,0,0:0:0:0:
452,244,64118,1,2,0:2:0:0:
236,356,64318,1,2,0:2:0:0:
320,68,64518,5,4,0:0:0:0:
320,68,64918,1,0,0:0:0:0:
124,160,65118,1,0,0:0:0:0:
400,136,65318,1,8,0:2:0:0:
40,128,65718,1,0,0:0:0:0:
472,180,66118,1,0,0:0:0:0:
240,296,66318,1,0,0:0:0:0:
320,96,66518,1,0,0:0:0:0:
320,96,66618,1,0,0:0:0:0:
320,96,66718,1,0,0:0:0:0:
396,332,66918,1,8,0:2:0:0:
156,320,67118,6,0,L|124:232,1,80
356,64,67518,2,0,L|388:152,1,80
32,72,68118,5,0,0:0:0:0:
208,264,68318,1,0,0:0:0:0:
152,80,68518,1,8,0:2:0:0:
112,356,68918,1,0,0:0:0:0:
260,32,69318,1,0,0:0:0:0:
264,36,69418,1,0,0:0:0:0:
264,36,69518,1,0,0:0:0:0:
312,192,69718,1,0,0:0:0:0:
316,216,69818,1,0,0:0:0:0:
320,244,69918,1,0,0:0:0:0:
316,272,70018,1,0,0:0:0:0:
312,296,70118,1,8,0:2:0:0:
104,300,70318,6,0,L|12:316,1,80
196,64,70718,2,0,L|104:40,1,80
352,340,71318,5,0,0:0:0:0:
464,140,71518,1,0,0:0:0:0:
296,256,71718,1,8,0:2:0:0:
468,40,72118,1,0,0:0:0:0:
204,320,72518,1,0,0:0:0:0:
348,136,72718,1,0,0:0:0:0:
156,208,72918,1,0,0:0:0:0:
156,208,73018,1,0,0:0:0:0:
156,208,73118,1,0,0:0:0:0:
404,240,73318,1,8,0:2:0:0:
168,104,73518,6,0,P|132:88|84:96,1,80
256,296,73918,2,0,P|292:312|340:304,1,80
24,40,74518,6,0,P|8:104|64:184,1,160
296,80,75118,2,0,P|248:60|152:96,1,160
144,116,75618,1,0,0:0:0:0:
136,136,75718,1,0,0:0:0:0:
132,160,75818,1,0,0:0:0:0:
136,184,75918,1,0,0:0:0:0:
148,204,76018,1,0,0:0:0:0:
164,220,76118,1,0,0:0:0:0:
440,244,76318,5,0,0:0:0:0:
412,240,76418,1,0,0:0:0:0:
384,248,76518,2,0,P|336:260|304:284,1,80,8|0,0:2|0:0,0:0:0:0:
32,308,76918,2,0,P|76:336|124:332,1,80
232,108,77318,5,4,0:0:0:0:
132,96,90118,6,0,L|92:216,1,120.000004577637,4|2,0:0|0:2,0:0:0:0:
356,340,90918,2,0,L|396:216,1,120.000004577637,8|2,0:2|0:2,0:0:0:0:
72,28,91718,5,0,0:0:0:0:
460,160,92118,1,2,0:2:0:0:
460,160,92218,1,0,0:0:0:0:
460,160,92318,1,0,0:0:0:0:
376,264,92518,2,0,P|352:288|320:312,1,60.0000022888184,8|0,0:2|0:0,0:0:0:0:
112,284,92918,2,0,P|140:264|180:252,1,60.0000022888184,2|0,0:2|0:0,0:0:0:0:
324,160,93318,6,0,L|444:132,1,120.000004577637,0|2,0:0|0:2,0:0:0:0:
72,96,94118,2,0,P|40:140|48:208,1,120.000004577637,8|2,0:2|0:2,0:0:0:0:
412,316,94918,5,0,0:0:0:0:
212,56,95318,1,2,0:2:0:0:
152,188,95518,1,0,0:0:0:0:
152,188,95618,1,0,0:0:0:0:
152,188,95718,2,0,P|188:216|224:224,1,60.0000022888184,8|0,0:2|0:0,0:0:0:0:
324,156,96118,2,0,L|356:148,3,30.0000011444092,2|0|0|0,0:2|0:0|0:0|0:0,0:0:0:0:
384,136,96518,6,0,P|424:180|412:248,1,120.000004577637,4|2,0:0|0:2,0:0:0:0:
64,152,97318,2,0,P|60:100|108:48,1,120.000004577637,8|2,0:2|0:2,0:0:0:0:
420,164,98118,5,0,0:0:0:0:
100,304,98518,1,2,0:2:0:0:
100,304,98618,1,0,0:0:0:0:
100,304,98718,1,0,0:0:0:0:
176,148,98918,2,0,L|248:120,1,60.0000022888184,8|0,0:2|0:0,0:0:0:0:
384,264,99318,2,0,L|312:292,1,60.0000022888184,2|0,0:2|0:0,0:0:0:0:
76,188,99718,6,0,P|60:136|92:76,1,120.000004577637,0|2,0:0|0:2,0:0:0:0:
372,100,100518,2,0,P|384:140|384:168,1,60.0000022888184,8|0,0:2|0:0,0:0:0:0:
204,120,100918,1,2,0:2:0:0:
344,28,101118,1,0,0:0:0:0:
344,28,101218,1,0,0:0:0:0:
344,28,101318,1,0,0:0:0:0:
200,192,101518,1,0,0:0:0:0:
252,36,101718,1,2,0:2:0:0:
256,260,101918,1,0,0:0:0:0:
240,272,102018,1,0,0:0:0:0:
220,284,102118,1,8,0:2:0:0:
200,292,102218,1,0,0:0:0:0:
180,296,102318,1,0,0:0:0:0:
160,296,102418,1,0,0:0:0:0:
140,292,102518,1,2,0:2:0:0:
120,284,102618,1,0,0:0:0:0:
104,272,102718,1,0,0:0:0:0:
88,256,102818,1,0,0:0:0:0:
72,240,102918,6,0,P|48:172|56:116,1,120.000004577637,0|8,0:0|0:0,0:0:0:0:
388,48,103718,2,0,L|400:144,1,90.0000034332277,8|0,0:0|0:0,0:0:0:0:
408,160,104118,2,0,P|416:208|408:244,1,60.0000022888184,8|0,0:0|0:0,0:0:0:0:
248,344,104518,5,8,0:0:0:0:
44,40,104918,1,8,0:0:0:0:
416,304,105318,2,0,L|312:292,1,90.0000034332277,8|0,0:0|0:0,0:0:0:0:
300,272,105718,2,0,P|268:256|228:256,1,60.0000022888184,8|0,0:0|0:0,0:0:0:0:
72,344,106118,5,8,0:0:0:0:
368,48,106518,1,8,0:0:0:0:
36,120,106918,2,0,P|64:144|116:144,1,90.0000034332277,8|0,0:0|0:0,0:0:0:0:
136,136,107318,2,0,P|168:124|220:136,1,60.0000022888184,8|0,0:0|0:0,0:0:0:0:
376,200,107718,5,8,0:0:0:0:
72,356,108118,1,8,0:0:0:0:
36,224,108318,1,0,0:0:0:0:
36,224,108418,1,0,0:0:0:0:
36,224,108518,2,0,P|36:168|52:148,1,60.0000022888184,8|0,0:0|0:0,0:0:0:0:
156,64,108918,1,8,0:0:0:0:
176,60,109018,1,0,0:0:0:0:
196,56,109118,1,0,0:0:0:0:
216,52,109218,1,0,0:0:0:0:
236,48,109318,5,12,0:0:0:0:
448,316,109718,1,8,0:0:0:0:
84,204,110118,1,8,0:0:0:0:
416,48,110518,1,8,0:0:0:0:
300,360,110918,1,8,0:0:0:0:
112,48,111318,1,8,0:0:0:0:
416,224,111718,2,0,L|332:236,1,60.0000022888184,8|0,0:0|0:0,0:0:0:0:
96,276,112118,2,0,L|180:288,1,60.0000022888184,8|0,0:0|0:0,0:0:0:0:
344,304,112518,5,8,0:0:0:0:
496,232,112718,1,0,0:0:0:0:
320,220,112918,1,8,0:0:0:0:
476,312,113118,1,0,0:0:0:0:
272,352,113318,1,8,0:0:0:0:
252,356,113418,1,0,0:0:0:0:
232,360,113518,1,0,0:0:0:0:
212,360,113618,1,0,0:0:0:0:
192,356,113718,1,8,0:0:0:0:
172,352,113818,1,0,0:0:0:0:
152,344,113918,1,0,0:0:0:0:
136,332,114018,1,0,0:0:0:0:
120,316,114118,6,0,L|88:264,12,40,4|0|0|0|0|0|0|0|0|0|0|0|0,0:2|0:0|0:0|0:0|0:0|0:0|0:0|0:0|0:0|0:0|0:0|0:0|0:0,0:0:0:0:
40,184,114918,1,0,0:0:0:0:
32,164,115018,1,0,0:0:0:0:
28,144,115118,1,0,0:0:0:0:
32,124,115218,1,0,0:0:0:0:
40,100,115318,1,4,0:0:0:0:
472,76,115718,5,4,0:0:0:0:
472,76,116118,1,0,0:0:0:0:
152,160,116318,1,0,0:0:0:0:
388,56,116518,1,8,0:2:0:0:
52,148,116918,1,0,0:0:0:0:
492,168,117318,1,0,0:0:0:0:
212,280,117518,1,0,0:0:0:0:
404,144,117718,1,0,0:0:0:0:
404,144,117818,1,0,0:0:0:0:
404,144,117918,1,0,0:0:0:0:
312,324,118118,1,8,0:2:0:0:
492,168,118318,6,0,P|492:124|476:88,1,80
208,240,118718,2,0,P|208:284|224:320,1,80
256,24,119318,5,0,0:0:0:0:
68,244,119518,1,0,0:0:0:0:
176,48,119718,1,8,0:2:0:0:
80,376,120118,1,0,0:0:0:0:
52,40,120518,1,0,0:0:0:0:
52,40,120618,1,0,0:0:0:0:
52,40,120718,1,0,0:0:0:0:
240,180,120918,1,0,0:0:0:0:
264,184,121018,1,0,0:0:0:0:
288,184,121118,1,0,0:0:0:0:
312,180,121218,1,0,0:0:0:0:
332,168,121318,1,8,0:2:0:0:
184,76,121518,6,0,P|140:96|104:136,1,80
420,124,121918,2,0,P|464:104|500:64,1,80
44,192,122518,5,0,0:0:0:0:
320,316,122718,1,0,0:0:0:0:
144,156,122918,1,8,0:2:0:0:
436,352,123318,1,0,0:0:0:0:
0,88,123718,1,0,0:0:0:0:
124,260,123918,1,0,0:0:0:0:
152,36,124118,1,0,0:0:0:0:
152,36,124218,1,0,0:0:0:0:
152,36,124318,1,0,0:0:0:0:
8,244,124518,1,8,0:2:0:0:
204,324,124718,6,0,L|312:340,1,80
388,92,125118,2,0,L|496:108,1,80
72,120,125718,5,0,0:0:0:0:
328,196,125918,1,0,0:0:0:0:
144,44,126118,1,8,0:2:0:0:
488,200,126518,2,0,P|472:256|416:320,1,120
416,312,126918,6,0,P|372:308|328:320,1,80
292,64,127318,2,0,P|253:72|213:67,1,80
48,264,127718,1,2,0:2:0:0:
72,260,127818,1,0,0:0:0:0:
96,260,127918,1,2,0:2:0:0:
120,264,128018,1,0,0:0:0:0:
140,276,128118,2,0,P|172:296|228:300,1,80,2|2,0:2|0:2,0:0:0:0:
460,96,128518,5,4,0:0:0:0:
460,96,128918,1,0,0:0:0:0:
204,224,129118,1,0,0:0:0:0:
384,40,129318,1,8,0:2:0:0:
60,276,129718,1,0,0:0:0:0:
504,152,130118,1,0,0:0:0:0:
232,112,130318,1,0,0:0:0:0:
288,324,130518,1,0,0:0:0:0:
288,324,130618,1,0,0:0:0:0:
288,324,130718,1,0,0:0:0:0:
300,56,130918,1,8,0:2:0:0:
96,188,131118,6,0,L|132:268,1,80
412,248,131518,2,0,L|448:328,1,80
72,60,132118,5,0,0:0:0:0:
244,280,132318,1,0,0:0:0:0:
204,84,132518,1,8,0:2:0:0:
32,360,132918,1,0,0:0:0:0:
312,36,133318,1,0,0:0:0:0:
312,36,133418,1,0,0:0:0:0:
312,36,133518,1,0,0:0:0:0:
424,224,133718,1,0,0:0:0:0:
428,248,133818,1,0,0:0:0:0:
432,272,133918,1,0,0:0:0:0:
428,296,134018,1,0,0:0:0:0:
416,320,134118,1,8,0:2:0:0:
204,352,134318,6,0,P|144:348|100:316,1,80
300,124,134718,2,0,P|360:128|404:160,1,80
8,188,135318,5,0,0:0:0:0:
260,56,135518,1,0,0:0:0:0:
104,212,135718,1,8,0:2:0:0:
492,84,136118,1,0,0:0:0:0:
32,104,136518,1,0,0:0:0:0:
228,232,136718,1,0,0:0:0:0:
108,36,136918,1,0,0:0:0:0:
108,36,137018,1,0,0:0:0:0:
108,36,137118,1,0,0:0:0:0:
84,332,137318,1,8,0:2:0:0:
184,104,137518,6,0,L|280:88,1,80
464,264,137918,2,0,L|368:280,1,80
88,304,138518,5,0,0:0:0:0:
88,304,138918,1,0,0:0:0:0:
384,276,139118,2,0,P|404:200|356:140,1,160
336,128,139618,1,0,0:0:0:0:
312,116,139718,1,0,0:0:0:0:
288,108,139818,1,0,0:0:0:0:
264,108,139918,1,0,0:0:0:0:
240,112,140018,1,0,0:0:0:0:
216,120,140118,1,0,0:0:0:0:
312,344,140318,5,0,0:0:0:0:
336,348,140418,1,0,0:0:0:0:
360,348,140518,2,0,L|468:328,1,80,8|0,0:2|0:0,0:0:0:0:
180,240,140918,2,0,L|72:260,1,80
376,204,141318,1,4,0:0:0:0:
