osu file format v14

[General]
AudioFilename: audio.mp3
AudioLeadIn: 0
PreviewTime: 20000
Countdown: 1
SampleSet: None
StackLeniency: 0.7
Mode: 0
LetterboxInBreaks: 0
WidescreenStoryboard: 0

[Editor]
DistanceSpacing: 0.8
BeatDivisor: 4
GridSize: 16
TimelineZoom: 1

[Metadata]
Title:Back of Beyond
TitleUnicode:Back of Beyond
Artist:M2U
ArtistUnicode:M2U
Creator:Frankie0225
Version:Normal
Source:EZ2DJ
Tags:EZ2DJ (7th)
BeatmapID:1710896
BeatmapSetID:815785

[Difficulty]
HPDrainRate:5
CircleSize:5
OverallDifficulty:5
ApproachRate:5
SliderMultiplier:1.4
SliderTickRate:1

[Events]
//Background and Video events
Video,2024,"[EZ2DJ] M2U - The Back of Beyond BGA (HD).mp4"
0,0,"title.png",0,0
//Break Periods
//Storyboard Layer 0 (Background)
//Storyboard Layer 1 (Fail)
//Storyboard Layer 2 (Pass)
//Storyboard Layer 3 (Foreground)
//Storyboard Sound Samples

[TimingPoints]
0,500,4,2,0,100,1,0

[Colours]
Combo1 : 255,192,0
Combo2 : 62,223,223
Combo3 : 18,124,255
Combo4 : 242,24,57

[HitObjects]
81,205,4000,5,0,0:0:0:0:
162,60,5250,1,0,0:0:0:0:
222,109,5625,1,0,0:0:0:0:
278,156,6000,1,0,0:0:0:0:
341,218,7250,5,0,0:0:0:0:
391,272,7625,1,0,0:0:0:0:
441,322,8000,1,0,0:0:0:0:
336,259,10000,5,0,0:0:0:0:
278,308,11000,1,0,0:0:0:0:
242,353,11500,1,0,0:0:0:0:
223,352,12000,1,0,0:0:0:0:
38,280,13250,5,0,0:0:0:0:
65,226,13625,1,0,0:0:0:0:
95,173,14000,1,0,0:0:0:0:
166,240,15250,5,0,0:0:0:0:
193,186,15625,1,0,0:0:0:0:
234,291,16000,1,0,0:0:0:0:
229,288,17250,5,0,0:0:0:0:
274,249,17500,1,0,0:0:0:0:
320,211,17750,1,0,0:0:0:0:
336,212,18000,1,0,0:0:0:0:
406,98,18750,5,0,0:0:0:0:
452,150,19500,1,0,0:0:0:0:
408,258,20000,5,0,0:0:0:0:
365,208,20500,1,0,0:0:0:0:
314,155,20750,1,0,0:0:0:0:
269,213,21000,1,0,0:0:0:0:
204,216,21375,2,0,L|168:171,1,35
154,221,21750,1,0,0:0:0:0:
107,285,22000,1,0,0:0:0:0:
70,242,24000,5,0,0:0:0:0:
107,184,24500,1,0,0:0:0:0:
151,103,24750,1,0,0:0:0:0:
185,158,25000,1,0,0:0:0:0:
231,114,25375,2,0,L|274:83,1,35
295,155,25750,1,0,0:0:0:0:
338,240,26000,1,0,0:0:0:0:
196,290,27250,6,0,L|390:269,1,175
437,236,28000,5,0,0:0:0:0:
385,171,28500,1,0,0:0:0:0:
340,114,28750,1,0,0:0:0:0:
298,174,29000,1,0,0:0:0:0:
239,177,29375,2,0,L|199:141,1,35
189,183,29750,1,0,0:0:0:0:
156,245,30000,1,0,0:0:0:0:
122,246,30250,1,0,0:0:0:0:
106,219,30375,1,0,0:0:0:0:
86,188,30500,1,0,0:0:0:0:
47,328,30750,2,0,L|353:324,1,280
388,242,32000,5,0,0:0:0:0:
356,281,32250,1,0,0:0:0:0:
318,236,32500,1,0,0:0:0:0:
276,147,32750,1,0,0:0:0:0:
241,196,33000,1,0,0:0:0:0:
198,243,33250,2,0,L|146:199,1,35
155,289,33500,1,0,0:0:0:0:
113,332,33750,1,0,0:0:0:0:
68,288,34000,5,0,0:0:0:0:
111,231,34375,1,0,0:0:0:0:
187,236,34750,2,0,L|477:235,1,280
408,258,36000,5,0,0:0:0:0:
365,208,36500,1,0,0:0:0:0:
314,155,36750,1,0,0:0:0:0:
269,213,37000,1,0,0:0:0:0:
204,216,37375,2,0,L|168:171,1,35
154,221,37750,1,0,0:0:0:0:
107,285,38000,1,0,0:0:0:0:
70,242,40000,5,0,0:0:0:0:
107,184,40500,1,0,0:0:0:0:
151,103,40750,1,0,0:0:0:0:
185,158,41000,1,0,0:0:0:0:
231,114,41375,2,0,L|274:83,1,35
295,155,41750,1,0,0:0:0:0:
338,240,42000,1,0,0:0:0:0:
432,133,42250,6,0,P|350:88|224:85,1,210
167,110,43250,2,0,P|92:132|35:224,1,175
63,280,44000,5,0,0:0:0:0:
159,284,44250,2,0,L|221:221,1,70
235,299,44625,2,0,L|292:237,1,70
309,219,45000,1,0,0:0:0:0:
330,217,45250,1,0,0:0:0:0:
356,197,45375,1,0,0:0:0:0:
379,217,45500,1,0,0:0:0:0:
416,279,45750,1,0,0:0:0:0:
448,210,46000,5,0,0:0:0:0:
437,191,46125,1,0,0:0:0:0:
421,164,46250,1,0,0:0:0:0:
409,145,46375,1,0,0:0:0:0:
397,118,46500,1,0,0:0:0:0:
348,175,46750,2,0,B|297:158|260:211|284:284|356:327|439:225,1,280
388,242,48000,5,0,0:0:0:0:
356,281,48250,1,0,0:0:0:0:
318,236,48500,1,0,0:0:0:0:
276,147,48750,1,0,0:0:0:0:
241,196,49000,1,0,0:0:0:0:
198,243,49250,2,0,L|146:199,1,35
155,289,49500,1,0,0:0:0:0:
113,332,49750,1,0,0:0:0:0:
68,288,50000,5,0,0:0:0:0:
111,231,50375,1,0,0:0:0:0:
187,236,50750,2,0,L|477:235,1,280
447,179,52000,5,0,0:0:0:0:
391,184,52750,2,0,L|316:125,1,70
312,199,53250,2,0,L|274:162,1,35
240,219,53500,1,0,0:0:0:0:
200,174,53750,1,0,0:0:0:0:
131,123,54375,2,0,L|172:89,1,35
213,139,54750,1,0,0:0:0:0:
259,188,55000,1,0,0:0:0:0:
428,140,56000,5,0,0:0:0:0:
358,141,56750,1,0,0:0:0:0:
341,141,56875,1,0,0:0:0:0:
327,141,57000,1,0,0:0:0:0:
277,143,57250,1,0,0:0:0:0:
255,166,57500,1,0,0:0:0:0:
232,192,57750,1,0,0:0:0:0:
215,163,58000,1,0,0:0:0:0:
177,211,58375,1,0,0:0:0:0:
145,259,58750,1,0,0:0:0:0:
63,126,60000,5,0,0:0:0:0:
136,127,61000,1,0,0:0:0:0:
155,152,61250,1,0,0:0:0:0:
175,128,61500,1,0,0:0:0:0:
197,107,61750,1,0,0:0:0:0:
218,86,62000,1,0,0:0:0:0:
239,163,62250,1,0,0:0:0:0:
278,194,62500,2,0,L|304:223,1,35
360,214,62750,1,0,0:0:0:0:
405,249,63250,1,0,0:0:0:0:
435,209,63500,1,0,0:0:0:0:
466,168,63750,1,0,0:0:0:0:
443,118,64000,5,0,0:0:0:0:
384,118,64250,2,0,L|362:89,1,35
338,168,64500,1,0,0:0:0:0:
300,122,64750,1,0,0:0:0:0:
293,233,65000,1,0,0:0:0:0:
260,179,65250,1,0,0:0:0:0:
248,329,65500,1,0,0:0:0:0:
204,283,65750,1,0,0:0:0:0:
161,236,66000,2,0,B|68:242|31:191|28:117|46:57|114:34|187:33|266:60|339:59,1,490
408,258,68000,5,0,0:0:0:0:
365,208,68500,1,0,0:0:0:0:
314,155,68750,1,0,0:0:0:0:
269,213,69000,1,0,0:0:0:0:
204,216,69375,2,0,L|168:171,1,35
154,221,69750,1,0,0:0:0:0:
107,285,70000,1,0,0:0:0:0:
70,242,72000,5,0,0:0:0:0:
107,184,72500,1,0,0:0:0:0:
151,103,72750,1,0,0:0:0:0:
185,158,73000,1,0,0:0:0:0:
231,114,73375,2,0,L|274:83,1,35
295,155,73750,1,0,0:0:0:0:
338,240,74000,1,0,0:0:0:0:
196,290,75250,6,0,L|390:269,1,175
437,236,76000,5,0,0:0:0:0:
385,171,76500,1,0,0:0:0:0:
340,114,76750,1,0,0:0:0:0:
298,174,77000,1,0,0:0:0:0:
239,177,77375,2,0,L|199:141,1,35
189,183,77750,1,0,0:0:0:0:
156,245,78000,1,0,0:0:0:0:
122,246,78250,1,0,0:0:0:0:
106,219,78375,1,0,0:0:0:0:
86,188,78500,1,0,0:0:0:0:
47,328,78750,2,0,L|353:324,1,280
388,242,80000,5,0,0:0:0:0:
356,281,80250,1,0,0:0:0:0:
318,236,80500,1,0,0:0:0:0:
276,147,80750,1,0,0:0:0:0:
241,196,81000,1,0,0:0:0:0:
198,243,81250,2,0,L|146:199,1,35
155,289,81500,1,0,0:0:0:0:
113,332,81750,1,0,0:0:0:0:
68,288,82000,5,0,0:0:0:0:
111,231,82375,1,0,0:0:0:0:
187,236,82750,2,0,L|477:235,1,280
408,258,84000,5,0,0:0:0:0:
365,208,84500,1,0,0:0:0:0:
314,155,84750,1,0,0:0:0:0:
269,213,85000,1,0,0:0:0:0:
204,216,85375,2,0,L|168:171,1,35
154,221,85750,1,0,0:0:0:0:
107,285,86000,1,0,0:0:0:0:
70,242,88000,5,0,0:0:0:0:
107,184,88500,1,0,0:0:0:0:
151,103,88750,1,0,0:0:0:0:
185,158,89000,1,0,0:0:0:0:
231,114,89375,2,0,L|274:83,1,35
295,155,89750,1,0,0:0:0:0:
338,240,90000,1,0,0:0:0:0:
432,133,90250,6,0,P|350:88|224:85,1,210
167,110,91250,2,0,P|92:132|35:224,1,175
63,280,92000,5,0,0:0:0:0:
159,284,92250,2,0,L|221:221,1,70
235,299,92625,2,0,L|292:237,1,70
309,219,93000,1,0,0:0:0:0:
330,217,93250,1,0,0:0:0:0:
356,197,93375,1,0,0:0:0:0:
379,217,93500,1,0,0:0:0:0:
416,279,93750,1,0,0:0:0:0:
448,210,94000,5,0,0:0:0:0:
437,191,94125,1,0,0:0:0:0:
421,164,94250,1,0,0:0:0:0:
409,145,94375,1,0,0:0:0:0:
397,118,94500,1,0,0:0:0:0:
348,175,94750,2,0,B|297:158|260:211|284:284|356:327|439:225,1,280
388,242,96000,5,0,0:0:0:0:
356,281,96250,1,0,0:0:0:0:
318,236,96500,1,0,0:0:0:0:
276,147,96750,1,0,0:0:0:0:
241,196,97000,1,0,0:0:0:0:
198,243,97250,2,0,L|146:199,1,35
155,289,97500,1,0,0:0:0:0:
113,332,97750,1,0,0:0:0:0:
68,288,98000,5,0,0:0:0:0:
111,231,98375,1,0,0:0:0:0:
187,236,98750,2,0,L|477:235,1,280
388,242,100000,5,0,0:0:0:0:
356,281,100250,1,0,0:0:0:0:
318,236,100500,1,0,0:0:0:0:
276,147,100750,1,0,0:0:0:0:
241,196,101000,1,0,0:0:0:0:
198,243,101250,2,0,L|146:199,1,35
155,289,101500,1,0,0:0:0:0:
113,332,101750,1,0,0:0:0:0:
68,288,102000,5,0,0:0:0:0:
111,231,102375,1,0,0:0:0:0:
187,236,102750,2,0,L|477:235,1,280
