osu file format v14

[General]
AudioFilename: audio.mp3
AudioLeadIn: 0
PreviewTime: 23154
Countdown: 0
SampleSet: Soft
StackLeniency: 0.7
Mode: 0
LetterboxInBreaks: 0
WidescreenStoryboard: 1

[Editor]
Bookmarks: 35637,47637,111508,123508,171508
DistanceSpacing: 0.9
BeatDivisor: 4
GridSize: 4
TimelineZoom: 1.6

[Metadata]
Title:Ayla
TitleUnicode:Ayla
Artist:M2U
ArtistUnicode:M2U
Creator:-Mo-
Version:StarCastler's Insane
Source:
Tags:OWC 2020 qualifier HD1 owc2020qlhd1 StarCastler 四方神's Epilogue 月暈 classical instrumental piano violin duet
BeatmapID:3661962
BeatmapSetID:1280192

[Difficulty]
HPDrainRate:6
CircleSize:4
OverallDifficulty:7
ApproachRate:8
SliderMultiplier:1.4
SliderTickRate:1

[Events]
//Background and Video events
0,0,"bg2.jpg",0,0
//Break Periods
//Storyboard Layer 0 (Background)
//Storyboard Layer 1 (Fail)
//Storyboard Layer 2 (Pass)
//Storyboard Layer 3 (Foreground)
//Storyboard Layer 4 (Overlay)
//Storyboard Sound Samples

[TimingPoints]
25,387.096774193548,4,2,0,30,1,0
1573,-100,4,2,0,40,0,0
2347,-100,4,2,0,45,0,0
3508,-100,4,2,0,20,0,0
3895,-100,4,2,0,45,0,0
4670,-83.3333333333333,4,2,0,50,0,0
5444,-100,4,2,0,40,0,0
5831,-100,4,2,0,30,0,0
7766,-100,4,2,0,40,0,0
10476,-100,4,2,0,30,0,0
11250,-100,4,2,0,50,0,0
12024,-90.9090909090909,4,2,0,50,0,0
12315,-100,4,2,0,40,0,0
13186,-100,4,2,0,45,0,0
14928,-100,4,2,0,30,0,0
15315,-100,4,2,0,45,0,0
16283,-90.9090909090909,4,2,0,45,0,0
16670,-100,4,2,0,35,0,0
17057,-100,4,2,0,45,0,0
17250,-100,4,2,0,30,0,0
19766,-100,4,2,0,40,0,0
20154,-100,4,2,0,45,0,0
21702,-100,4,2,0,50,0,0
22476,-90.9090909090909,4,2,0,60,0,0
22863,-83.3333333333333,4,2,0,60,0,0
23057,-100,4,2,0,10,0,0
23250,-66.6666666666667,4,2,0,65,0,1
23541,-100,4,2,0,20,0,1
23637,-66.6666666666667,4,2,0,65,0,1
24024,-57.1428571428571,4,2,0,70,0,1
24412,-100,4,2,0,70,0,1
24799,-100,4,2,0,60,0,1
25089,-100,4,2,0,50,0,1
25573,-100,4,2,0,60,0,1
25960,-100,4,2,0,50,0,1
26347,-100,4,2,0,70,0,1
26734,-66.6666666666667,4,2,0,70,0,1
27024,-100,4,2,0,70,0,1
27508,-66.6666666666667,4,2,0,70,0,1
27895,-100,4,2,0,60,0,1
28089,-100,4,2,0,50,0,0
28283,-100,4,2,0,40,0,0
28476,-100,4,2,0,30,0,0
28670,-100,4,2,0,20,0,0
31766,-100,4,2,0,25,0,0
32541,-100,4,2,0,35,0,0
33315,-100,4,2,0,40,0,0
33508,-100,4,2,0,30,0,0
33702,-100,4,2,0,40,0,0
34476,-100,4,2,0,20,0,0
35250,-100,4,2,0,40,0,0
36605,-100,4,2,0,20,0,0
36799,-100,4,2,0,40,0,0
37186,-100,4,2,0,50,0,0
37573,-100,4,2,0,40,0,0
37960,-100,4,2,0,50,0,0
38154,-100,4,2,0,20,0,0
38347,-100,4,2,0,40,0,0
38734,-100,4,2,0,50,0,0
39121,-100,4,2,0,40,0,0
39508,-100,4,2,0,50,0,0
39702,-100,4,2,0,20,0,0
39895,-100,4,2,0,40,0,0
40283,-100,4,2,0,50,0,0
40670,-100,4,2,0,40,0,0
41057,-100,4,2,0,50,0,0
41250,-100,4,2,0,40,0,0
41444,-100,4,2,0,50,0,0
41831,-100,4,2,0,40,0,0
42605,-100,4,2,0,50,0,0
42799,-100,4,2,0,20,0,0
42992,-100,4,2,0,50,0,0
44347,-100,4,2,0,20,0,0
44541,-100,4,2,0,50,0,0
46670,-100,4,2,0,30,0,0
46863,-100,4,2,0,20,0,0
47637,-100,4,2,0,40,0,0
48024,-100,4,2,0,60,0,0
51508,-66.6666666666667,4,2,0,60,0,0
51895,-80,4,2,0,60,0,0
53444,-100,4,2,0,60,0,0
53637,-100,4,2,0,10,0,0
53831,-100,4,2,0,60,0,0
54218,-80,4,2,0,60,0,0
57315,-100,4,2,0,60,0,0
57702,-62.5,4,2,0,70,0,0
58089,-76.9230769230769,4,2,0,70,0,0
58670,-100,4,2,0,80,0,0
60024,-100,4,2,0,10,0,0
60412,-100,4,2,0,70,0,0
61186,-100,4,2,0,50,0,0
61960,-100,4,2,0,60,0,0
62734,-100,4,2,0,50,0,0
63121,-66.6666666666667,4,2,0,60,0,0
63508,-100,4,2,0,40,0,0
63895,-80,4,2,0,70,0,1
65057,-100,4,2,0,60,0,1
65250,-100,4,2,0,70,0,1
65831,-100,4,2,0,70,0,0
66218,-66.6666666666667,4,2,0,80,0,0
66412,-100,4,2,0,60,0,0
66992,-100,4,2,0,50,0,0
67379,-100,4,2,0,40,0,0
68154,-100,4,2,0,50,0,0
68928,-100,4,2,0,40,0,0
69315,-66.6666666666667,4,2,0,70,0,0
69702,-100,4,2,0,70,0,0
70089,-80,4,2,0,70,0,1
70476,-100,4,2,0,75,0,1
71444,-100,4,2,0,30,0,1
71541,-100,4,2,0,50,0,1
72218,-100,4,2,0,30,0,1
72412,-80,4,2,0,70,0,1
72799,-100,4,2,0,40,0,0
74347,-100,4,2,0,50,0,0
74395,-100,4,2,0,40,0,0
75895,-100,4,2,0,60,0,0
76089,-100,4,2,0,40,0,0
76670,-100,4,2,0,60,0,0
77444,-80,4,2,0,70,0,0
78799,-100,4,2,0,50,0,0
78992,-100,4,2,0,40,0,0
81702,-100,4,2,0,50,0,0
82283,-100,4,2,0,60,0,0
82912,-100,4,2,0,40,0,0
83057,-100,4,2,0,60,0,0
83637,-100,4,2,0,70,0,0
84024,-100,4,2,0,70,0,1
85089,-100,4,2,0,70,0,0
85379,-100,4,2,0,65,0,0
86734,-100,4,2,0,70,0,0
87508,-100,4,2,0,60,0,0
89057,-100,4,2,0,70,0,1
89734,-100,4,2,0,50,0,0
90024,-100,4,2,0,70,0,0
91573,-100,4,2,0,65,0,0
92928,-100,4,2,0,70,0,0
93702,-100,4,2,0,60,0,0
94670,-100,4,2,0,65,0,0
95250,-100,4,2,0,70,0,0
96412,-100,4,2,0,80,0,1
97573,-100,4,2,0,60,0,0
97670,-100,4,2,0,50,0,0
101444,-100,4,2,0,60,0,0
102218,-100,4,2,0,50,0,0
102992,-100,4,2,0,70,0,0
103766,-100,4,2,0,50,0,0
107637,-100,4,2,0,60,0,0
108412,-100,4,2,0,50,0,0
108702,-80,4,2,0,60,0,0
109476,-100,4,2,0,70,0,0
109863,-606.060606060606,4,2,0,70,0,0
109960,-100,4,2,0,10,0,0
111412,-100,4,2,0,0,0,0
111508,-100,4,2,0,40,0,0
112476,-100,4,2,0,20,0,0
112670,-100,4,2,0,40,0,0
113057,-100,4,2,0,50,0,0
113444,-100,4,2,0,40,0,0
113831,-100,4,2,0,50,0,0
114024,-100,4,2,0,20,0,0
114218,-100,4,2,0,40,0,0
114605,-100,4,2,0,50,0,0
114992,-100,4,2,0,40,0,0
115379,-100,4,2,0,50,0,0
115573,-100,4,2,0,20,0,0
115766,-100,4,2,0,40,0,0
116154,-100,4,2,0,50,0,0
116541,-100,4,2,0,40,0,0
116928,-100,4,2,0,50,0,0
117121,-100,4,2,0,40,0,0
117315,-100,4,2,0,50,0,0
117702,-100,4,2,0,40,0,0
118476,-100,4,2,0,50,0,0
118670,-100,4,2,0,20,0,0
118863,-100,4,2,0,50,0,0
120218,-100,4,2,0,20,0,0
120412,-100,4,2,0,50,0,0
122541,-100,4,2,0,30,0,0
122734,-100,4,2,0,20,0,0
123508,-100,4,2,0,40,0,0
123895,-100,4,2,0,60,0,0
127379,-66.6666666666667,4,2,0,60,0,0
127766,-80,4,2,0,60,0,0
129315,-100,4,2,0,60,0,0
129508,-100,4,2,0,10,0,0
129702,-100,4,2,0,60,0,0
130089,-80,4,2,0,60,0,0
133186,-100,4,2,0,60,0,0
133573,-62.5,4,2,0,70,0,0
133960,-76.9230769230769,4,2,0,70,0,0
134541,-100,4,2,0,80,0,0
135702,-100,4,2,0,10,0,0
135895,-100,4,2,0,80,0,0
136283,-100,4,2,0,30,0,0
137831,-100,4,2,0,40,0,0
138605,-100,4,2,0,45,0,0
139766,-100,4,2,0,20,0,0
140154,-100,4,2,0,45,0,0
140928,-83.3333333333333,4,2,0,50,0,0
141702,-100,4,2,0,40,0,0
142089,-100,4,2,0,30,0,0
144024,-100,4,2,0,40,0,0
146734,-100,4,2,0,30,0,0
147508,-100,4,2,0,50,0,0
148283,-90.9090909090909,4,2,0,50,0,0
148573,-100,4,2,0,20,0,0
148670,-100,4,2,0,50,0,0
148863,-100,4,2,0,30,0,0
149057,-100,4,2,0,40,0,0
149250,-100,4,2,0,30,0,0
149444,-100,4,2,0,50,0,0
149734,-100,4,2,0,20,0,0
149831,-100,4,2,0,50,0,0
151186,-100,4,2,0,30,0,0
151379,-100,4,2,0,50,0,0
153508,-100,4,2,0,30,0,0
154347,-100,4,2,0,20,0,0
154476,-100,4,2,0,30,0,0
154863,-100,4,2,0,20,0,0
155637,-100,4,2,0,30,0,0
155831,-100,4,2,0,15,0,0
156024,-100,4,2,0,30,0,0
156412,-100,4,2,0,40,0,0
157186,-100,4,2,0,45,0,0
157960,-100,4,2,0,50,0,0
158734,-90.9090909090909,4,2,0,55,0,0
158928,-100,4,2,0,50,0,0
158992,-100,4,2,0,30,0,0
159121,-83.3333333333333,4,2,0,60,0,0
159412,-100,4,2,0,10,0,0
159508,-133.333333333333,4,2,0,65,0,1
159799,-100,4,2,0,20,0,1
159895,-100,4,2,0,65,0,1
160283,-88.8888888888889,4,2,0,70,0,1
160573,-100,4,2,0,20,0,1
160670,-100,4,2,0,70,0,1
161057,-100,4,3,0,60,0,1
161154,-100,4,2,0,60,0,1
161347,-100,4,2,0,50,0,1
161831,-100,4,2,0,60,0,1
162218,-100,4,2,0,50,0,1
162508,-100,4,2,0,20,0,1
162605,-100,4,2,0,70,0,1
162992,-66.6666666666667,4,2,0,70,0,1
163283,-100,4,2,0,70,0,1
163766,-66.6666666666667,4,2,0,70,0,1
164154,-100,4,2,0,60,0,1
164347,-100,4,2,0,50,0,0
164541,-100,4,2,0,40,0,0
164734,-100,4,2,0,30,0,0
164928,-100,4,2,0,20,0,0
168024,-100,4,2,0,25,0,0
168799,-100,4,2,0,35,0,0
169573,-100,4,2,0,40,0,0
169766,-100,4,2,0,30,0,0
169960,-100,4,2,0,40,0,0
170734,-100,4,2,0,20,0,0
171412,-100,4,2,0,25,0,0
171508,-100,4,2,0,40,0,0

[Colours]
Combo1 : 77,240,249
Combo2 : 10,10,254
Combo3 : 3,155,245
Combo4 : 54,88,248

[HitObjects]
40,272,25,5,0,0:0:0:0:
132,340,412,1,0,0:0:0:0:
240,300,799,2,0,L|320:284,1,70,2|0,0:0|0:0,0:0:0:0:
476,336,1186,2,0,L|396:352,1,70
420,236,1573,6,0,P|448:188|464:96,1,140,2|0,0:0|0:0,0:0:0:0:
464,105,2154,1,0,0:0:0:0:
342,20,2347,2,0,P|338:56|338:140,1,105,4|0,0:0|0:0,0:0:0:0:
338,125,2734,2,0,L|256:144,1,70,2|0,0:0|0:0,0:0:0:0:
132,188,3121,6,0,P|72:200|-4:144,1,140,8|2,0:3|0:0,0:0:0:0:
84,108,3702,1,0,0:0:0:0:
132,188,3895,2,0,P|140:232|144:260,1,70,2|0,0:0|0:0,0:0:0:0:
296,344,4283,2,0,P|304:300|308:272,1,70,2|0,0:0|0:0,0:0:0:0:
338,125,4670,6,0,P|380:120|456:88,1,125.999996154785,4|0,0:1|0:0,0:0:0:0:
416,68,5057,1,2,0:0:0:0:
412,112,5154,1,0,0:0:0:0:
432,148,5250,1,0,0:0:0:0:
468,164,5347,1,0,0:0:0:0:
496,188,5444,2,0,L|508:224,1,35,2|0,0:0|0:0,0:0:0:0:
484,344,5637,2,0,L|472:308,1,35
400,240,5831,2,0,L|388:204,1,35,2|0,0:0|0:0,0:0:0:0:
364,332,6024,2,0,L|376:368,1,35
292,256,6218,5,0,0:0:0:0:
196,320,6605,1,0,0:0:0:0:
84,288,6992,2,0,P|40:280|-8:276,1,70,2|0,0:0|0:0,0:0:0:0:
176,216,7379,2,0,P|196:168|216:96,1,105,2|0,0:0|0:0,0:0:0:0:
211,117,7766,6,0,L|284:100,1,70,4|0,0:0|0:0,0:0:0:0:
372,128,8154,1,0,0:0:0:0:
348,36,8347,1,2,0:0:0:0:
224,200,8541,6,0,L|151:182,1,70,8|0,0:3|0:0,0:0:0:0:
63,210,8928,1,2,0:0:0:0:
87,118,9121,1,0,0:0:0:0:
100,96,9218,1,0,0:0:0:0:
108,72,9315,5,4,3:0:0:0:
0,20,9508,1,2,0:0:0:0:
112,48,9702,5,0,3:0:0:0:
232,28,9895,1,0,3:0:0:0:
352,8,10089,1,0,3:0:0:0:
352,8,10476,1,4,3:0:0:0:
432,96,10863,6,0,P|436:152|452:204,1,105,4|0,0:0|0:0,0:0:0:0:
468,224,11250,1,0,3:0:0:0:
496,240,11347,1,2,0:0:0:0:
368,244,11541,1,0,0:0:0:0:
352,268,11637,1,2,0:0:0:0:
348,296,11734,1,0,0:0:0:0:
356,324,11831,1,0,0:0:0:0:
376,344,11928,1,0,0:0:0:0:
404,356,12024,2,0,P|364:344|280:368,1,115.50000352478,4|0,0:0|0:0,0:0:0:0:
220,376,12412,6,0,P|204:352|180:304,1,70,4|0,0:3|0:0,0:0:0:0:
52,340,12799,2,0,P|68:316|92:268,1,70,2|0,0:0|0:0,0:0:0:0:
176,208,13186,1,4,0:0:0:0:
212,96,13379,1,0,0:0:0:0:
168,224,13573,1,2,0:0:0:0:
40,192,13766,1,0,0:0:0:0:
76,60,13960,5,8,0:3:0:0:
120,140,14154,1,0,0:0:0:0:
100,236,14347,1,2,0:0:0:0:
12,292,14541,1,0,0:0:0:0:
108,260,14734,2,0,P|124:288|160:332,1,70,4|0,0:0|0:0,0:0:0:0:
256,344,15121,1,0,0:0:0:0:
384,304,15315,5,2,0:0:0:0:
456,244,15508,1,8,0:3:0:0:
484,124,15702,1,0,0:0:0:0:
364,160,15895,1,2,0:0:0:0:
456,244,16089,1,0,0:0:0:0:
412,96,16283,1,2,0:0:0:0:
284,184,16476,2,0,P|216:176|124:116,1,154.000004699707,4|2,0:0|0:0,0:0:0:0:
48,44,17057,5,4,3:0:0:0:
8,124,17444,1,0,0:0:0:0:
48,204,17831,1,0,0:0:0:0:
8,284,18218,2,0,P|16:324|16:356,1,70,2|0,0:0|0:0,0:0:0:0:
112,360,18605,5,0,0:0:0:0:
224,320,18992,1,0,0:0:0:0:
332,368,19379,2,0,P|388:364|404:360,1,70,2|0,0:0|0:0,0:0:0:0:
512,276,19766,2,0,P|456:272|440:268,1,70,2|0,0:0|0:0,0:0:0:0:
328,220,20154,5,8,0:3:0:0:
300,132,20347,1,0,0:0:0:0:
360,60,20541,1,2,0:0:0:0:
452,72,20734,1,0,0:0:0:0:
312,144,20928,5,8,0:3:0:0:
340,232,21121,1,0,0:0:0:0:
280,304,21315,1,2,0:0:0:0:
188,292,21508,1,0,0:0:0:0:
152,204,21702,5,4,0:0:0:0:
36,184,21895,1,0,0:0:0:0:
164,184,22089,1,2,0:0:0:0:
56,112,22283,1,0,0:0:0:0:
180,64,22476,2,0,P|224:108|308:108,1,115.50000352478,2|0,0:0|0:0,0:0:0:0:
288,96,22863,2,0,P|256:164|248:224,1,125.999996154785,4|0,0:0|0:0,0:0:0:0:
336,328,23250,6,0,P|376:344|472:296,1,157.500006008148,4|2,0:1|0:0,0:0:0:0:
432,232,23637,2,0,P|380:224|332:260,1,105,2|0,0:0|0:0,0:0:0:0:
192,356,24024,6,0,P|176:300|80:140,1,245.000002336502,4|2,0:1|0:0,0:0:0:0:
0,104,24605,1,0,0:0:0:0:
12,268,24799,6,0,P|8:302|0:340,1,70,4|0,0:0|0:0,0:0:0:0:
40,256,25089,1,0,0:0:0:0:
64,236,25186,1,2,0:0:0:0:
132,0,25573,1,8,3:0:0:0:
334,144,25960,1,8,3:0:0:0:
284,216,26347,6,0,P|316:228|372:228,1,70,4|0,0:1|0:0,0:0:0:0:
224,256,26637,1,2,0:0:0:0:
232,264,26734,2,0,P|264:316|352:360,1,157.500006008148,4|2,0:0|0:0,0:0:0:0:
100,232,27121,6,0,P|68:244|12:244,1,70,4|0,0:1|0:0,0:0:0:0:
160,288,27412,1,2,0:0:0:0:
152,280,27508,2,0,P|120:332|32:376,1,157.500006008148,4|2,0:0|0:0,0:0:0:0:
48,160,27895,5,4,0:1:0:0:
104,40,28089,1,0,0:0:0:0:
136,64,28186,1,0,0:0:0:0:
164,96,28283,1,2,0:0:0:0:
36,80,28476,1,0,0:0:0:0:
132,168,28670,1,2,0:0:0:0:
320,164,28960,6,0,L|336:204,1,35,2|0,0:0|0:0,0:0:0:0:
380,60,29250,1,2,0:0:0:0:
408,148,29444,6,0,P|424:212|460:288,1,140,4|0,0:0|0:0,0:0:0:0:
454,279,30024,1,2,0:0:0:0:
340,220,30218,6,0,P|348:284|368:368,1,140,4|0,0:0|0:0,0:0:0:0:
364,357,30799,1,2,0:0:0:0:
248,240,30992,6,0,P|240:304|240:380,1,140,4|0,0:0|0:0,0:0:0:0:
239,379,31573,1,2,0:0:0:0:
152,224,31766,6,0,P|140:268|136:300,1,70,4|0,0:0|0:0,0:0:0:0:
72,172,32154,2,0,P|48:204|32:240,1,70,2|0,0:0|0:0,0:0:0:0:
244,72,32541,6,0,P|256:28|260:-4,1,70,4|0,0:0|0:0,0:0:0:0:
164,124,32928,2,0,P|140:92|124:56,1,70,2|0,0:0|0:0,0:0:0:0:
240,264,33315,6,0,P|252:308|256:340,1,70,4|0,0:0|0:0,0:0:0:0:
256,176,33702,2,0,P|288:152|324:136,1,70,2|0,0:0|0:0,0:0:0:0:
456,100,34089,5,4,0:0:0:0:
456,100,34476,1,0,3:0:0:0:
480,188,34670,1,0,3:0:0:0:
500,272,34863,1,0,3:0:0:0:
404,348,35250,1,2,0:0:0:0:
160,308,35637,6,0,P|216:344|284:328,1,140,2|2,0:0|0:0,0:0:0:0:
32,384,36412,2,2,B|-8:340|36:292|0:252,1,140,2|0,0:0|0:0,0:0:0:0:
88,336,36992,1,2,0:0:0:0:
124,232,37186,6,0,L|140:156,1,70,4|0,0:0|0:0,0:0:0:0:
212,104,37573,2,0,L|280:80,1,70,2|0,0:0|0:0,0:0:0:0:
124,76,37960,2,2,L|4:4,1,140,4|2,0:0|0:0,0:0:0:0:
388,232,38734,6,0,L|372:156,1,70,4|0,0:0|0:0,0:0:0:0:
300,104,39121,2,0,L|232:80,1,70,2|0,0:0|0:0,0:0:0:0:
388,76,39508,2,2,L|508:4,1,140,4|2,0:0|0:0,0:0:0:0:
304,260,40283,6,0,L|364:308,1,70,4|0,0:0|0:0,0:0:0:0:
208,260,40670,2,0,L|148:308,1,70,2|0,0:0|0:0,0:0:0:0:
256,176,41057,2,2,L|256:32,1,140,4|4,0:0|0:0,0:0:0:0:
256,36,41637,1,0,0:0:0:0:
336,128,41831,6,0,P|384:160|468:144,1,140,2|2,0:0|0:0,0:0:0:0:
180,168,42605,2,2,B|128:136|172:84|116:48,1,140,2|0,0:0|0:0,0:0:0:0:
272,208,43186,1,2,0:0:0:0:
188,272,43379,6,0,L|208:344,1,70,4|0,0:0|0:0,0:0:0:0:
96,232,43766,2,0,L|8:252,1,70,2|0,0:0|0:0,0:0:0:0:
180,168,44154,2,2,L|240:28,1,140,4|2,0:0|0:0,0:0:0:0:
324,272,44928,6,0,L|304:344,1,70,4|0,0:0|0:0,0:0:0:0:
416,232,45315,2,0,L|504:252,1,70,2|0,0:0|0:0,0:0:0:0:
332,168,45702,1,4,0:0:0:0:
276,48,45895,1,0,0:0:0:0:
292,180,46089,1,4,0:0:0:0:
316,60,46283,1,0,0:0:0:0:
196,128,46476,6,2,P|140:156|76:244,1,140,4|2,0:0|0:0,0:0:0:0:
76,288,47057,1,0,0:0:0:0:
32,352,47250,1,4,0:3:0:0:
208,248,47637,5,2,0:0:0:0:
304,292,47831,1,0,0:0:0:0:
328,308,47928,1,0,0:0:0:0:
344,332,48024,5,4,0:0:0:0:
476,308,48218,1,2,0:0:0:0:
504,176,48412,1,2,0:0:0:0:
504,176,48605,1,0,0:0:0:0:
280,220,48799,5,4,0:0:0:0:
412,196,48992,1,2,0:0:0:0:
440,64,49186,1,2,0:0:0:0:
440,64,49379,1,0,0:0:0:0:
332,152,49573,5,4,0:0:0:0:
356,280,49766,1,2,0:0:0:0:
344,288,49960,1,2,0:0:0:0:
344,160,50154,1,0,0:0:0:0:
208,188,50347,5,4,0:0:0:0:
184,60,50541,1,0,0:0:0:0:
196,184,50734,1,2,0:0:0:0:
176,52,50928,1,0,0:0:0:0:
48,80,51121,5,4,0:3:0:0:
48,80,51508,6,2,B|124:176|16:280,1,210.000008010865,2|4,0:0|0:0,0:1:0:0:
192,368,52089,2,0,L|160:280,1,87.5,2|0,0:0|0:0,0:0:0:0:
264,140,52476,1,2,0:0:0:0:
360,280,52670,5,4,0:0:0:0:
512,316,52863,1,2,0:0:0:0:
324,208,53057,1,2,0:0:0:0:
432,324,53250,1,0,0:0:0:0:
346,129,53444,1,4,0:0:0:0:
296,344,53831,5,2,0:0:0:0:
268,372,53928,1,0,0:0:0:0:
232,384,54024,1,0,0:0:0:0:
192,384,54121,1,0,0:0:0:0:
160,364,54218,6,0,P|136:324|96:276,1,87.5,4|0,0:0|0:0,0:0:0:0:
96,312,54508,1,0,0:0:0:0:
80,332,54605,2,0,L|36:324,1,43.75,2|0,0:0|0:0,0:0:0:0:
124,216,54799,2,0,L|84:188,1,43.75,2|0,0:0|0:0,0:0:0:0:
232,264,54992,6,0,P|256:224|296:176,1,87.5,4|0,0:0|0:0,0:0:0:0:
296,212,55283,1,0,0:0:0:0:
312,232,55379,2,0,L|356:224,1,43.75,2|0,0:0|0:0,0:0:0:0:
268,116,55573,2,0,L|308:88,1,43.75,2|0,0:0|0:0,0:0:0:0:
192,160,55766,6,0,P|152:136|104:96,1,87.5,4|0,0:0|0:0,0:0:0:0:
140,96,56057,1,0,0:0:0:0:
160,80,56154,2,0,L|152:36,1,43.75,2|0,0:0|0:0,0:0:0:0:
44,124,56347,2,0,L|16:84,1,43.75,2|0,0:0|0:0,0:0:0:0:
276,124,56541,6,0,P|316:100|364:60,1,87.5,4|0,0:0|0:0,0:0:0:0:
328,60,56831,1,0,0:0:0:0:
308,44,56928,2,0,L|316:0,1,43.75,2|0,0:0|0:0,0:0:0:0:
428,88,57121,2,0,L|456:48,1,43.75,2|0,0:0|0:0,0:0:0:0:
408,204,57315,5,4,0:3:0:0:
408,204,57702,2,2,B|368:216|368:216|340:204|340:204|312:228|240:252|192:180,1,224,2|4,0:0|0:0,0:1:0:0:
24,320,58283,2,0,B|76:304|64:236,1,90.9999958343508,2|0,0:0|0:0,0:0:0:0:
184,336,58670,2,2,L|216:364,1,35,2|0,0:0|0:0,0:0:0:0:
344,308,58863,5,4,0:0:0:0:
364,119,59057,1,2,0:0:0:0:
440,292,59250,1,2,0:0:0:0:
292,168,59444,1,0,0:0:0:0:
476,204,59637,1,4,0:0:0:0:
380,216,60412,5,4,0:1:0:0:
312,84,60702,1,0,0:0:0:0:
292,104,60799,1,2,0:0:0:0:
260,112,60895,1,0,0:0:0:0:
224,104,60992,1,0,0:0:0:0:
196,76,61089,1,2,0:0:0:0:
184,40,61186,6,0,L|156:8,1,35,4|0,0:0|0:0,0:0:0:0:
84,100,61379,2,0,L|112:68,1,35,2|0,0:0|0:0,0:0:0:0:
164,180,61573,2,0,L|136:148,1,35
64,240,61766,2,0,L|92:208,1,35,2|0,0:0|0:0,0:0:0:0:
152,264,61960,5,0,0:0:0:0:
160,288,62057,1,0,0:0:0:0:
172,312,62154,1,0,0:0:0:0:
188,332,62250,1,2,0:0:0:0:
280,316,62444,1,0,0:0:0:0:
308,316,62541,1,2,0:0:0:0:
336,328,62637,1,0,0:0:0:0:
352,348,62734,6,0,L|400:364,1,35
504,320,62928,2,0,L|456:336,1,35,2|0,0:0|0:0,0:0:0:0:
408,276,63121,5,4,0:0:0:0:
444,148,63315,2,0,P|460:92|464:32,1,105.000004005432,4|4,0:0|0:1,0:0:0:0:
184,68,63799,5,2,0:0:0:0:
184,68,63895,2,0,P|140:112|32:92,1,175,4|4,0:0|0:1,0:0:0:0:
360,188,64573,5,2,0:0:0:0:
360,188,64670,2,0,P|404:232|512:212,1,175,4|4,0:0|0:1,0:0:0:0:
256,196,65250,5,2,0:0:0:0:
244,220,65347,1,0,0:0:0:0:
232,244,65444,1,0,0:0:0:0:
168,356,65637,1,2,0:0:0:0:
24,300,65831,1,2,0:0:0:0:
24,300,66218,2,0,P|56:264|96:156,1,157.500006008148,4|0,0:0|0:0,0:0:0:0:
80,92,66605,5,4,0:1:0:0:
212,16,66895,1,0,0:0:0:0:
220,40,66992,1,2,0:0:0:0:
240,60,67089,1,0,0:0:0:0:
276,64,67186,1,2,0:0:0:0:
312,48,67283,1,0,0:0:0:0:
336,28,67379,6,0,L|376:56,1,35,4|0,0:0|0:0,0:0:0:0:
440,100,67573,2,0,L|480:72,1,35,2|0,0:0|0:0,0:0:0:0:
360,144,67766,2,0,L|320:172,1,35
256,216,67960,2,0,L|216:188,1,35,2|0,0:0|0:0,0:0:0:0:
332,268,68154,5,0,0:0:0:0:
328,300,68250,1,0,0:0:0:0:
316,332,68347,1,0,0:0:0:0:
300,356,68444,1,2,0:0:0:0:
416,344,68637,1,0,0:0:0:0:
420,312,68734,1,2,0:0:0:0:
432,280,68831,1,0,0:0:0:0:
448,256,68928,6,0,L|504:240,1,35
432,152,69121,2,0,L|448:96,1,35,2|0,0:0|0:0,0:0:0:0:
480,32,69315,5,4,0:0:0:0:
352,100,69508,2,0,P|336:72|312:0,1,105.000004005432,4|4,0:0|0:1,0:0:0:0:
192,88,69895,5,2,0:0:0:0:
184,128,69992,1,0,0:0:0:0:
176,168,70089,1,4,0:0:0:0:
44,192,70283,1,0,0:0:0:0:
256,192,70476,5,4,0:1:0:0:
320,296,70670,5,2,0:0:0:0:
328,256,70766,1,0,0:0:0:0:
336,216,70863,1,4,0:0:0:0:
468,192,71057,1,0,0:0:0:0:
256,44,71250,5,4,0:1:0:0:
176,168,71541,1,2,0:0:0:0:
176,168,71637,2,0,P|148:188|92:204,1,70,8|2,0:3|0:0,0:0:0:0:
336,216,72024,2,0,P|376:240|444:252,1,105,4|0,0:3|0:0,0:0:0:0:
432,252,72412,2,0,B|480:224|440:176|504:136,1,131.25,4|0,0:0|0:0,0:0:0:0:
472,56,72799,6,0,P|428:68|360:24,1,105,2|2,0:0|0:0,0:0:0:0:
375,45,73186,1,0,0:0:0:0:
280,16,73379,1,2,0:0:0:0:
296,104,73573,1,0,0:0:0:0:
200,76,73766,1,2,0:0:0:0:
176,68,73863,1,0,0:0:0:0:
156,52,73960,2,0,L|140:16,1,35
36,84,74154,2,0,L|52:48,1,35,2|0,0:0|0:0,0:0:0:0:
88,148,74347,6,0,P|68:184|68:228,1,70,4|2,0:0|0:0,0:0:0:0:
216,288,74734,2,0,P|180:268|136:268,1,70,0|2,0:0|0:0,0:0:0:0:
56,312,75121,1,0,0:0:0:0:
144,372,75315,1,2,0:0:0:0:
168,380,75412,1,0,0:0:0:0:
192,384,75508,2,0,L|232:376,1,35
316,284,75702,2,0,L|308:320,1,35,2|0,0:0|0:0,0:0:0:0:
256,216,75895,5,4,0:0:0:0:
188,152,76089,1,2,0:0:0:0:
176,172,76186,1,0,0:0:0:0:
164,192,76283,2,0,L|116:196,1,35
80,92,76476,2,0,L|128:88,1,35,2|0,0:0|0:0,0:0:0:0:
208,16,76670,5,4,0:1:0:0:
324,76,76863,1,4,0:0:0:0:
172,44,77057,1,4,0:0:0:0:
360,40,77250,1,4,0:0:0:0:
256,228,77444,5,4,0:1:0:0:
160,308,77637,1,2,0:0:0:0:
112,324,77734,1,0,0:0:0:0:
64,308,77831,1,0,0:0:0:0:
32,264,77928,1,0,0:0:0:0:
36,212,78024,2,0,P|56:164|64:120,1,87.5,4|0,0:0|0:0,0:0:0:0:
232,148,78412,1,2,0:0:0:0:
352,91,78605,2,0,P|332:43|324:-1,1,87.5,4|2,0:0|0:0,0:0:0:0:
400,216,78992,5,2,0:0:0:0:
488,224,79186,1,2,0:0:0:0:
500,248,79283,1,0,0:0:0:0:
500,272,79379,1,0,0:0:0:0:
492,292,79476,1,0,0:0:0:0:
476,308,79573,1,2,0:0:0:0:
452,316,79670,1,0,0:0:0:0:
428,320,79766,2,0,P|384:308|320:300,1,105,4|0,0:0|0:0,0:0:0:0:
325,300,80154,2,0,L|311:347,1,35,2|0,0:0|0:0,0:0:0:0:
264,224,80347,2,0,L|250:176,1,35
296,108,80541,5,2,0:0:0:0:
224,40,80734,1,2,0:0:0:0:
196,32,80831,1,0,0:0:0:0:
168,28,80928,1,0,0:0:0:0:
140,36,81024,1,0,0:0:0:0:
116,52,81121,1,2,0:0:0:0:
100,76,81218,1,0,0:0:0:0:
96,104,81315,2,0,P|112:148|120:196,1,70,4|0,0:0|0:0,0:0:0:0:
24,280,81702,2,0,L|32:220,1,35,2|0,0:0|0:0,0:0:0:0:
128,280,81895,2,0,L|188:272,1,35
248,340,82089,5,4,0:0:0:0:
368,304,82283,1,2,0:0:0:0:
412,184,82476,1,0,0:0:0:0:
364,68,82670,1,2,0:0:0:0:
240,36,82863,1,4,0:0:0:0:
132,100,83057,1,2,0:0:0:0:
264,68,83250,1,2,0:0:0:0:
112,64,83444,1,0,0:0:0:0:
256,192,83637,5,4,0:0:0:0:
320,344,84024,5,4,0:0:0:0:
344,320,84121,1,0,0:0:0:0:
360,296,84218,1,2,0:0:0:0:
376,268,84315,1,0,0:0:0:0:
416,280,84412,5,4,0:0:0:0:
440,248,84508,1,0,0:0:0:0:
456,212,84605,1,2,0:0:0:0:
464,168,84702,1,0,0:0:0:0:
496,128,84799,5,4,0:0:0:0:
452,120,84895,1,0,0:0:0:0:
420,100,84992,1,2,0:0:0:0:
392,68,85089,1,0,0:0:0:0:
380,28,85186,1,4,0:1:0:0:
244,80,85379,6,0,L|216:48,1,35,2|0,0:0|0:0,0:0:0:0:
52,52,85573,2,0,L|76:20,1,35,2|0,0:0|0:0,0:0:0:0:
160,120,85766,2,0,L|172:164,1,35,2|0,0:0|0:0,0:0:0:0:
60,220,85960,2,0,L|4:220,1,35,4|0,0:0|0:0,0:0:0:0:
164,280,86154,2,0,L|216:280,1,35,2|0,0:0|0:0,0:0:0:0:
0,336,86347,2,0,L|24:284,1,35,2|0,0:0|0:0,0:0:0:0:
104,344,86541,2,0,L|112:396,1,35,2|0,0:0|0:0,0:0:0:0:
256,372,86734,5,4,0:0:0:0:
292,376,86831,1,0,0:0:0:0:
328,364,86928,1,2,0:0:0:0:
352,336,87024,1,0,0:0:0:0:
368,304,87121,2,0,L|376:264,1,35,2|0,0:0|0:0,0:0:0:0:
460,316,87315,2,0,L|484:348,1,35,2|0,0:0|0:0,0:0:0:0:
508,232,87508,5,4,0:0:0:0:
472,236,87605,1,0,0:0:0:0:
436,224,87702,1,2,0:0:0:0:
412,196,87799,1,0,0:0:0:0:
396,164,87895,2,0,L|396:120,1,35,2|0,0:0|0:0,0:0:0:0:
304,176,88089,2,0,L|296:216,1,35,2|0,0:0|0:0,0:0:0:0:
280,296,88283,1,4,0:1:0:0:
148,304,88476,6,0,P|160:292|176:284,5,35,2|0|2|0|2|0,0:0|0:0|0:0|0:0|0:0|0:0,0:0:0:0:
132,332,89057,5,4,0:0:0:0:
92,348,89154,1,0,0:0:0:0:
52,336,89250,1,2,0:0:0:0:
32,300,89347,1,0,0:0:0:0:
0,276,89444,5,4,0:0:0:0:
24,232,89541,1,0,0:0:0:0:
32,188,89637,1,2,0:0:0:0:
24,140,89734,2,0,P|20:120|4:84,1,35,4|0,0:0|0:0,0:0:0:0:
244,228,90024,6,0,P|232:216|216:204,5,35,2|0|2|0|2|0,0:0|0:0|0:0|0:0|0:0|0:0,0:0:0:0:
264,252,90605,5,4,0:0:0:0:
288,260,90702,1,0,0:0:0:0:
328,248,90799,1,2,0:0:0:0:
352,256,90895,1,0,0:0:0:0:
388,220,90992,5,4,0:0:0:0:
380,184,91089,1,0,0:0:0:0:
408,144,91186,1,2,0:0:0:0:
400,108,91283,1,0,0:0:0:0:
424,64,91379,1,4,0:1:0:0:
248,36,91573,6,0,L|236:0,1,35,2|0,0:0|0:0,0:0:0:0:
280,136,91766,2,0,L|316:124,1,35,2|0,0:0|0:0,0:0:0:0:
176,108,91960,2,0,L|140:96,1,35,2|0,0:0|0:0,0:0:0:0:
56,180,92154,2,0,L|20:196,1,35,4|0,0:0|0:0,0:0:0:0:
88,308,92347,2,0,L|112:272,1,35,2|0,0:0|0:0,0:0:0:0:
204,208,92541,2,0,L|204:252,1,35,2|0,0:0|0:0,0:0:0:0:
268,356,92734,2,0,L|268:312,1,35,2|0,0:0|0:0,0:0:0:0:
320,220,92928,5,4,0:0:0:0:
352,203,93024,1,0,0:0:0:0:
388,200,93121,1,2,0:0:0:0:
420,216,93218,1,0,0:0:0:0:
440,244,93315,2,0,L|484:252,1,35,2|0,0:0|0:0,0:0:0:0:
364,312,93508,2,0,L|372:272,1,35,2|0,0:0|0:0,0:0:0:0:
396,128,93702,5,4,0:0:0:0:
408,96,93799,1,0,0:0:0:0:
408,64,93895,1,2,0:0:0:0:
396,36,93992,1,0,0:0:0:0:
364,8,94089,1,2,0:0:0:0:
336,24,94186,1,0,0:0:0:0:
304,24,94283,1,2,0:0:0:0:
280,44,94379,2,0,L|240:56,1,35,4|0,0:0|0:0,0:0:0:0:
28,60,94670,6,0,P|32:72|44:96,5,35,2|0|2|0|2|0,0:0|0:0|0:0|0:0|0:0|0:0,0:0:0:0:
40,28,95250,5,4,0:0:0:0:
72,12,95347,1,0,0:0:0:0:
108,20,95444,1,2,0:0:0:0:
132,48,95541,1,0,0:0:0:0:
172,75,95637,5,4,0:0:0:0:
164,116,95734,1,0,0:0:0:0:
192,144,95831,1,2,0:0:0:0:
204,184,95928,1,0,0:0:0:0:
256,192,96024,5,4,0:1:0:0:
256,92,96412,5,4,0:0:0:0:
256,292,96605,1,2,0:0:0:0:
348,144,96799,1,2,0:0:0:0:
164,240,96992,1,0,0:0:0:0:
348,240,97186,1,4,0:0:0:0:
164,144,97379,1,2,0:0:0:0:
256,192,97573,5,4,0:0:0:0:
256,292,97766,1,0,0:0:0:0:
268,316,97863,1,0,0:0:0:0:
280,340,97960,2,0,L|328:340,2,35,2|0|0,0:0|0:0|0:0,0:0:0:0:
184,344,98347,1,0,0:0:0:0:
96,304,98541,1,2,0:0:0:0:
80,328,98637,1,0,0:0:0:0:
36,240,98831,1,0,0:0:0:0:
24,204,98928,1,0,0:0:0:0:
28,168,99024,1,2,0:0:0:0:
48,136,99121,5,4,0:0:0:0:
148,132,99315,1,0,0:0:0:0:
164,108,99412,1,0,0:0:0:0:
180,84,99508,2,0,L|172:48,3,35,2|0|0|0,0:0|0:0|0:0|0:0,0:0:0:0:
184,16,99895,1,2,0:0:0:0:
88,32,100089,1,0,0:0:0:0:
56,24,100186,1,2,0:0:0:0:
44,128,100379,1,2,0:0:0:0:
12,136,100476,1,0,0:0:0:0:
96,212,100670,5,4,0:0:0:0:
200,184,100863,1,0,0:0:0:0:
216,196,100960,1,0,0:0:0:0:
232,208,101057,2,0,L|272:208,3,35,2|0|0|0,0:0|0:0|0:0|0:0,0:0:0:0:
304,232,101444,1,2,0:0:0:0:
280,264,101541,1,0,0:0:0:0:
272,300,101637,1,0,0:0:0:0:
280,336,101734,1,2,0:0:0:0:
408,364,101928,1,2,0:0:0:0:
500,284,102121,1,2,0:0:0:0:
512,252,102218,5,4,0:0:0:0:
492,224,102315,1,0,0:0:0:0:
480,196,102412,1,0,0:0:0:0:
480,168,102508,1,0,0:0:0:0:
488,140,102605,2,0,P|484:120|476:104,3,35,2|0|0|0,0:0|0:0|0:0|0:0,0:0:0:0:
428,48,102992,6,0,L|428:12,1,35,4|0,0:0|0:0,0:0:0:0:
316,80,103186,2,0,L|316:44,1,35,2|0,0:0|0:0,0:0:0:0:
84,84,103379,2,0,L|84:48,1,35,2|0,0:0|0:0,0:0:0:0:
196,116,103573,2,0,L|196:80,1,35,2|0,0:0|0:0,0:0:0:0:
288,204,103766,6,0,P|296:264|320:332,1,105,4|0,0:0|0:0,0:0:0:0:
308,306,104154,2,0,P|332:307|365:301,3,35,2|0|0|0,0:0|0:0|0:0|0:0,0:0:0:0:
412,332,104541,1,2,0:0:0:0:
476,260,104734,1,2,0:0:0:0:
500,268,104831,1,0,0:0:0:0:
464,164,105024,1,2,0:0:0:0:
368,132,105218,1,2,0:0:0:0:
352,112,105315,6,0,P|360:52|384:-16,1,105,4|0,0:0|0:0,0:0:0:0:
372,9,105702,2,0,P|396:8|429:13,3,35,2|0|0|0,0:0|0:0|0:0|0:0,0:0:0:0:
440,88,106089,1,2,0:0:0:0:
400,196,106283,1,0,0:0:0:0:
372,204,106379,1,2,0:0:0:0:
476,276,106573,1,0,0:0:0:0:
504,284,106670,1,2,0:0:0:0:
368,328,106863,6,0,P|316:328|276:320,1,70,4|0,0:0|0:0,0:0:0:0:
280,316,107154,1,0,0:0:0:0:
264,296,107250,2,0,P|252:252|252:244,3,35,2|0|0|0,0:0|0:0|0:0|0:0,0:0:0:0:
236,224,107637,1,2,0:0:0:0:
204,244,107734,1,0,0:0:0:0:
164,248,107831,1,0,0:0:0:0:
128,240,107928,1,2,0:0:0:0:
24,184,108121,1,2,0:0:0:0:
4,68,108315,1,2,0:0:0:0:
40,40,108412,5,4,0:0:0:0:
48,80,108508,1,0,0:0:0:0:
76,112,108605,1,0,0:0:0:0:
124,124,108702,1,2,0:0:0:0:
168,100,108799,2,0,P|216:80|300:64,1,131.25,2|2,0:0|0:0,0:0:0:0:
368,96,109186,5,4,0:0:0:0:
404,88,109283,1,0,0:0:0:0:
436,68,109379,1,0,0:0:0:0:
460,44,109476,1,2,0:0:0:0:
456,80,109573,1,2,0:0:0:0:
464,116,109670,1,0,0:0:0:0:
484,148,109766,1,0,0:0:0:0:
508,172,109863,2,0,P|512:200|500:248,1,75.0749997708893,4|0,0:0|0:0,0:0:0:0:
476,348,111508,6,0,P|432:332|336:340,1,140,2|2,0:0|0:0,0:0:0:0:
140,376,112283,2,2,B|216:364|148:296|228:276,1,140,2|0,0:0|0:0,0:0:0:0:
300,272,112863,1,2,0:0:0:0:
352,216,113057,6,0,L|384:152,1,70,4|0,0:0|0:0,0:0:0:0:
476,152,113444,2,0,L|508:216,1,70,2|0,0:0|0:0,0:0:0:0:
428,72,113831,2,2,L|288:36,1,140,4|2,0:0|0:0,0:0:0:0:
160,216,114605,6,0,L|128:152,1,70,4|0,0:0|0:0,0:0:0:0:
36,152,114992,2,0,L|4:216,1,70,2|0,0:0|0:0,0:0:0:0:
84,72,115379,2,2,L|224:36,1,140,4|2,0:0|0:0,0:0:0:0:
364,164,116154,6,0,L|304:124,1,70,4|0,0:0|0:0,0:0:0:0:
148,164,116541,2,0,L|208:124,1,70,2|0,0:0|0:0,0:0:0:0:
256,208,116928,2,2,L|256:352,1,140,4|4,0:0|0:0,0:0:0:0:
256,348,117508,1,2,0:0:0:0:
168,328,117702,6,0,P|108:344|36:312,1,140,2|2,0:0|0:0,0:0:0:0:
172,244,118476,2,2,B|192:188|120:168|148:104,1,140,2|0,0:0|0:0,0:0:0:0:
204,40,119057,1,2,0:0:0:0:
256,132,119250,6,0,L|296:72,1,70,4|0,0:0|0:0,0:0:0:0:
292,216,119637,2,0,L|348:260,1,70,2|0,0:0|0:0,0:0:0:0:
360,148,120024,2,2,L|500:92,1,140,4|2,0:0|0:0,0:0:0:0:
256,132,120799,6,0,L|216:72,1,70,4|0,0:0|0:0,0:0:0:0:
220,216,121186,2,0,L|164:260,1,70,2|0,0:0|0:0,0:0:0:0:
152,148,121573,1,4,0:0:0:0:
22,96,121766,1,0,0:0:0:0:
172,152,121960,1,4,0:0:0:0:
40,104,122154,1,0,0:0:0:0:
68,216,122347,6,2,P|64:284|32:352,1,140,4|2,0:0|0:0,0:0:0:0:
124,336,122928,1,0,0:0:0:0:
200,372,123121,1,4,0:3:0:0:
340,236,123508,5,2,0:0:0:0:
384,332,123702,1,0,0:0:0:0:
412,348,123799,1,0,0:0:0:0:
444,352,123895,5,4,0:0:0:0:
512,240,124089,1,2,0:0:0:0:
476,116,124283,1,2,0:0:0:0:
476,116,124476,1,0,0:0:0:0:
364,312,124670,5,4,0:0:0:0:
432,200,124863,1,2,0:0:0:0:
396,76,125057,1,2,0:0:0:0:
396,76,125250,1,0,0:0:0:0:
320,188,125444,5,4,0:0:0:0:
192,168,125637,1,2,0:0:0:0:
180,152,125831,1,2,0:0:0:0:
332,204,126024,1,0,0:0:0:0:
232,304,126218,5,4,0:0:0:0:
104,324,126412,1,0,0:0:0:0:
244,288,126605,1,2,0:0:0:0:
92,340,126799,1,0,0:0:0:0:
0,216,126992,5,4,0:3:0:0:
0,216,127379,6,2,B|48:220|96:176|92:120|52:40,1,210.000008010865,2|4,0:0|0:0,0:1:0:0:
172,180,127960,2,0,B|162:266,1,87.5,2|0,0:0|0:0,0:0:0:0:
224,36,128347,1,2,0:0:0:0:
356,152,128541,5,4,0:0:0:0:
512,64,128734,1,2,0:0:0:0:
424,192,128928,1,2,0:0:0:0:
444,24,129121,1,0,0:0:0:0:
496,228,129315,1,4,0:0:0:0:
436,112,129702,5,2,0:0:0:0:
404,100,129799,1,0,0:0:0:0:
380,76,129895,1,0,0:0:0:0:
368,44,129992,1,0,0:0:0:0:
364,12,130089,6,0,P|320:4|256:4,1,87.5,4|0,0:0|0:0,0:0:0:0:
260,16,130379,1,0,0:0:0:0:
244,32,130476,2,0,L|252:76,1,43.75,2|0,0:0|0:0,0:0:0:0:
116,100,130670,2,0,L|124:56,1,43.75,2|0,0:0|0:0,0:0:0:0:
196,164,130863,6,0,P|240:156|304:156,1,87.5,4|0,0:0|0:0,0:0:0:0:
300,168,131154,1,0,0:0:0:0:
316,184,131250,2,0,L|308:228,1,43.75,2|0,0:0|0:0,0:0:0:0:
440,256,131444,2,0,L|432:212,1,43.75,2|0,0:0|0:0,0:0:0:0:
496,24,131637,6,0,P|504:68|504:132,1,87.5,4|0,0:0|0:0,0:0:0:0:
492,128,131928,1,0,0:0:0:0:
476,144,132024,2,0,L|432:136,1,43.75,2|0,0:0|0:0,0:0:0:0:
408,272,132218,2,0,L|452:264,1,43.75,2|0,0:0|0:0,0:0:0:0:
252,124,132412,6,0,P|244:168|244:232,1,87.5,4|0,0:0|0:0,0:0:0:0:
256,228,132702,1,0,0:0:0:0:
272,244,132799,2,0,L|316:236,1,43.75,2|0,0:0|0:0,0:0:0:0:
340,372,132992,2,0,L|296:364,1,43.75,2|0,0:0|0:0,0:0:0:0:
168,332,133186,5,4,0:3:0:0:
168,332,133573,6,2,B|132:328|120:296|120:296|96:380|0:384,1,224,2|4,0:0|0:0,0:1:0:0:
32,184,134154,2,0,B|-16:220|16:292,1,90.9999958343508,2|0,0:0|0:0,0:0:0:0:
192,256,134541,2,2,L|224:216,1,35,2|0,0:0|0:0,0:0:0:0:
324,124,134734,5,4,0:0:0:0:
160,40,134928,1,2,0:0:0:0:
352,40,135121,1,2,0:0:0:0:
188,124,135315,1,0,0:0:0:0:
320,256,135508,1,4,0:0:0:0:
256,364,135895,5,4,0:1:0:0:
432,384,136283,5,0,0:0:0:0:
512,304,136670,1,0,0:0:0:0:
476,196,137057,2,0,L|396:184,1,70,2|0,0:0|0:0,0:0:0:0:
328,292,137444,2,0,L|408:280,1,70
244,244,137831,6,0,P|208:212|164:132,1,140,2|0,0:0|0:0,0:0:0:0:
188,44,138412,1,0,0:0:0:0:
336,68,138605,2,0,P|340:124|332:176,1,105,4|0,0:0|0:0,0:0:0:0:
332,172,138992,2,0,L|407:163,1,70,2|0,0:0|0:0,0:0:0:0:
348,284,139379,6,0,P|292:308|232:364,1,140,8|2,0:3|0:0,0:0:0:0:
192,288,139960,1,0,0:0:0:0:
120,332,140154,2,0,P|112:296|100:256,1,70,2|0,0:0|0:0,0:0:0:0:
248,152,140541,2,0,P|240:188|228:228,1,70,2|0,0:0|0:0,0:0:0:0:
52,188,140928,6,0,P|32:136|32:44,1,125.999996154785,4|0,0:0|0:0,0:0:0:0:
44,32,141315,1,2,0:0:0:0:
76,8,141412,1,0,0:0:0:0:
116,4,141508,1,0,0:0:0:0:
152,20,141605,1,0,0:0:0:0:
176,44,141702,2,0,L|180:80,1,35,2|0,0:0|0:0,0:0:0:0:
140,228,141895,2,0,L|136:192,1,35
108,120,142089,2,0,L|104:84,1,35,2|0,0:0|0:0,0:0:0:0:
212,152,142283,2,0,L|216:188,1,35
216,276,142476,5,0,0:0:0:0:
312,336,142863,1,0,0:0:0:0:
424,308,143250,2,0,P|456:292|508:276,1,70,2|0,0:0|0:0,0:0:0:0:
332,236,143637,2,0,P|320:180|316:132,1,105,2|0,0:0|0:0,0:0:0:0:
316,132,144024,6,0,L|235:119,1,70,4|0,0:0|0:0,0:0:0:0:
156,104,144412,1,0,0:0:0:0:
188,188,144605,1,2,0:0:0:0:
28,49,144799,6,0,L|108:36,1,70,8|0,0:3|0:0,0:0:0:0:
188,20,145186,1,2,0:0:0:0:
156,104,145379,1,0,0:0:0:0:
136,124,145476,1,0,0:0:0:0:
112,136,145573,5,4,3:0:0:0:
56,256,145766,1,2,0:0:0:0:
88,144,145960,5,0,3:0:0:0:
136,252,146154,1,0,3:0:0:0:
184,360,146347,1,0,3:0:0:0:
184,360,146734,1,4,3:0:0:0:
304,324,147121,6,0,P|376:300|420:296,1,105,4|0,0:0|0:0,0:0:0:0:
436,300,147508,1,0,3:0:0:0:
464,312,147605,1,2,0:0:0:0:
312,236,147799,1,0,0:0:0:0:
284,224,147895,1,2,0:0:0:0:
252,216,147992,1,0,0:0:0:0:
220,212,148089,1,0,0:0:0:0:
188,212,148186,1,0,0:0:0:0:
156,220,148283,2,0,P|112:220|60:172,1,115.50000352478,4|0,0:0|0:0,0:0:0:0:
36,104,148670,6,2,P|84:88|148:60,1,105,4|0,0:3|0:0,0:0:0:0:
212,16,149057,2,0,P|228:64|256:128,1,105,2|0,0:0|0:0,0:0:0:0:
332,72,149444,2,2,P|380:96|460:44,1,140,4|2,0:0|0:0,0:0:0:0:
452,60,150218,5,8,0:3:0:0:
508,140,150412,1,0,0:0:0:0:
428,184,150605,1,2,0:0:0:0:
452,272,150799,1,0,0:0:0:0:
360,244,150992,2,2,P|340:316|328:384,1,140,4|2,0:0|0:0,0:0:0:0:
240,340,151573,5,0,0:0:0:0:
132,324,151766,1,8,0:3:0:0:
60,212,151960,1,0,0:0:0:0:
120,348,152154,1,2,0:0:0:0:
72,188,152347,1,0,0:0:0:0:
44,348,152541,1,2,0:0:0:0:
192,280,152734,2,0,P|224:236|244:152,1,140,4|0,0:0|0:0,0:0:0:0:
344,80,153315,5,4,3:0:0:0:
376,172,153702,1,0,0:0:0:0:
320,252,154089,2,0,P|368:264|416:304,1,105
411,297,154476,2,0,P|423:262|439:232,1,70,2|0,0:0|0:0,0:0:0:0:
512,200,154863,5,0,0:0:0:0:
376,172,155250,1,0,0:0:0:0:
276,92,155637,2,0,P|208:92|144:76,1,105,2|0,0:0|0:0,0:0:0:0:
171,84,156024,2,0,P|163:40|147:-8,1,70,2|0,0:0|0:0,0:0:0:0:
44,76,156412,5,8,0:3:0:0:
56,176,156605,1,0,0:0:0:0:
152,208,156799,1,2,0:0:0:0:
140,308,156992,1,0,0:0:0:0:
144,116,157186,5,8,0:3:0:0:
132,216,157379,1,0,0:0:0:0:
36,248,157573,1,2,0:0:0:0:
48,348,157766,1,0,0:0:0:0:
144,316,157960,5,4,0:0:0:0:
260,336,158154,1,0,0:0:0:0:
144,224,158347,1,2,0:0:0:0:
164,340,158541,1,0,0:0:0:0:
244,240,158734,2,0,P|308:232|360:188,1,115.50000352478,2|0,0:0|0:0,0:0:0:0:
372,172,159121,2,0,P|360:240|364:300,1,125.999996154785,4|0,0:0|0:0,0:0:0:0:
496,116,159508,6,2,B|468:56|420:72|388:-12,1,157.500006008148,4|0,0:1|0:0,0:0:0:0:
396,8,160283,6,2,P|380:40|348:76,1,78.7500030040742,4|0,0:0|0:0,0:1:0:0:
212,236,160670,2,2,B|100:200|128:132|168:36|52:144|40:36,1,280,2|2,0:0|0:0,0:1:0:0:
248,120,161831,5,8,3:0:0:0:
124,320,162218,1,8,3:0:0:0:
360,336,162605,6,0,P|408:332|456:316,1,70,4|0,0:1|0:0,0:0:0:0:
288,304,162895,1,2,0:0:0:0:
300,296,162992,2,0,P|340:244|368:156,1,157.500006008148,4|2,0:0|0:0,0:0:0:0:
168,252,163379,6,0,P|120:248|72:232,1,70,4|0,0:1|0:0,0:0:0:0:
236,200,163670,1,2,0:0:0:0:
224,208,163766,2,0,P|184:156|156:68,1,157.500006008148,4|2,0:0|0:0,0:0:0:0:
280,128,164154,5,4,0:1:0:0:
348,20,164347,1,2,0:0:0:0:
312,0,164444,1,0,0:0:0:0:
272,0,164541,1,0,0:0:0:0:
356,100,164734,1,2,0:0:0:0:
228,68,164928,1,0,0:0:0:0:
44,92,165218,6,0,L|36:48,1,35,2|0,0:0|0:0,0:0:0:0:
164,120,165508,1,2,0:0:0:0:
92,160,165702,6,0,P|68:220|28:292,1,140,4|0,0:0|0:0,0:0:0:0:
31,286,166283,1,2,0:0:0:0:
180,208,166476,6,0,P|172:264|148:348,1,140,4|0,0:0|0:0,0:0:0:0:
149,344,167057,1,2,0:0:0:0:
272,232,167250,6,0,P|284:300|292:372,1,140,4|0,0:0|0:0,0:0:0:0:
291,370,167831,1,2,0:0:0:0:
360,200,168024,6,0,P|384:236|408:280,1,70,4|0,0:0|0:0,0:0:0:0:
408,112,168412,2,0,P|448:140|480:176,1,70,2|0,0:0|0:0,0:0:0:0:
208,152,168799,6,0,P|200:108|192:80,1,70,4|0,0:0|0:0,0:0:0:0:
300,112,169186,2,0,P|308:68|316:40,1,70,2|0,0:0|0:0,0:0:0:0:
272,232,169573,6,0,P|228:240|200:248,1,70,4|0,0:0|0:0,0:0:0:0:
88,144,169960,2,0,P|96:100|104:72,1,70,2|0,0:0|0:0,0:0:0:0:
240,24,170347,5,4,0:0:0:0:
240,24,170734,1,0,3:0:0:0:
288,100,170928,1,0,3:0:0:0:
336,176,171121,1,0,3:0:0:0:
468,72,171412,6,0,L|476:28,1,35,2|4,0:0|0:0,0:0:0:0:
