osu file format v14

[General]
AudioFilename: audio.mp3
AudioLeadIn: 0
PreviewTime: 23154
Countdown: 0
SampleSet: Soft
StackLeniency: 0.2
Mode: 0
LetterboxInBreaks: 0
WidescreenStoryboard: 1

[Editor]
Bookmarks: 35637,47637,111508,123508,171508
DistanceSpacing: 1
BeatDivisor: 4
GridSize: 4
TimelineZoom: 1.6

[Metadata]
Title:Ayla
TitleUnicode:Ayla
Artist:M2U
ArtistUnicode:M2U
Creator:-Mo-
Version:Normal
Source:
Tags:OWC 2020 qualifier HD1 owc2020qlhd1 StarCastler 四方神's Epilogue 月暈 classical instrumental piano violin duet
BeatmapID:3538801
BeatmapSetID:1280192

[Difficulty]
HPDrainRate:3.6
CircleSize:3.2
OverallDifficulty:4
ApproachRate:3.7
SliderMultiplier:1.1
SliderTickRate:1

[Events]
//Background and Video events
0,0,"bg2.jpg",0,0
//Break Periods
//Storyboard Layer 0 (Background)
//Storyboard Layer 1 (Fail)
//Storyboard Layer 2 (Pass)
//Storyboard Layer 3 (Foreground)
//Storyboard Layer 4 (Overlay)
//Storyboard Sound Samples

[TimingPoints]
25,387.096774193548,4,2,1,30,1,0
25,-125,4,2,1,30,0,0
1573,-125,4,2,1,40,0,0
2347,-125,4,2,1,45,0,0
3508,-125,4,2,1,20,0,0
3895,-125,4,2,1,45,0,0
4670,-100,4,2,1,50,0,0
5444,-125,4,2,1,40,0,0
5831,-125,4,2,1,30,0,0
6218,-125,4,2,1,30,0,0
7766,-125,4,2,1,40,0,0
8541,-125,4,2,1,40,0,0
10476,-125,4,2,1,30,0,0
11250,-125,4,2,1,50,0,0
12315,-125,4,2,1,40,0,0
13186,-125,4,2,1,45,0,0
14734,-125,4,2,1,45,0,0
14928,-125,4,2,1,30,0,0
15315,-125,4,2,1,45,0,0
16283,-125,4,2,1,45,0,0
16670,-125,4,2,1,35,0,0
17057,-125,4,2,1,45,0,0
17250,-125,4,2,1,30,0,0
17831,-125,4,2,1,30,0,0
19766,-125,4,2,1,40,0,0
20154,-125,4,2,1,45,0,0
21702,-125,4,2,1,50,0,0
22476,-125,4,2,1,60,0,0
23057,-125,4,2,1,10,0,0
23250,-100,4,2,1,65,0,1
23541,-100,4,2,1,20,0,1
23637,-100,4,2,1,65,0,1
24024,-100,4,2,1,70,0,1
24315,-100,4,2,1,20,0,1
24412,-100,4,2,1,70,0,1
24799,-100,4,2,1,60,0,1
25089,-100,4,2,1,50,0,1
25573,-100,4,2,1,60,0,1
25960,-100,4,2,1,50,0,1
26250,-100,4,2,1,20,0,1
26347,-100,4,2,1,70,0,1
27024,-100,4,2,1,70,0,1
27895,-125,4,2,1,60,0,1
28089,-125,4,2,1,50,0,0
28283,-125,4,2,1,40,0,0
28476,-125,4,2,1,30,0,0
28670,-125,4,2,1,20,0,0
31766,-125,4,2,1,25,0,0
32541,-125,4,2,1,35,0,0
33315,-125,4,2,1,40,0,0
33508,-125,4,2,1,30,0,0
33702,-125,4,2,1,40,0,0
34476,-125,4,2,1,20,0,0
35250,-125,4,2,1,40,0,0
35637,-125,4,2,1,40,0,0
36605,-125,4,2,1,20,0,0
36799,-125,4,2,1,40,0,0
37186,-125,4,2,1,50,0,0
37573,-125,4,2,1,40,0,0
37960,-125,4,2,1,50,0,0
38154,-125,4,2,1,20,0,0
38347,-125,4,2,1,40,0,0
38734,-125,4,2,1,50,0,0
39121,-125,4,2,1,40,0,0
39508,-125,4,2,1,50,0,0
39702,-125,4,2,1,20,0,0
39895,-125,4,2,1,40,0,0
40283,-125,4,2,1,50,0,0
40670,-125,4,2,1,40,0,0
41057,-125,4,2,1,50,0,0
41250,-125,4,2,1,40,0,0
41444,-125,4,2,1,50,0,0
41831,-125,4,2,1,40,0,0
42605,-125,4,2,1,50,0,0
42799,-125,4,2,1,20,0,0
42992,-125,4,2,1,50,0,0
44347,-125,4,2,1,20,0,0
44541,-125,4,2,1,50,0,0
46476,-125,4,2,1,50,0,0
46670,-125,4,2,1,30,0,0
46863,-125,4,2,1,20,0,0
47637,-125,4,2,1,40,0,0
48024,-100,4,2,1,60,0,0
50347,-100,4,2,1,60,0,0
51508,-100,4,2,1,60,0,0
53444,-100,4,2,1,60,0,0
53637,-100,4,2,1,10,0,0
53831,-100,4,2,1,60,0,0
54992,-100,4,2,1,60,0,0
57315,-100,4,2,1,60,0,0
57702,-100,4,2,1,70,0,0
58670,-100,4,2,1,80,0,0
59637,-100,4,2,1,80,0,0
60024,-100,4,2,1,10,0,0
60412,-100,4,2,1,70,0,0
61186,-100,4,2,1,50,0,0
61960,-100,4,2,1,60,0,0
62734,-100,4,2,1,50,0,0
63121,-100,4,2,1,60,0,0
63508,-100,4,2,1,40,0,0
63895,-100,4,2,1,70,0,1
65057,-100,4,2,1,60,0,1
65250,-100,4,2,1,70,0,1
65831,-100,4,2,1,70,0,0
66218,-100,4,2,1,80,0,0
66412,-100,4,2,1,60,0,0
66605,-100,4,2,1,60,0,0
66992,-100,4,2,1,50,0,0
67379,-125,4,2,1,40,0,0
68154,-125,4,2,1,50,0,0
68928,-125,4,2,1,40,0,0
69315,-125,4,2,1,70,0,0
69702,-100,4,2,1,70,0,0
70089,-100,4,2,1,70,0,1
70476,-100,4,2,1,75,0,1
71250,-100,4,2,1,75,0,1
71444,-100,4,2,1,30,0,1
71541,-100,4,2,1,50,0,1
72024,-100,4,2,1,50,0,1
72218,-100,4,2,1,30,0,1
72412,-100,4,2,1,70,0,1
72799,-125,4,2,1,40,0,0
74347,-125,4,2,1,50,0,0
74395,-125,4,2,1,40,0,0
75895,-125,4,2,1,60,0,0
76089,-125,4,2,1,40,0,0
76670,-125,4,2,1,60,0,0
77444,-125,4,2,1,70,0,0
78799,-125,4,2,1,50,0,0
78992,-125,4,2,1,40,0,0
81702,-125,4,2,1,50,0,0
82283,-125,4,2,1,60,0,0
82912,-125,4,2,1,40,0,0
83057,-125,4,2,1,60,0,0
83637,-125,4,2,1,70,0,0
84024,-100,4,2,1,70,0,1
85089,-100,4,2,1,70,0,0
85379,-100,4,2,1,65,0,0
86734,-100,4,2,1,70,0,0
87508,-100,4,2,1,60,0,0
89057,-100,4,2,1,70,0,1
89734,-100,4,2,1,50,0,0
90024,-100,4,2,1,70,0,0
91573,-100,4,2,1,65,0,0
92928,-100,4,2,1,70,0,0
93702,-100,4,2,1,60,0,0
94670,-100,4,2,1,65,0,0
95250,-100,4,2,1,70,0,0
96412,-100,4,2,1,80,0,1
97573,-125,4,2,1,60,0,0
97670,-125,4,2,1,50,0,0
100670,-125,4,2,1,50,0,0
101444,-125,4,2,1,60,0,0
102218,-125,4,2,1,50,0,0
102992,-125,4,2,1,70,0,0
103766,-125,4,2,1,50,0,0
107637,-125,4,2,1,60,0,0
108412,-125,4,2,1,50,0,0
108605,-125,4,2,1,20,0,0
108702,-125,4,2,1,60,0,0
109476,-166.666666666667,4,2,1,70,0,0
109960,-125,4,2,1,10,0,0
111412,-125,4,2,99,0,0,0
111508,-125,4,2,1,40,0,0
112476,-125,4,2,1,20,0,0
112670,-125,4,2,1,40,0,0
113057,-125,4,2,1,50,0,0
113444,-125,4,2,1,40,0,0
113831,-125,4,2,1,50,0,0
114024,-125,4,2,1,20,0,0
114218,-125,4,2,1,40,0,0
114605,-125,4,2,1,50,0,0
114992,-125,4,2,1,40,0,0
115379,-125,4,2,1,50,0,0
115573,-125,4,2,1,20,0,0
115766,-125,4,2,1,40,0,0
116154,-125,4,2,1,50,0,0
116541,-125,4,2,1,40,0,0
116928,-125,4,2,1,50,0,0
117121,-125,4,2,1,40,0,0
117315,-125,4,2,1,50,0,0
117702,-125,4,2,1,40,0,0
118476,-125,4,2,1,50,0,0
118670,-125,4,2,1,20,0,0
118863,-125,4,2,1,50,0,0
120218,-125,4,2,1,20,0,0
120412,-125,4,2,1,50,0,0
122347,-125,4,2,1,50,0,0
122541,-125,4,2,1,30,0,0
122734,-125,4,2,1,20,0,0
123508,-125,4,2,1,40,0,0
123895,-100,4,2,1,60,0,0
126218,-100,4,2,1,60,0,0
127379,-100,4,2,1,60,0,0
129315,-100,4,2,1,60,0,0
129508,-100,4,2,1,10,0,0
129702,-100,4,2,1,60,0,0
130863,-100,4,2,1,60,0,0
133186,-100,4,2,1,60,0,0
133573,-100,4,2,1,70,0,0
134541,-100,4,2,1,80,0,0
135508,-100,4,2,1,80,0,0
135702,-100,4,2,1,10,0,0
135895,-100,4,2,1,80,0,0
136283,-125,4,2,1,30,0,0
137831,-125,4,2,1,40,0,0
138605,-125,4,2,1,45,0,0
139766,-125,4,2,1,20,0,0
140154,-125,4,2,1,45,0,0
140928,-100,4,2,1,50,0,0
141702,-125,4,2,1,40,0,0
142089,-125,4,2,1,30,0,0
142476,-125,4,2,1,30,0,0
144024,-125,4,2,1,40,0,0
144799,-125,4,2,1,40,0,0
146734,-125,4,2,1,30,0,0
147508,-125,4,2,1,50,0,0
148573,-125,4,2,1,20,0,0
148670,-125,4,2,1,50,0,0
148863,-125,4,2,1,30,0,0
149057,-125,4,2,1,40,0,0
149250,-125,4,2,1,30,0,0
149444,-125,4,2,1,50,0,0
149734,-125,4,2,1,20,0,0
149831,-125,4,2,1,50,0,0
151186,-125,4,2,1,30,0,0
151379,-125,4,2,1,50,0,0
153508,-125,4,2,1,30,0,0
154347,-125,4,2,1,20,0,0
154476,-125,4,2,1,30,0,0
154863,-125,4,2,1,20,0,0
155637,-125,4,2,1,30,0,0
155831,-125,4,2,1,15,0,0
156024,-125,4,2,1,30,0,0
156412,-125,4,2,1,40,0,0
157186,-125,4,2,1,45,0,0
157379,-125,4,2,1,20,0,0
157573,-125,4,2,1,45,0,0
157960,-125,4,2,1,50,0,0
158734,-125,4,2,1,55,0,0
158928,-125,4,2,1,50,0,0
158992,-125,4,2,1,30,0,0
159121,-125,4,2,1,60,0,0
159412,-125,4,2,1,10,0,0
159508,-100,4,2,1,65,0,1
159799,-100,4,2,1,20,0,1
159895,-100,4,2,1,65,0,1
160283,-100,4,2,1,70,0,1
160573,-100,4,2,1,20,0,1
160670,-100,4,2,1,70,0,1
161057,-100,4,2,1,60,0,1
161347,-100,4,2,1,50,0,1
161831,-100,4,2,1,60,0,1
162218,-100,4,2,1,50,0,1
162508,-100,4,2,1,20,0,1
162605,-100,4,2,1,70,0,1
163283,-100,4,2,1,70,0,1
164154,-100,4,2,1,60,0,1
164347,-100,4,2,1,50,0,0
164541,-100,4,2,1,40,0,0
164734,-100,4,2,1,30,0,0
164928,-125,4,2,1,20,0,0
168024,-125,4,2,1,25,0,0
168799,-125,4,2,1,35,0,0
169573,-125,4,2,1,40,0,0
169766,-125,4,2,1,30,0,0
169960,-125,4,2,1,40,0,0
170734,-125,4,2,1,20,0,0
171412,-125,4,2,1,25,0,0
171508,-125,4,2,1,40,0,0

[Colours]
Combo1 : 77,240,249
Combo2 : 10,10,254
Combo3 : 3,155,245
Combo4 : 54,88,248

[HitObjects]
107,333,25,5,0,0:0:0:0:
163,265,412,1,0,0:0:0:0:
107,196,799,2,0,L|102:108,1,88,6|0,0:0|0:0,0:0:0:0:
155,27,1573,6,0,L|259:43,1,88,2|0,0:0|0:0,0:0:0:0:
283,25,2154,1,0,0:0:0:0:
325,15,2347,2,0,L|330:102,1,88,2|0,0:0|0:0,0:0:0:0:
415,156,3121,6,0,L|409:243,1,88,2|0,0:0|0:0,0:0:0:0:
370,322,3895,1,2,0:0:0:0:
287,289,4283,1,0,0:0:0:0:
210,333,4670,2,0,L|32:312,1,165,6|0,0:0|0:0,0:0:0:0:
24,275,5444,1,2,0:0:0:0:
129,237,5831,1,2,0:0:0:0:
207,316,6218,5,0,0:0:0:0:
290,288,6605,1,0,0:0:0:0:
359,341,6992,2,0,L|356:384,2,44,2|0|0,0:0|0:0|0:0,0:0:0:0:
451,292,7766,6,0,L|439:160,1,132,6|0,0:0|0:0,0:0:0:0:
461,122,8541,2,0,L|373:113,1,88,2|0,0:0|0:0,0:0:0:0:
298,51,9315,6,0,L|210:59,1,88,2|2,0:0|0:0,0:0:0:0:
174,85,9895,2,0,L|130:78,1,44,2|2,0:0|0:0,0:0:0:0:
54,122,10476,1,0,0:0:0:0:
105,193,10863,1,6,0:0:0:0:
59,268,11250,6,0,L|31:261,8,22,0|2|0|0|0|2|0|0|2,0:0|0:0|0:0|0:0|0:0|0:0|0:0|0:0|0:0,0:0:0:0:
114,363,12412,6,0,L|201:351,1,88,6|0,0:0|0:0,0:0:0:0:
174,267,13186,2,0,L|185:179,1,88,2|0,0:0|0:0,0:0:0:0:
224,80,13960,6,0,L|213:31,2,44,2|0|2,0:0|0:0|0:0,0:0:0:0:
265,95,14541,1,0,0:0:0:0:
305,77,14734,2,0,L|397:90,1,88,2|0,0:0|0:0,0:0:0:0:
482,144,15508,6,0,L|524:132,2,44,2|0|2,0:0|0:0|0:0,0:0:0:0:
448,172,16089,1,0,0:0:0:0:
427,210,16283,2,0,L|432:253,2,44,2|0|2,0:0|0:0|0:0,0:0:0:0:
341,154,17057,5,6,0:0:0:0:
337,158,17831,2,0,L|242:170,1,88,2|2,0:0|0:0,0:0:0:0:
173,241,18605,6,0,L|181:328,2,88,0|0|2,0:0|0:0|0:0,0:0:0:0:
123,168,19766,1,2,0:0:0:0:
183,86,20154,6,0,L|175:38,2,44,6|0|0,0:0|0:0|0:0,0:0:0:0:
273,108,20928,2,0,L|281:60,2,44,2|0|0,0:0|0:0|0:0,0:0:0:0:
350,159,21702,2,0,L|374:117,2,44,6|0|0,0:0|0:0|0:0,0:0:0:0:
283,237,22476,1,6,0:0:0:0:
358,306,22863,1,2,0:0:0:0:
289,382,23250,6,0,B|235:368|235:368|181:371,1,110,6|0,0:0|0:0,0:0:0:0:
231,273,24024,2,0,B|182:245|182:245|146:205,1,110,6|0,0:0|0:0,0:0:0:0:
55,268,24799,2,0,B|42:393,2,110,6|0|2,0:0|0:0|0:0,0:0:0:0:
100,192,25960,1,0,0:0:0:0:
19,114,26347,6,0,L|183:98,1,165,6|0,0:0|0:0,0:0:0:0:
226,64,27121,2,0,L|390:48,1,165,6|0,0:0|0:0,0:0:0:0:
441,66,27895,1,6,0:0:0:0:
452,153,28283,1,2,0:0:0:0:
463,239,28670,1,2,0:0:0:0:
305,117,29444,6,0,B|226:77|226:77|194:158,3,176,6|2|2|2,0:0|0:0|0:0|0:0,0:0:0:0:
299,263,32541,1,2,0:0:0:0:
169,344,33315,6,0,L|80:320,2,88,6|2|2,0:0|0:0|0:0,0:0:0:0:
412,307,35250,1,2,0:0:0:0:
349,244,35637,5,2,0:0:0:0:
410,181,36024,1,2,0:0:0:0:
361,105,36412,2,0,P|362:62|374:19,1,88,2|0,0:0|0:0,0:0:0:0:
290,0,37186,5,6,0:0:0:0:
132,78,37960,1,2,0:0:0:0:
296,30,38734,1,6,0:0:0:0:
434,133,39508,1,2,0:0:0:0:
263,176,40283,5,6,0:0:0:0:
102,103,41057,2,0,P|103:146|91:189,1,88,6|2,0:0|0:0,0:0:0:0:
130,268,41831,5,2,0:0:0:0:
89,346,42218,1,2,0:0:0:0:
168,382,42605,2,0,P|210:372|254:375,1,88,2|0,0:0|0:0,0:0:0:0:
316,312,43379,5,6,0:0:0:0:
170,212,44154,1,2,0:0:0:0:
327,289,44928,1,6,0:0:0:0:
489,221,45702,1,2,0:0:0:0:
444,145,46089,1,2,0:0:0:0:
490,70,46476,6,0,P|407:97|319:90,1,176,6|2,0:0|0:0,0:0:0:0:
106,36,48024,6,0,P|97:77|100:101,1,55,6|0,0:0|0:0,0:0:0:0:
113,142,48412,1,0,0:0:0:0:
210,192,48799,2,0,P|219:233|216:257,1,55,2|0,0:0|0:0,0:0:0:0:
203,298,49186,1,0,0:0:0:0:
281,373,49573,2,0,P|308:364|335:361,1,55,2|0,0:0|0:0,0:0:0:0:
390,364,49960,1,0,0:0:0:0:
468,286,50347,2,0,P|459:259|456:232,1,55,2|0,0:0|0:0,0:0:0:0:
482,184,50734,1,0,0:0:0:0:
430,86,51121,5,6,0:0:0:0:
334,139,51508,2,0,P|279:142|227:124,1,110,0|2,0:0|0:0,0:0:0:0:
184,90,52089,2,0,P|157:81|130:81,1,55,0|0,0:0|0:0,0:0:0:0:
48,154,52670,6,0,P|55:181|56:209,1,55,6|0,0:0|0:0,0:0:0:0:
33,258,53057,2,0,P|26:285|25:313,1,55,2|0,0:0|0:0,0:0:0:0:
49,361,53444,1,2,0:0:0:0:
266,332,54218,6,0,P|265:304|256:278,1,55,6|0,0:0|0:0,0:0:0:0:
218,238,54605,1,0,0:0:0:0:
114,200,54992,2,0,P|115:172|124:146,1,55,2|0,0:0|0:0,0:0:0:0:
163,106,55379,1,0,0:0:0:0:
256,47,55766,2,0,P|280:58|308:61,1,55,6|0,0:0|0:0,0:0:0:0:
362,46,56153,1,0,0:0:0:0:
470,66,56541,2,0,P|481:91|485:118,1,55,2|0,0:0|0:0,0:0:0:0:
478,172,56928,1,0,0:0:0:0:
410,258,57315,5,6,0:0:0:0:
451,360,57702,2,0,P|397:347|343:352,1,110,0|2,0:0|0:0,0:0:0:0:
299,320,58283,2,0,P|274:331|246:334,1,55,0|0,0:0|0:0,0:0:0:0:
186,243,58863,6,0,P|179:216|178:188,1,55,6|0,0:0|0:0,0:0:0:0:
204,140,59250,1,2,0:0:0:0:
168,97,59444,1,2,0:0:0:0:
199,52,59637,1,2,0:0:0:0:
66,236,60412,5,6,0:0:0:0:
149,307,60799,2,0,L|203:312,1,55,2|0,0:0|0:0,0:0:0:0:
246,278,61186,6,0,L|300:272,1,55,2|0,0:0|0:0,0:0:0:0:
344,305,61573,1,2,0:0:0:0:
417,223,61960,1,2,0:0:0:0:
410,168,62154,1,0,0:0:0:0:
404,113,62347,1,2,0:0:0:0:
301,153,62734,2,0,L|246:147,1,55,2|0,0:0|0:0,0:0:0:0:
193,164,63121,1,2,0:0:0:0:
140,180,63315,1,2,0:0:0:0:
87,195,63508,6,0,L|75:85,1,110,2|6,0:0|0:0,0:0:0:0:
165,20,64283,2,0,L|274:34,1,110,2|2,0:0|0:0,0:0:0:0:
357,105,65057,2,0,L|411:96,2,55,0|2|2,0:0|0:0|0:0,0:0:0:0:
310,134,65637,1,2,0:0:0:0:
262,161,65831,1,2,0:0:0:0:
339,238,66218,1,2,0:0:0:0:
416,315,66605,5,6,0:0:0:0:
320,370,66992,2,0,L|265:377,1,55,2|0,0:0|0:0,0:0:0:0:
230,343,67379,6,0,L|186:337,1,44,2|0,0:0|0:0,0:0:0:0:
142,357,67766,1,2,0:0:0:0:
66,296,68154,1,2,0:0:0:0:
62,247,68347,1,0,0:0:0:0:
58,198,68541,1,2,0:0:0:0:
139,145,68928,2,0,L|182:151,1,44,2|0,0:0|0:0,0:0:0:0:
218,184,69315,1,2,0:0:0:0:
265,173,69508,1,2,0:0:0:0:
312,160,69702,6,0,L|424:178,1,110,0|6,0:0|0:0,0:0:0:0:
371,60,70476,2,0,L|259:78,1,110,0|6,0:0|0:0,0:0:0:0:
153,23,71250,5,6,0:0:0:0:
108,135,71637,1,2,0:0:0:0:
179,232,72024,1,2,0:0:0:0:
117,336,72412,1,6,0:0:0:0:
9,280,72799,6,0,L|19:192,2,88,2|0|2,0:0|0:0|0:0,0:0:0:0:
83,354,73960,2,0,L|125:342,1,44,2|0,0:0|0:0,0:0:0:0:
174,362,74347,2,0,L|217:370,1,44,2|0,0:0|0:0,0:0:0:0:
263,345,74734,2,0,L|349:330,2,88,2|2|2,0:0|0:0|0:0,0:0:0:0:
176,284,75895,6,0,L|171:240,1,44,2|0,0:0|0:0,0:0:0:0:
198,194,76283,1,0,0:0:0:0:
297,157,76670,2,0,L|293:113,1,44,2|2,0:0|0:0,0:0:0:0:
254,76,77057,2,0,L|258:32,1,44,2|2,0:0|0:0,0:0:0:0:
212,7,77444,6,0,L|80:-1,1,132,6|2,0:0|0:0,0:0:0:0:
41,87,78411,1,2,0:0:0:0:
48,134,78605,1,2,0:0:0:0:
138,101,78992,6,0,L|225:94,1,88,6|0,0:0|0:0,0:0:0:0:
316,41,79766,1,2,0:0:0:0:
380,124,80154,1,2,0:0:0:0:
480,90,80541,2,0,L|487:177,1,88,2|0,0:0|0:0,0:0:0:0:
451,277,81315,1,2,0:0:0:0:
349,247,81702,2,0,L|287:244,2,44,2|0|2,0:0|0:0|0:0,0:0:0:0:
391,215,82283,6,0,L|382:171,1,44,2|2,0:0|0:0,0:0:0:0:
401,122,82670,1,2,0:0:0:0:
423,74,82863,1,6,0:0:0:0:
325,33,83250,1,2,0:0:0:0:
227,73,83637,1,2,0:0:0:0:
269,186,84024,6,0,L|259:240,1,55,6|0,0:0|0:0,0:0:0:0:
309,263,84412,2,0,L|318:317,1,55,6|0,0:0|0:0,0:0:0:0:
264,330,84799,2,0,L|254:384,1,55,6|0,0:0|0:0,0:0:0:0:
149,352,85379,5,2,0:0:0:0:
109,313,85573,2,0,L|114:258,1,55,6|0,0:0|0:0,0:0:0:0:
157,223,85960,1,2,0:0:0:0:
81,143,86347,1,2,0:0:0:0:
162,68,86734,2,0,L|215:81,1,55,2|0,0:0|0:0,0:0:0:0:
267,62,87121,1,2,0:0:0:0:
374,41,87508,2,0,L|381:95,1,55,2|0,0:0|0:0,0:0:0:0:
430,120,87895,2,0,L|422:174,1,55,2|0,0:0|0:0,0:0:0:0:
316,223,88476,6,0,L|324:277,2,55,2|2|0,0:0|0:0|0:0,0:0:0:0:
279,181,89057,1,6,0:0:0:0:
178,224,89444,1,6,0:0:0:0:
56,112,90024,6,0,L|45:57,2,55,2|2|0,0:0|0:0|0:0,0:0:0:0:
96,148,90605,2,0,L|206:137,1,110,6|6,0:0|0:0,0:0:0:0:
379,38,91572,5,2,0:0:0:0:
330,11,91766,2,0,L|275:16,1,55,2|0,0:0|0:0,0:0:0:0:
233,52,92153,1,6,0:0:0:0:
132,5,92540,1,2,0:0:0:0:
44,72,92927,2,0,L|37:127,1,55,2|0,0:0|0:0,0:0:0:0:
70,170,93314,1,2,0:0:0:0:
160,232,93701,2,0,L|167:286,1,55,2|0,0:0|0:0,0:0:0:0:
216,311,94088,2,0,L|208:365,1,55,2|0,0:0|0:0,0:0:0:0:
311,296,94670,6,0,L|302:241,2,55,2|2|0,0:0|0:0|0:0,0:0:0:0:
342,340,95250,1,6,0:0:0:0:
443,298,95637,1,6,0:0:0:0:
396,198,96024,5,6,0:0:0:0:
475,92,96412,1,6,0:0:0:0:
430,59,96605,1,0,0:0:0:0:
375,67,96799,1,6,0:0:0:0:
250,13,97186,1,6,0:0:0:0:
134,89,97573,6,0,L|109:266,3,176,6|2|2|2,0:0|0:0|0:0|0:0,0:0:0:0:
218,364,100670,2,0,L|392:344,2,176,2|2|0,0:0|0:0|0:0,0:0:0:0:
59,289,102992,6,0,L|55:246,1,44,2|2,0:0|0:0,0:0:0:0:
94,209,103379,2,0,L|96:165,1,44,2|2,0:0|0:0,0:0:0:0:
129,124,103766,5,6,0:0:0:0:
125,112,104541,1,2,0:0:0:0:
129,100,105315,1,2,0:0:0:0:
125,88,106089,1,2,0:0:0:0:
53,40,106863,5,2,0:0:0:0:
49,52,107638,1,2,0:0:0:0:
53,64,108412,6,0,L|43:151,1,88,0|6,0:0|0:0,0:0:0:0:
95,222,109186,1,2,0:0:0:0:
34,285,109573,2,0,L|363:304,1,329.9999899292,6|2,0:0|0:0,0:0:0:0:
445,273,111895,5,2,0:0:0:0:
395,200,112283,2,0,P|393:156|407:114,1,88,2|0,0:0|0:0,0:0:0:0:
352,45,113057,5,6,0:0:0:0:
181,88,113831,1,2,0:0:0:0:
15,28,114605,1,6,0:0:0:0:
175,100,115379,1,2,0:0:0:0:
11,164,116154,5,6,0:0:0:0:
173,229,116928,2,0,P|163:271|170:314,1,88,6|2,0:0|0:0,0:0:0:0:
232,376,117702,5,2,0:0:0:0:
311,337,118089,1,2,0:0:0:0:
393,366,118476,2,0,P|408:325|408:282,1,88,2|0,0:0|0:0,0:0:0:0:
363,206,119250,5,6,0:0:0:0:
207,123,120025,1,2,0:0:0:0:
367,196,120799,1,6,0:0:0:0:
511,95,121573,1,2,0:0:0:0:
447,34,121960,1,2,0:0:0:0:
369,74,122347,6,0,P|282:68|199:94,1,176,6|2,0:0|0:0,0:0:0:0:
233,235,123895,6,0,P|207:241|180:239,1,55,6|0,0:0|0:0,0:0:0:0:
129,216,124283,1,0,0:0:0:0:
35,158,124670,2,0,P|41:184|39:211,1,55,2|0,0:0|0:0,0:0:0:0:
16,262,125058,1,0,0:0:0:0:
70,356,125444,2,0,P|96:350|123:352,1,55,2|0,0:0|0:0,0:0:0:0:
174,375,125832,1,0,0:0:0:0:
269,321,126218,2,0,P|263:295|265:268,1,55,2|0,0:0|0:0,0:0:0:0:
288,217,126606,1,0,0:0:0:0:
384,268,126992,5,6,0:0:0:0:
479,213,127379,2,0,P|489:158|480:104,1,110,0|2,0:0|0:0,0:0:0:0:
453,56,127960,2,0,P|426:58|399:55,1,55,0|0,0:0|0:0,0:0:0:0:
305,112,128541,6,0,P|298:139|297:167,1,55,6|0,0:0|0:0,0:0:0:0:
320,216,128928,2,0,P|327:243|328:271,1,55,2|0,0:0|0:0,0:0:0:0:
304,319,129315,1,2,0:0:0:0:
89,366,130089,6,0,P|81:339|86:312,1,55,6|0,0:0|0:0,0:0:0:0:
119,268,130476,1,0,0:0:0:0:
214,214,130863,2,0,P|221:187|216:160,1,55,2|0,0:0|0:0,0:0:0:0:
190,112,131250,1,0,0:0:0:0:
290,66,131637,2,0,P|316:74|343:77,1,55,6|0,0:0|0:0,0:0:0:0:
398,70,132024,1,0,0:0:0:0:
468,154,132412,2,0,P|460:180|457:207,1,55,2|0,0:0|0:0,0:0:0:0:
470,261,132799,1,0,0:0:0:0:
508,364,133186,5,6,0:0:0:0:
399,379,133573,2,0,P|344:375|294:352,1,110,0|2,0:0|0:0,0:0:0:0:
252,315,134154,2,0,P|224:319|199:329,1,55,0|0,0:0|0:0,0:0:0:0:
89,334,134734,6,0,P|96:307|97:279,1,55,6|0,0:0|0:0,0:0:0:0:
68,232,135121,1,2,0:0:0:0:
95,184,135315,1,2,0:0:0:0:
65,137,135508,2,0,P|78:85|71:31,1,110,2|2,0:0|0:0,0:0:0:0:
181,3,136283,5,0,0:0:0:0:
234,73,136670,1,0,0:0:0:0:
176,139,137057,2,0,L|181:227,1,88,6|0,0:0|0:0,0:0:0:0:
143,317,137831,6,0,L|229:330,1,88,2|0,0:0|0:0,0:0:0:0:
269,350,138412,1,0,0:0:0:0:
302,321,138605,2,0,L|389:313,1,88,2|0,0:0|0:0,0:0:0:0:
474,268,139379,6,0,L|468:181,1,88,2|0,0:0|0:0,0:0:0:0:
387,216,140153,1,2,0:0:0:0:
310,171,140541,1,0,0:0:0:0:
245,230,140928,2,0,L|80:215,1,165,6|0,0:0|0:0,0:0:0:0:
47,244,141702,1,2,0:0:0:0:
117,330,142089,1,2,0:0:0:0:
225,308,142476,5,0,0:0:0:0:
296,358,142863,1,0,0:0:0:0:
381,334,143250,2,0,L|423:343,2,44,2|0|0,0:0|0:0|0:0,0:0:0:0:
306,272,144024,6,0,L|294:140,1,132,6|0,0:0|0:0,0:0:0:0:
266,106,144799,2,0,L|272:18,1,88,2|0,0:0|0:0,0:0:0:0:
173,33,145573,6,0,L|85:41,1,88,2|2,0:0|0:0,0:0:0:0:
45,59,146153,2,0,L|36:102,1,44,2|2,0:0|0:0,0:0:0:0:
89,172,146734,1,0,0:0:0:0:
46,248,147121,1,6,0:0:0:0:
101,316,147508,6,0,L|104:337,8,22,0|2|0|0|0|2|0|0|2,0:0|0:0|0:0|0:0|0:0|0:0|0:0|0:0|0:0,0:0:0:0:
169,248,148670,6,0,L|258:264,1,88,6|0,0:0|0:0,0:0:0:0:
311,195,149444,2,0,L|398:191,1,88,2|0,0:0|0:0,0:0:0:0:
485,161,150218,6,0,L|488:117,2,44,6|0|0,0:0|0:0|0:0,0:0:0:0:
509,197,150799,1,0,0:0:0:0:
501,240,150992,2,0,L|513:333,1,88,2|0,0:0|0:0,0:0:0:0:
422,340,151766,6,0,L|415:383,2,44,6|0|0,0:0|0:0|0:0,0:0:0:0:
391,307,152347,1,0,0:0:0:0:
364,271,152541,2,0,L|369:227,2,44,2|0|0,0:0|0:0|0:0,0:0:0:0:
296,328,153315,5,6,0:0:0:0:
292,332,154089,2,0,L|204:319,1,88,2|2,0:0|0:0,0:0:0:0:
104,297,154863,6,0,L|111:384,2,88,2|0|2,0:0|0:0|0:0,0:0:0:0:
39,238,156024,1,0,0:0:0:0:
104,178,156412,6,0,L|146:187,2,44,6|0|0,0:0|0:0|0:0,0:0:0:0:
56,104,157186,2,0,L|143:95,1,88,2|0,0:0|0:0,0:0:0:0:
218,49,157960,2,0,L|224:6,2,44,6|0|0,0:0|0:0|0:0,0:0:0:0:
269,126,158734,1,6,0:0:0:0:
222,205,159121,1,2,0:0:0:0:
299,255,159508,6,0,B|353:241|353:241|407:244,1,110,6|0,0:0|0:0,0:0:0:0:
357,146,160282,2,0,B|406:118|406:118|442:78,1,110,6|0,0:0|0:0,0:0:0:0:
496,173,161057,2,0,B|509:298,2,110,6|0|2,0:0|0:0|0:0,0:0:0:0:
425,88,162218,1,0,0:0:0:0:
489,0,162605,6,0,L|325:16,1,165,6|0,0:0|0:0,0:0:0:0:
286,56,163379,2,0,L|122:72,1,165,6|0,0:0|0:0,0:0:0:0:
71,48,164153,1,6,0:0:0:0:
60,135,164541,1,2,0:0:0:0:
49,221,164928,1,2,0:0:0:0:
220,259,165702,6,0,B|299:299|299:299|331:218,3,176,6|2|2|2,0:0|0:0|0:0|0:0,0:0:0:0:
237,106,168799,1,2,0:0:0:0:
90,203,169573,6,0,L|77:290,2,88,6|2|2,0:0|0:0|0:0,0:0:0:0:
423,148,171508,1,6,0:0:0:0:
