osu file format v14

[General]
AudioFilename: audio.mp3
AudioLeadIn: 0
PreviewTime: 23154
Countdown: 0
SampleSet: Soft
StackLeniency: 0.2
Mode: 0
LetterboxInBreaks: 0
WidescreenStoryboard: 1

[Editor]
Bookmarks: 35637,47637,111508,123508,171508
DistanceSpacing: 0.9
BeatDivisor: 4
GridSize: 4
TimelineZoom: 1.6

[Metadata]
Title:Ayla
TitleUnicode:Ayla
Artist:M2U
ArtistUnicode:M2U
Creator:-Mo-
Version:Hard
Source:
Tags:OWC 2020 qualifier HD1 owc2020qlhd1 StarCastler 四方神's Epilogue 月暈 classical instrumental piano violin duet
BeatmapID:3617238
BeatmapSetID:1280192

[Difficulty]
HPDrainRate:5
CircleSize:4
OverallDifficulty:6.4
ApproachRate:7.7
SliderMultiplier:1.4
SliderTickRate:1

[Events]
//Background and Video events
0,0,"bg2.jpg",0,0
//Break Periods
//Storyboard Layer 0 (Background)
//Storyboard Layer 1 (Fail)
//Storyboard Layer 2 (Pass)
//Storyboard Layer 3 (Foreground)
//Storyboard Layer 4 (Overlay)
//Storyboard Sound Samples

[TimingPoints]
25,387.096774193548,4,2,1,30,1,0
25,-153.846153846154,4,2,1,30,0,0
1573,-125,4,2,1,40,0,0
2347,-125,4,2,1,45,0,0
3508,-125,4,2,1,20,0,0
3895,-125,4,2,1,45,0,0
4670,-125,4,2,1,50,0,0
5444,-125,4,2,1,40,0,0
5831,-125,4,2,1,30,0,0
6218,-153.846153846154,4,2,1,30,0,0
7766,-142.857142857143,4,2,1,40,0,0
8541,-142.857142857143,4,2,1,40,0,0
10476,-125,4,2,1,30,0,0
11250,-100,4,2,1,50,0,0
12315,-125,4,2,1,40,0,0
13186,-125,4,2,1,45,0,0
14734,-125,4,2,1,45,0,0
14928,-125,4,2,1,30,0,0
15315,-125,4,2,1,45,0,0
16283,-125,4,2,1,45,0,0
16670,-125,4,2,1,35,0,0
17057,-153.846153846154,4,2,1,45,0,0
17250,-153.846153846154,4,2,1,30,0,0
17831,-153.846153846154,4,2,1,30,0,0
19766,-153.846153846154,4,2,1,40,0,0
20154,-125,4,2,1,45,0,0
21702,-125,4,2,1,50,0,0
22476,-125,4,2,1,60,0,0
23057,-125,4,2,1,10,0,0
23250,-100,4,2,1,65,0,1
23541,-100,4,2,1,20,0,1
23637,-100,4,2,1,65,0,1
24024,-100,4,2,1,70,0,1
24315,-100,4,2,1,20,0,1
24412,-100,4,2,1,70,0,1
24799,-100,4,2,1,60,0,1
25089,-100,4,2,1,50,0,1
25573,-100,4,2,1,60,0,1
25960,-100,4,2,1,50,0,1
26250,-100,4,2,1,20,0,1
26347,-100,4,2,1,70,0,1
27024,-100,4,2,1,70,0,1
27895,-100,4,2,1,60,0,1
28089,-100,4,2,1,50,0,0
28283,-100,4,2,1,40,0,0
28476,-100,4,2,1,30,0,0
28670,-100,4,2,1,20,0,0
29444,-153.846153846154,4,2,1,20,0,0
31766,-153.846153846154,4,2,1,25,0,0
32541,-125,4,2,1,35,0,0
33315,-125,4,2,1,40,0,0
33508,-125,4,2,1,30,0,0
33702,-125,4,2,1,40,0,0
34476,-125,4,2,1,20,0,0
35250,-111.111111111111,4,2,1,40,0,0
35637,-111.111111111111,4,2,1,40,0,0
36605,-111.111111111111,4,2,1,20,0,0
36799,-111.111111111111,4,2,1,40,0,0
37186,-111.111111111111,4,2,1,50,0,0
37573,-111.111111111111,4,2,1,40,0,0
37960,-111.111111111111,4,2,1,50,0,0
38154,-111.111111111111,4,2,1,20,0,0
38347,-111.111111111111,4,2,1,40,0,0
38734,-111.111111111111,4,2,1,50,0,0
39121,-111.111111111111,4,2,1,40,0,0
39508,-111.111111111111,4,2,1,50,0,0
39702,-111.111111111111,4,2,1,20,0,0
39895,-111.111111111111,4,2,1,40,0,0
40283,-111.111111111111,4,2,1,50,0,0
40670,-111.111111111111,4,2,1,40,0,0
41057,-111.111111111111,4,2,1,50,0,0
41250,-111.111111111111,4,2,1,40,0,0
41444,-111.111111111111,4,2,1,50,0,0
41831,-111.111111111111,4,2,1,40,0,0
42605,-111.111111111111,4,2,1,50,0,0
42799,-111.111111111111,4,2,1,20,0,0
42992,-111.111111111111,4,2,1,50,0,0
44347,-111.111111111111,4,2,1,20,0,0
44541,-111.111111111111,4,2,1,50,0,0
46476,-111.111111111111,4,2,1,50,0,0
46670,-111.111111111111,4,2,1,30,0,0
46863,-111.111111111111,4,2,1,20,0,0
47637,-111.111111111111,4,2,1,40,0,0
48024,-100,4,2,1,60,0,0
50347,-100,4,2,1,60,0,0
51508,-100,4,2,1,60,0,0
53444,-100,4,2,1,60,0,0
53637,-100,4,2,1,10,0,0
53831,-100,4,2,1,60,0,0
54992,-100,4,2,1,60,0,0
57315,-100,4,2,1,60,0,0
57702,-100,4,2,1,70,0,0
58670,-100,4,2,1,80,0,0
59637,-153.846153846154,4,2,1,80,0,0
60024,-100,4,2,1,10,0,0
60412,-100,4,2,1,70,0,0
61186,-111.111111111111,4,2,1,50,0,0
61960,-111.111111111111,4,2,1,60,0,0
62734,-111.111111111111,4,2,1,50,0,0
63121,-111.111111111111,4,2,1,60,0,0
63508,-100,4,2,1,40,0,0
63895,-100,4,2,1,70,0,1
65057,-100,4,2,1,60,0,1
65250,-100,4,2,1,70,0,1
65831,-100,4,2,1,70,0,0
66218,-100,4,2,1,80,0,0
66412,-100,4,2,1,60,0,0
66605,-100,4,2,1,60,0,0
66992,-100,4,2,1,50,0,0
67379,-111.111111111111,4,2,1,40,0,0
68154,-111.111111111111,4,2,1,50,0,0
68928,-111.111111111111,4,2,1,40,0,0
69315,-111.111111111111,4,2,1,70,0,0
69702,-100,4,2,1,70,0,0
70089,-100,4,2,1,70,0,1
70476,-100,4,2,1,75,0,1
71250,-100,4,2,1,75,0,1
71444,-100,4,2,1,30,0,1
71541,-100,4,2,1,50,0,1
72024,-100,4,2,1,50,0,1
72218,-100,4,2,1,30,0,1
72412,-100,4,2,1,70,0,1
72799,-111.111111111111,4,2,1,40,0,0
74347,-111.111111111111,4,2,1,50,0,0
74395,-111.111111111111,4,2,1,40,0,0
75895,-111.111111111111,4,2,1,60,0,0
76089,-111.111111111111,4,2,1,40,0,0
76670,-111.111111111111,4,2,1,60,0,0
77444,-100,4,2,1,70,0,0
78799,-100,4,2,1,50,0,0
78992,-111.111111111111,4,2,1,40,0,0
81702,-111.111111111111,4,2,1,50,0,0
82283,-100,4,2,1,60,0,0
82912,-100,4,2,1,40,0,0
83057,-100,4,2,1,60,0,0
83637,-100,4,2,1,70,0,0
84024,-100,4,2,1,70,0,1
85089,-100,4,2,1,70,0,0
85379,-100,4,2,1,65,0,0
86734,-100,4,2,1,70,0,0
87508,-100,4,2,1,60,0,0
89057,-100,4,2,1,70,0,1
89734,-100,4,2,1,50,0,0
90024,-100,4,2,1,70,0,0
91573,-100,4,2,1,65,0,0
92928,-100,4,2,1,70,0,0
93702,-100,4,2,1,60,0,0
94670,-100,4,2,1,65,0,0
95250,-100,4,2,1,70,0,0
96412,-100,4,2,1,80,0,1
97573,-125,4,2,1,60,0,0
97670,-125,4,2,1,50,0,0
100670,-125,4,2,1,50,0,0
101444,-125,4,2,1,60,0,0
102218,-125,4,2,1,50,0,0
102992,-125,4,2,1,70,0,0
103766,-125,4,2,1,50,0,0
107637,-125,4,2,1,60,0,0
108412,-100,4,2,1,50,0,0
108605,-100,4,2,1,20,0,0
108702,-100,4,2,1,60,0,0
109476,-100,4,2,1,70,0,0
109960,-100,4,2,1,10,0,0
111121,-100,4,2,99,5,0,0
111508,-111.111111111111,4,2,1,40,0,0
112476,-111.111111111111,4,2,1,20,0,0
112670,-111.111111111111,4,2,1,40,0,0
113057,-111.111111111111,4,2,1,50,0,0
113444,-111.111111111111,4,2,1,40,0,0
113831,-111.111111111111,4,2,1,50,0,0
114024,-111.111111111111,4,2,1,20,0,0
114218,-111.111111111111,4,2,1,40,0,0
114605,-111.111111111111,4,2,1,50,0,0
114992,-111.111111111111,4,2,1,40,0,0
115379,-111.111111111111,4,2,1,50,0,0
115573,-111.111111111111,4,2,1,20,0,0
115766,-111.111111111111,4,2,1,40,0,0
116154,-111.111111111111,4,2,1,50,0,0
116541,-111.111111111111,4,2,1,40,0,0
116928,-111.111111111111,4,2,1,50,0,0
117121,-111.111111111111,4,2,1,40,0,0
117315,-111.111111111111,4,2,1,50,0,0
117702,-111.111111111111,4,2,1,40,0,0
118476,-111.111111111111,4,2,1,50,0,0
118670,-111.111111111111,4,2,1,20,0,0
118863,-111.111111111111,4,2,1,50,0,0
120218,-111.111111111111,4,2,1,20,0,0
120412,-111.111111111111,4,2,1,50,0,0
122347,-111.111111111111,4,2,1,50,0,0
122541,-111.111111111111,4,2,1,30,0,0
122734,-111.111111111111,4,2,1,20,0,0
123508,-111.111111111111,4,2,1,40,0,0
123895,-100,4,2,1,60,0,0
126218,-100,4,2,1,60,0,0
127379,-100,4,2,1,60,0,0
129315,-100,4,2,1,60,0,0
129508,-100,4,2,1,10,0,0
129702,-100,4,2,1,60,0,0
130863,-100,4,2,1,60,0,0
133186,-100,4,2,1,60,0,0
133573,-100,4,2,1,70,0,0
134541,-100,4,2,1,80,0,0
135508,-100,4,2,1,80,0,0
135702,-100,4,2,1,10,0,0
135895,-100,4,2,1,80,0,0
136283,-153.846153846154,4,2,1,30,0,0
137831,-125,4,2,1,40,0,0
138605,-125,4,2,1,45,0,0
139766,-125,4,2,1,20,0,0
140154,-125,4,2,1,45,0,0
140928,-125,4,2,1,50,0,0
141702,-125,4,2,1,40,0,0
142089,-125,4,2,1,30,0,0
142476,-153.846153846154,4,2,1,30,0,0
144024,-142.857142857143,4,2,1,40,0,0
144799,-142.857142857143,4,2,1,40,0,0
146734,-125,4,2,1,30,0,0
147508,-100,4,2,1,50,0,0
148573,-125,4,2,1,20,0,0
148670,-125,4,2,1,50,0,0
148863,-125,4,2,1,30,0,0
149057,-125,4,2,1,40,0,0
149250,-125,4,2,1,30,0,0
149444,-125,4,2,1,50,0,0
149734,-125,4,2,1,20,0,0
149831,-125,4,2,1,50,0,0
151186,-125,4,2,1,30,0,0
151379,-125,4,2,1,50,0,0
153315,-153.846153846154,4,2,1,50,0,0
153508,-153.846153846154,4,2,1,30,0,0
154476,-153.846153846154,4,2,1,30,0,0
154863,-153.846153846154,4,2,1,20,0,0
155637,-153.846153846154,4,2,1,30,0,0
155831,-153.846153846154,4,2,1,15,0,0
156024,-153.846153846154,4,2,1,30,0,0
156412,-125,4,2,1,40,0,0
157186,-125,4,2,1,45,0,0
157379,-125,4,2,1,20,0,0
157573,-125,4,2,1,45,0,0
157960,-125,4,2,1,50,0,0
158734,-125,4,2,1,55,0,0
158928,-125,4,2,1,50,0,0
158992,-125,4,2,1,30,0,0
159121,-125,4,2,1,60,0,0
159315,-125,4,2,1,20,0,0
159508,-100,4,2,1,65,0,1
159799,-100,4,2,1,20,0,1
159895,-100,4,2,1,65,0,1
160283,-100,4,2,1,70,0,1
160573,-100,4,2,1,20,0,1
160670,-100,4,2,1,70,0,1
161057,-100,4,2,1,60,0,1
161347,-100,4,2,1,50,0,1
161831,-100,4,2,1,60,0,1
162218,-100,4,2,1,50,0,1
162508,-100,4,2,1,20,0,1
162605,-100,4,2,1,70,0,1
163283,-100,4,2,1,70,0,1
164154,-100,4,2,1,60,0,1
164347,-100,4,2,1,50,0,0
164541,-100,4,2,1,40,0,0
164734,-100,4,2,1,30,0,0
164928,-100,4,2,1,20,0,0
165702,-153.846153846154,4,2,1,20,0,0
168024,-153.846153846154,4,2,1,25,0,0
168799,-125,4,2,1,35,0,0
169573,-125,4,2,1,40,0,0
169766,-125,4,2,1,30,0,0
169960,-125,4,2,1,40,0,0
170734,-125,4,2,1,20,0,0
171412,-125,4,2,1,25,0,0
171508,-125,4,2,1,40,0,0

[Colours]
Combo1 : 77,240,249
Combo2 : 10,10,254
Combo3 : 3,155,245
Combo4 : 54,88,248

[HitObjects]
58,317,25,5,0,0:0:0:0:
141,301,412,1,0,0:0:0:0:
224,282,799,2,0,L|219:236,1,45.4999979171754,6|0,0:0|0:0,0:0:0:0:
175,204,1186,2,0,L|178:158,1,45.4999979171754,0|0,0:0|0:0,0:0:0:0:
119,108,1573,6,0,L|230:99,1,112,2|0,0:0|0:0,0:0:0:0:
272,138,2154,1,0,0:0:0:0:
276,142,2347,2,0,L|387:151,1,112,2|0,0:0|0:0,0:0:0:0:
483,0,3121,6,0,L|486:111,1,112,2|0,0:0|0:0,0:0:0:0:
455,219,3895,1,2,0:0:0:0:
496,258,4089,1,0,0:0:0:0:
470,305,4283,2,0,L|475:360,1,56
387,384,4670,5,6,0:0:0:0:
326,340,4863,2,0,L|323:312,5,28,0|0|0|0|0|0,0:0|0:0|0:0|0:0|0:0|0:0,0:0:0:0:
346,278,5444,2,0,L|234:283,1,112,2|2,0:0|0:0,0:0:0:0:
88,351,6218,5,0,0:0:0:0:
77,267,6605,1,0,0:0:0:0:
66,183,6992,2,0,L|21:190,2,45.4999979171754,2|0|0,0:0|0:0|0:0,0:0:0:0:
179,100,7766,6,0,L|168:197,1,97.9999970092774,6|0,0:0|0:0,0:0:0:0:
213,235,8347,1,0,0:0:0:0:
217,239,8541,2,0,L|225:336,1,97.9999970092774,2|0,0:0|0:0,0:0:0:0:
374,314,9315,6,0,L|422:308,1,48.9999985046387,2|0,0:0|0:0,0:0:0:0:
384,239,9702,1,2,0:0:0:0:
331,256,9895,1,0,0:0:0:0:
314,206,10089,1,2,0:0:0:0:
374,314,10476,1,0,0:0:0:0:
455,212,10863,1,6,0:0:0:0:
326,193,11250,6,0,L|291:196,8,35,0|2|0|0|0|2|0|0|2,0:0|0:0|0:0|0:0|0:0|0:0|0:0|0:0|0:0,0:0:0:0:
188,296,12412,6,0,L|177:184,1,112,6|0,0:0|0:0,0:0:0:0:
130,191,12992,1,0,0:0:0:0:
126,195,13186,2,0,L|130:139,1,56,2|0,0:0|0:0,0:0:0:0:
72,148,13573,2,0,L|66:92,1,56,0|0,0:0|0:0,0:0:0:0:
107,18,13960,6,0,L|162:23,1,56,2|0,0:0|0:0,0:0:0:0:
214,75,14347,1,2,0:0:0:0:
216,81,14541,1,0,0:0:0:0:
285,65,14734,2,0,L|277:10,2,56,2|0|0,0:0|0:0|0:0,0:0:0:0:
367,94,15315,5,2,0:0:0:0:
305,146,15508,2,0,L|300:201,1,56,2|0,0:0|0:0,0:0:0:0:
360,255,15895,2,0,L|364:310,1,56,2|0,0:0|0:0,0:0:0:0:
284,324,16283,1,2,0:0:0:0:
342,384,16476,1,0,0:0:0:0:
422,361,16670,1,2,0:0:0:0:
426,357,16863,1,0,0:0:0:0:
346,289,17057,6,0,L|349:243,1,45.4999979171754,6|0,0:0|0:0,0:0:0:0:
401,230,17444,2,0,L|404:184,1,45.4999979171754,0|0,0:0|0:0,0:0:0:0:
358,158,17831,2,0,L|312:155,2,45.4999979171754,2|0|2,0:0|0:0|0:0,0:0:0:0:
395,139,18412,1,0,0:0:0:0:
464,189,18605,5,0,0:0:0:0:
443,305,18992,1,0,0:0:0:0:
339,249,19379,2,0,L|294:255,1,45.4999979171754,2|0,0:0|0:0,0:0:0:0:
255,290,19766,2,0,L|210:284,1,45.4999979171754,2|0,0:0|0:0,0:0:0:0:
129,331,20154,6,0,L|126:275,1,56,6|0,0:0|0:0,0:0:0:0:
85,241,20541,1,0,0:0:0:0:
90,228,20734,1,0,0:0:0:0:
161,203,20928,6,0,L|163:147,1,56,2|0,0:0|0:0,0:0:0:0:
220,102,21315,1,0,0:0:0:0:
215,80,21508,1,0,0:0:0:0:
136,16,21702,6,0,L|130:71,1,56,6|0,0:0|0:0,0:0:0:0:
68,115,22089,1,0,0:0:0:0:
113,176,22283,1,0,0:0:0:0:
40,227,22476,6,0,L|45:310,1,84,6|0,0:0|0:0,0:0:0:0:
69,329,22863,2,0,L|61:384,1,56,2|0,0:0|0:0,0:0:0:0:
171,321,23250,6,0,L|310:330,1,140,6|0,0:0|0:0,0:0:0:0:
361,59,24024,6,0,L|221:68,1,140,6|0,0:0|0:0,0:0:0:0:
151,114,24605,1,0,0:0:0:0:
81,66,24799,1,6,0:0:0:0:
18,121,24992,1,0,0:0:0:0:
16,127,25089,1,0,0:0:0:0:
14,133,25186,2,0,L|17:202,1,70,2|0,0:0|0:0,0:0:0:0:
60,266,25573,5,2,0:0:0:0:
60,266,25960,2,0,L|164:256,1,105,0|0,0:0|0:0,0:0:0:0:
188,273,26347,5,6,0:0:0:0:
320,222,26637,2,0,L|323:256,1,35,2|2,0:0|0:0,0:0:0:0:
200,139,27121,5,6,0:0:0:0:
333,169,27412,2,0,L|330:203,1,35,2|2,0:0|0:0,0:0:0:0:
229,20,27895,5,6,0:0:0:0:
289,68,28089,1,0,0:0:0:0:
295,70,28186,1,0,0:0:0:0:
301,72,28283,1,2,0:0:0:0:
248,130,28476,1,0,0:0:0:0:
265,157,28670,1,2,0:0:0:0:
216,274,28960,6,0,L|181:268,1,35,0|2,0:0|0:0,0:0:0:0:
156,200,29250,1,0,0:0:0:0:
199,140,29444,6,0,L|191:95,2,45.4999979171754,6|0|0,0:0|0:0|0:0,0:0:0:0:
240,177,30024,1,0,0:0:0:0:
310,210,30218,6,0,L|317:165,2,45.4999979171754,2|0|0,0:0|0:0|0:0,0:0:0:0:
269,247,30799,1,0,0:0:0:0:
233,319,30992,6,0,L|278:322,1,45.4999979171754,2|0,0:0|0:0,0:0:0:0:
321,357,31379,1,0,0:0:0:0:
336,355,31573,1,0,0:0:0:0:
404,321,31766,6,0,L|407:275,1,45.4999979171754,2|0,0:0|0:0,0:0:0:0:
442,233,32153,1,0,0:0:0:0:
440,218,32347,1,0,0:0:0:0:
459,142,32541,6,0,L|403:149,1,56,2|0,0:0|0:0,0:0:0:0:
353,127,32928,1,0,0:0:0:0:
353,127,33315,6,0,L|241:118,1,112,6|2,0:0|0:0,0:0:0:0:
237,168,33895,1,0,0:0:0:0:
233,218,34089,1,2,0:0:0:0:
179,279,34476,5,0,0:0:0:0:
201,312,34669,1,0,0:0:0:0:
193,338,34863,1,0,0:0:0:0:
318,239,35250,5,2,0:0:0:0:
174,97,35637,5,2,0:0:0:0:
262,165,36024,1,2,0:0:0:0:
362,115,36412,2,0,P|393:124|424:126,1,62.9999980773926,2|0,0:0|0:0,0:0:0:0:
492,95,36799,1,0,0:0:0:0:
498,109,36992,1,0,0:0:0:0:
447,199,37186,6,0,P|446:230|456:259,1,62.9999980773926,6|0,0:0|0:0,0:0:0:0:
408,319,37573,1,0,0:0:0:0:
393,315,37766,1,0,0:0:0:0:
341,253,37960,6,0,P|316:272|286:282,1,62.9999980773926,2|0,0:0|0:0,0:0:0:0:
217,312,38347,1,0,0:0:0:0:
216,297,38541,1,0,0:0:0:0:
156,248,38734,6,0,P|171:220|177:189,1,62.9999980773926,6|0,0:0|0:0,0:0:0:0:
139,125,39121,1,0,0:0:0:0:
125,120,39315,1,0,0:0:0:0:
55,62,39508,6,0,P|40:89|34:120,1,62.9999980773926,2|0,0:0|0:0,0:0:0:0:
67,190,39895,1,0,0:0:0:0:
82,187,40089,1,0,0:0:0:0:
85,269,40283,6,0,P|115:263|147:265,1,62.9999980773926,6|0,0:0|0:0,0:0:0:0:
194,326,40670,1,0,0:0:0:0:
209,329,40864,1,0,0:0:0:0:
276,287,41057,6,0,P|265:240|266:193,1,94.499997116089,6|0,0:0|0:0,0:0:0:0:
278,177,41444,2,0,P|284:146|279:115,1,62.9999980773926,2|0,0:0|0:0,0:0:0:0:
244,47,41831,5,2,0:0:0:0:
145,103,42218,1,2,0:0:0:0:
53,38,42605,2,0,P|41:68|38:99,1,62.9999980773926,2|0,0:0|0:0,0:0:0:0:
15,170,42992,1,0,0:0:0:0:
22,184,43186,1,0,0:0:0:0:
49,268,43379,6,0,P|79:256|110:253,1,62.9999980773926,6|0,0:0|0:0,0:0:0:0:
154,189,43766,1,0,0:0:0:0:
167,197,43960,1,0,0:0:0:0:
244,154,44154,6,0,P|232:126|230:94,1,62.9999980773926,2|0,0:0|0:0,0:0:0:0:
276,34,44541,1,0,0:0:0:0:
292,31,44734,1,0,0:0:0:0:
358,96,44928,6,0,P|388:101|420:97,1,62.9999980773926,6|0,0:0|0:0,0:0:0:0:
490,65,45315,1,0,0:0:0:0:
502,56,45508,1,0,0:0:0:0:
476,144,45702,6,0,P|476:176|485:206,1,62.9999980773926,2|0,0:0|0:0,0:0:0:0:
428,257,46089,1,2,0:0:0:0:
463,276,46283,1,0,0:0:0:0:
377,316,46476,6,0,P|253:293|130:315,1,251.999992309571,6|0,0:0|0:0,0:0:0:0:
32,205,47637,6,0,P|45:176|47:145,1,62.9999980773926,2|0,0:0|0:0,0:0:0:0:
36,110,47928,1,0,0:0:0:0:
34,104,48024,2,0,P|34:69|49:37,1,70,6|0,0:0|0:0,0:0:0:0:
124,7,48412,1,0,0:0:0:0:
147,80,48605,1,0,0:0:0:0:
211,123,48799,2,0,P|203:157|209:191,1,70,2|0,0:0|0:0,0:0:0:0:
165,254,49186,1,0,0:0:0:0:
178,329,49379,1,0,0:0:0:0:
251,308,49573,6,0,P|286:304|320:311,1,70,2|0,0:0|0:0,0:0:0:0:
388,273,49960,1,0,0:0:0:0:
354,204,50154,1,0,0:0:0:0:
396,140,50347,2,0,P|408:107|411:72,1,70,2|0,0:0|0:0,0:0:0:0:
352,23,50734,1,0,0:0:0:0:
289,67,50928,1,0,0:0:0:0:
221,32,51121,6,0,P|186:34|153:23,1,70,6|0,0:0|0:0,0:0:0:0:
217,36,51508,2,0,P|229:86|222:138,1,105,0|0,0:0|0:0,0:0:0:0:
207,171,51895,2,0,P|196:205|196:239,1,70,2|0,0:0|0:0,0:0:0:0:
228,317,52283,1,0,0:0:0:0:
313,253,52476,1,0,0:0:0:0:
395,319,52670,6,0,P|429:328|458:348,1,70,6|0,0:0|0:0,0:0:0:0:
466,243,53057,1,2,0:0:0:0:
391,315,53250,1,0,0:0:0:0:
313,253,53444,1,2,0:0:0:0:
454,144,53831,6,0,L|450:109,3,35,0|0|0|0,0:0|0:0|0:0|0:0,0:0:0:0:
421,74,54218,6,0,P|391:91|357:100,1,70,6|0,0:0|0:0,0:0:0:0:
280,106,54605,1,0,0:0:0:0:
212,68,54799,1,0,0:0:0:0:
175,0,54992,1,2,0:0:0:0:
181,76,55186,1,0,0:0:0:0:
151,146,55379,1,0,0:0:0:0:
92,196,55573,1,0,0:0:0:0:
16,207,55766,6,0,P|20:172|36:141,1,70,6|0,0:0|0:0,0:0:0:0:
107,112,56154,1,0,0:0:0:0:
179,137,56347,1,0,0:0:0:0:
210,207,56541,1,2,0:0:0:0:
238,278,56734,1,0,0:0:0:0:
311,303,56928,1,0,0:0:0:0:
383,278,57121,1,0,0:0:0:0:
414,208,57315,6,0,P|408:173|391:143,1,70,6|0,0:0|0:0,0:0:0:0:
304,83,57702,2,0,P|288:132|294:184,1,105,0|0,0:0|0:0,0:0:0:0:
324,208,58089,2,0,P|335:240|336:275,1,70,2|0,0:0|0:0,0:0:0:0:
288,336,58476,1,0,0:0:0:0:
215,260,58670,1,2,0:0:0:0:
134,326,58863,6,0,P|100:335|71:355,1,70,6|0,0:0|0:0,0:0:0:0:
63,250,59250,1,2,0:0:0:0:
138,322,59443,1,2,0:0:0:0:
215,260,59637,2,0,P|259:251|304:257,1,90.9999958343508,2|0,0:0|0:0,0:0:0:0:
415,63,60412,6,0,L|411:167,1,105,6|0,0:0|0:0,0:0:0:0:
438,190,60799,1,2,0:0:0:0:
396,255,60992,1,2,0:0:0:0:
434,323,61186,6,0,L|442:353,2,31.4999990386963,2|0|0,0:0|0:0|0:0,0:0:0:0:
362,350,61573,2,0,L|353:380,2,31.4999990386963,2|0|0,0:0|0:0|0:0,0:0:0:0:
301,304,61960,5,2,0:0:0:0:
299,298,62057,1,0,0:0:0:0:
297,292,62153,1,0,0:0:0:0:
242,239,62347,1,2,0:0:0:0:
244,233,62444,1,0,0:0:0:0:
246,227,62540,1,0,0:0:0:0:
311,184,62734,6,0,L|341:192,2,31.4999990386963,2|0|0,0:0|0:0|0:0,0:0:0:0:
264,123,63121,1,2,0:0:0:0:
174,163,63315,1,2,0:0:0:0:
86,121,63508,6,0,L|77:16,1,105,2|2,0:0|0:0,0:0:0:0:
55,7,63895,2,0,L|21:12,2,35,6|0|0,0:0|0:0|0:0,0:0:0:0:
152,55,64283,1,2,0:0:0:0:
216,12,64476,1,2,0:0:0:0:
226,10,64573,1,0,0:0:0:0:
236,8,64670,1,2,0:0:0:0:
354,172,65057,5,0,0:0:0:0:
419,132,65250,1,2,0:0:0:0:
417,121,65347,1,0,0:0:0:0:
415,110,65444,1,2,0:0:0:0:
358,58,65637,1,2,0:0:0:0:
447,43,65831,1,2,0:0:0:0:
245,0,66218,2,0,L|236:69,1,70,2|0,0:0|0:0,0:0:0:0:
284,133,66605,5,6,0:0:0:0:
233,268,66992,1,2,0:0:0:0:
261,340,67186,1,2,0:0:0:0:
189,368,67379,2,0,L|157:363,2,31.4999990386963,2|0|0,0:0|0:0|0:0,0:0:0:0:
120,302,67766,2,0,L|88:306,2,31.4999990386963,2|0|0,0:0|0:0|0:0,0:0:0:0:
27,264,68154,5,2,0:0:0:0:
29,258,68251,1,0,0:0:0:0:
31,252,68347,1,0,0:0:0:0:
86,199,68541,1,2,0:0:0:0:
84,193,68638,1,0,0:0:0:0:
82,187,68734,1,0,0:0:0:0:
24,132,68928,6,0,L|29:100,2,31.4999990386963,2|0|0,0:0|0:0|0:0,0:0:0:0:
80,181,69315,1,2,0:0:0:0:
168,138,69509,1,2,0:0:0:0:
240,204,69702,5,0,0:0:0:0:
313,164,69895,1,2,0:0:0:0:
322,168,69992,1,0,0:0:0:0:
331,171,70089,2,0,L|420:162,1,70,6|0,0:0|0:0,0:0:0:0:
285,94,70476,5,0,0:0:0:0:
212,54,70669,1,2,0:0:0:0:
203,58,70766,1,0,0:0:0:0:
194,61,70863,2,0,L|105:52,1,70,6|0,0:0|0:0,0:0:0:0:
261,2,71250,6,0,L|330:-1,1,70,6|0,0:0|0:0,0:0:0:0:
350,15,71541,1,2,0:0:0:0:
360,16,71637,1,2,0:0:0:0:
323,83,71831,1,2,0:0:0:0:
355,151,72024,1,2,0:0:0:0:
465,44,72412,1,6,0:0:0:0:
496,187,72799,6,0,L|490:249,1,62.9999980773926,2|0,0:0|0:0,0:0:0:0:
469,277,73089,1,2,0:0:0:0:
473,285,73186,1,0,0:0:0:0:
410,330,73379,1,0,0:0:0:0:
353,277,73573,2,0,L|290:272,1,62.9999980773926,2|0,0:0|0:0,0:0:0:0:
234,325,73960,2,0,L|202:328,3,31.4999990386963,2|0|2|0,0:0|0:0|0:0|0:0,0:0:0:0:
174,307,74347,6,0,L|182:244,1,62.9999980773926,2|0,0:0|0:0,0:0:0:0:
99,224,74734,2,0,L|90:161,1,62.9999980773926,2|0,0:0|0:0,0:0:0:0:
149,93,75121,1,2,0:0:0:0:
188,272,75508,2,0,L|219:268,3,31.4999990386963,2|0|2|0,0:0|0:0|0:0|0:0,0:0:0:0:
245,240,75895,6,0,L|252:178,1,62.9999980773926,2|0,0:0|0:0,0:0:0:0:
315,104,76283,2,0,L|320:135,3,31.4999990386963,0|0|0|0,0:0|0:0|0:0|0:0,0:0:0:0:
354,161,76670,6,0,L|347:223,1,62.9999980773926,2|2,0:0|0:0,0:0:0:0:
434,208,77057,1,2,0:0:0:0:
406,291,77250,1,2,0:0:0:0:
503,279,77444,1,6,0:0:0:0:
464,371,77637,5,2,0:0:0:0:
453,372,77734,1,0,0:0:0:0:
442,373,77831,2,0,L|385:364,2,35,0|0|2,0:0|0:0|0:0,0:0:0:0:
356,312,78218,1,2,0:0:0:0:
345,313,78315,1,0,0:0:0:0:
334,314,78412,2,0,L|277:323,2,35,2|0|2,0:0|0:0|0:0,0:0:0:0:
388,246,78799,1,0,0:0:0:0:
322,202,78992,6,0,L|330:139,1,62.9999980773926,6|0,0:0|0:0,0:0:0:0:
259,74,79379,2,0,L|263:105,3,31.4999990386963,2|0|0|0,0:0|0:0|0:0|0:0,0:0:0:0:
251,133,79766,2,0,L|173:128,1,62.9999980773926,2|0,0:0|0:0,0:0:0:0:
115,194,80154,2,0,L|146:190,3,31.4999990386963,2|0|0|0,0:0|0:0|0:0|0:0,0:0:0:0:
180,212,80541,5,2,0:0:0:0:
137,275,80734,1,0,0:0:0:0:
184,335,80928,2,0,L|215:329,3,31.4999990386963,2|0|0|0,0:0|0:0|0:0|0:0,0:0:0:0:
242,304,81315,2,0,L|303:321,1,62.9999980773926,2|0,0:0|0:0,0:0:0:0:
368,285,81702,5,2,0:0:0:0:
350,211,81895,1,2,0:0:0:0:
352,201,81992,1,0,0:0:0:0:
355,192,82089,1,2,0:0:0:0:
407,137,82283,5,2,0:0:0:0:
323,126,82476,1,2,0:0:0:0:
239,116,82670,1,2,0:0:0:0:
155,106,82863,1,6,0:0:0:0:
189,182,83057,1,2,0:0:0:0:
222,258,83250,1,2,0:0:0:0:
256,334,83444,1,0,0:0:0:0:
139,270,83637,5,2,0:0:0:0:
383,246,84024,5,6,0:0:0:0:
386,235,84121,1,0,0:0:0:0:
389,224,84218,1,0,0:0:0:0:
318,189,84412,1,6,0:0:0:0:
315,178,84509,1,0,0:0:0:0:
312,167,84606,1,0,0:0:0:0:
377,122,84799,1,6,0:0:0:0:
380,111,84896,1,0,0:0:0:0:
383,100,84993,1,0,0:0:0:0:
236,156,85379,5,2,0:0:0:0:
174,105,85573,2,0,L|139:101,3,35,6|0|0|0,0:0|0:0|0:0|0:0,0:0:0:0:
111,122,85960,1,2,0:0:0:0:
153,189,86154,1,0,0:0:0:0:
106,252,86347,2,0,L|100:286,3,35,2|0|0|0,0:0|0:0|0:0|0:0,0:0:0:0:
137,331,86734,6,0,L|171:326,3,35,2|0|0|0,0:0|0:0|0:0|0:0,0:0:0:0:
198,296,87121,2,0,L|232:300,3,35,2|0|0|0,0:0|0:0|0:0|0:0,0:0:0:0:
271,337,87508,1,2,0:0:0:0:
344,302,87702,1,0,0:0:0:0:
289,246,87895,1,2,0:0:0:0:
285,235,87992,1,0,0:0:0:0:
282,224,88089,2,0,L|286:189,1,35,0|0,0:0|0:0,0:0:0:0:
150,89,88476,5,2,0:0:0:0:
159,93,88573,1,0,0:0:0:0:
168,96,88670,2,0,L|202:90,3,35,2|0|0|0,0:0|0:0|0:0|0:0,0:0:0:0:
241,62,89057,5,6,0:0:0:0:
238,48,89154,1,0,0:0:0:0:
235,34,89250,1,0,0:0:0:0:
315,88,89444,5,6,0:0:0:0:
318,74,89541,1,0,0:0:0:0:
321,60,89637,2,0,L|328:25,1,35,0|0,0:0|0:0,0:0:0:0:
419,133,90024,5,2,0:0:0:0:
357,191,90218,2,0,L|349:225,3,35,2|0|0|0,0:0|0:0|0:0|0:0,0:0:0:0:
397,248,90605,2,0,L|431:242,3,35,6|0|0|0,0:0|0:0|0:0|0:0,0:0:0:0:
436,294,90992,2,0,L|428:328,3,35,6|0|0|0,0:0|0:0|0:0|0:0,0:0:0:0:
260,357,91573,5,2,0:0:0:0:
318,296,91766,2,0,L|316:261,3,35,2|0|0|0,0:0|0:0|0:0|0:0,0:0:0:0:
291,235,92153,1,6,0:0:0:0:
345,175,92347,1,0,0:0:0:0:
292,115,92540,2,0,L|257:108,3,35,2|0|0|0,0:0|0:0|0:0|0:0,0:0:0:0:
209,138,92927,6,0,L|213:172,3,35,2|0|0|0,0:0|0:0|0:0|0:0,0:0:0:0:
181,196,93315,2,0,L|176:230,3,35,2|0|0|0,0:0|0:0|0:0|0:0,0:0:0:0:
199,273,93701,1,2,0:0:0:0:
125,304,93895,1,0,0:0:0:0:
70,245,94089,1,2,0:0:0:0:
68,234,94186,1,0,0:0:0:0:
66,223,94283,2,0,L|60:188,2,35,0|0|0,0:0|0:0|0:0,0:0:0:0:
157,266,94670,5,2,0:0:0:0:
218,216,94863,2,0,L|270:219,2,35,2|0|0,0:0|0:0|0:0,0:0:0:0:
134,168,95250,1,6,0:0:0:0:
191,113,95444,1,0,0:0:0:0:
134,59,95637,1,6,0:0:0:0:
123,60,95734,1,0,0:0:0:0:
112,62,95831,1,0,0:0:0:0:
206,5,96024,5,6,0:0:0:0:
314,141,96412,1,6,0:0:0:0:
331,65,96605,1,0,0:0:0:0:
283,5,96799,1,6,0:0:0:0:
206,5,96992,1,0,0:0:0:0:
158,65,97186,1,6,0:0:0:0:
175,141,97379,1,0,0:0:0:0:
244,174,97573,6,0,L|238:201,6,28,6|0|0|0|0|0|0,0:0|0:0|0:0|0:0|0:0|0:0|0:0,0:0:0:0:
202,265,98347,2,0,L|208:292,6,28,2|0|0|0|0|0|0,0:0|0:0|0:0|0:0|0:0|0:0|0:0,0:0:0:0:
240,358,99121,5,2,0:0:0:0:
299,312,99315,1,0,0:0:0:0:
359,355,99508,2,0,L|389:360,3,28,2|0|0|0,0:0|0:0|0:0|0:0,0:0:0:0:
402,353,99895,6,0,L|393:297,1,56,2|0,0:0|0:0,0:0:0:0:
407,288,100186,2,0,L|415:232,1,56,2|2,0:0|0:0,0:0:0:0:
407,218,100476,1,0,0:0:0:0:
429,142,100670,6,0,L|373:149,1,56,2|0,0:0|0:0,0:0:0:0:
320,97,101057,1,2,0:0:0:0:
307,91,101154,2,0,L|251:83,1,56,0|0,0:0|0:0,0:0:0:0:
219,102,101444,6,0,L|191:105,3,28,2|0|0|0,0:0|0:0|0:0|0:0,0:0:0:0:
152,79,101831,2,0,L|124:75,3,28,2|0|0|0,0:0|0:0|0:0|0:0,0:0:0:0:
103,90,102218,6,0,L|97:181,1,84,0|0,0:0|0:0,0:0:0:0:
107,193,102605,2,0,L|110:220,3,28,2|0|0|0,0:0|0:0|0:0|0:0,0:0:0:0:
98,258,102992,5,2,0:0:0:0:
180,242,103186,1,2,0:0:0:0:
262,227,103379,1,2,0:0:0:0:
344,212,103573,1,2,0:0:0:0:
426,198,103766,6,0,L|424:225,6,28,6|0|0|0|0|0|0,0:0|0:0|0:0|0:0|0:0|0:0|0:0,0:0:0:0:
461,293,104541,2,0,L|462:320,6,28,2|0|0|0|0|0|0,0:0|0:0|0:0|0:0|0:0|0:0|0:0,0:0:0:0:
409,373,105315,5,2,0:0:0:0:
343,339,105509,1,0,0:0:0:0:
277,369,105702,2,0,L|247:374,3,28,2|0|0|0,0:0|0:0|0:0|0:0,0:0:0:0:
234,367,106089,6,0,L|243:311,1,56,2|0,0:0|0:0,0:0:0:0:
229,302,106380,2,0,L|221:246,1,56,2|2,0:0|0:0,0:0:0:0:
229,232,106670,1,0,0:0:0:0:
146,250,106864,6,0,L|90:257,1,56,2|0,0:0|0:0,0:0:0:0:
30,213,107251,1,2,0:0:0:0:
36,200,107348,2,0,L|44:144,1,56,0|0,0:0|0:0,0:0:0:0:
76,118,107638,6,0,L|104:121,3,28,2|0|0|0,0:0|0:0|0:0|0:0,0:0:0:0:
143,88,108025,2,0,L|171:84,3,28,2|0|0|0,0:0|0:0|0:0|0:0,0:0:0:0:
230,134,108412,5,0,0:0:0:0:
238,143,108508,2,0,L|307:154,1,70,2|2,0:0|0:0,0:0:0:0:
337,178,108799,2,0,L|331:212,3,35,6|0|0|0,0:0|0:0|0:0|0:0,0:0:0:0:
406,152,109186,6,0,L|391:47,1,105,2|2,0:0|0:0,0:0:0:0:
356,21,109573,2,0,L|321:16,3,35,6|0|0|2,0:0|0:0|0:0|0:0,0:0:0:0:
256,192,109960,12,0,111121,0:0:0:0:
413,319,111508,5,2,0:0:0:0:
322,251,111895,1,2,0:0:0:0:
223,305,112283,2,0,P|191:307|161:297,1,62.9999980773926,2|0,0:0|0:0,0:0:0:0:
89,298,112670,1,0,0:0:0:0:
84,284,112863,1,0,0:0:0:0:
138,206,113057,6,0,P|148:176|147:145,1,62.9999980773926,6|0,0:0|0:0,0:0:0:0:
126,58,113444,1,0,0:0:0:0:
122,73,113637,1,0,0:0:0:0:
213,109,113831,6,0,P|244:108|274:99,1,62.9999980773926,2|0,0:0|0:0,0:0:0:0:
323,42,114218,1,0,0:0:0:0:
321,27,114412,1,0,0:0:0:0:
384,96,114605,6,0,P|389:128|382:158,1,62.9999980773926,6|0,0:0|0:0,0:0:0:0:
319,201,114992,1,0,0:0:0:0:
304,199,115186,1,0,0:0:0:0:
229,256,115379,6,0,P|224:287|231:317,1,62.9999980773926,2|0,0:0|0:0,0:0:0:0:
288,368,115766,1,0,0:0:0:0:
303,365,115960,1,0,0:0:0:0:
364,285,116154,6,0,P|334:279|302:281,1,62.9999980773926,6|0,0:0|0:0,0:0:0:0:
231,318,116541,1,0,0:0:0:0:
216,321,116735,1,0,0:0:0:0:
117,287,116928,6,0,P|110:239|116:192,1,94.499997116089,6|0,0:0|0:0,0:0:0:0:
130,177,117315,2,0,P|139:146|137:115,1,62.9999980773926,2|0,0:0|0:0,0:0:0:0:
81,64,117702,5,2,0:0:0:0:
178,6,118089,1,2,0:0:0:0:
272,66,118476,2,0,P|267:98|272:129,1,62.9999980773926,2|0,0:0|0:0,0:0:0:0:
321,188,118863,1,0,0:0:0:0:
337,184,119057,1,0,0:0:0:0:
429,153,119250,6,0,P|433:121|428:90,1,62.9999980773926,6|0,0:0|0:0,0:0:0:0:
371,40,119637,1,0,0:0:0:0:
356,43,119831,1,0,0:0:0:0:
283,103,120025,6,0,P|255:91|223:89,1,62.9999980773926,2|0,0:0|0:0,0:0:0:0:
149,111,120412,1,0,0:0:0:0:
134,108,120605,1,0,0:0:0:0:
47,79,120799,6,0,P|42:47|47:16,1,62.9999980773926,6|0,0:0|0:0,0:0:0:0:
122,0,121186,1,0,0:0:0:0:
137,4,121379,1,0,0:0:0:0:
212,68,121573,6,0,P|217:98|212:130,1,62.9999980773926,2|0,0:0|0:0,0:0:0:0:
278,177,121960,1,2,0:0:0:0:
265,215,122154,1,0,0:0:0:0:
313,281,122347,6,0,P|189:259|66:282,1,251.999992309571,6|0,0:0|0:0,0:0:0:0:
35,177,123508,6,0,P|48:148|50:117,1,62.9999980773926,2|0,0:0|0:0,0:0:0:0:
39,82,123799,1,0,0:0:0:0:
37,76,123895,2,0,P|38:41|52:9,1,70,6|0,0:0|0:0,0:0:0:0:
119,51,124283,1,0,0:0:0:0:
183,8,124476,1,0,0:0:0:0:
187,85,124670,2,0,P|195:118|217:145,1,70,2|0,0:0|0:0,0:0:0:0:
291,125,125057,1,0,0:0:0:0:
272,199,125250,1,0,0:0:0:0:
197,220,125444,6,0,P|184:252|183:287,1,70,2|0,0:0|0:0,0:0:0:0:
206,360,125831,1,0,0:0:0:0:
259,304,126025,1,0,0:0:0:0:
318,352,126218,2,0,P|352:351|385:338,1,70,2|0,0:0|0:0,0:0:0:0:
438,282,126605,1,0,0:0:0:0:
500,327,126799,1,0,0:0:0:0:
512,251,126992,6,0,P|514:216|503:183,1,70,6|0,0:0|0:0,0:0:0:0:
438,282,127379,2,0,P|386:289|335:277,1,105,0|0,0:0|0:0,0:0:0:0:
302,290,127766,2,0,P|314:257|316:222,1,70,2|0,0:0|0:0,0:0:0:0:
271,159,128154,1,0,0:0:0:0:
345,84,128347,1,0,0:0:0:0:
245,49,128541,6,0,P|210:49|176:59,1,70,6|0,0:0|0:0,0:0:0:0:
91,128,128928,1,2,0:0:0:0:
173,64,129121,1,0,0:0:0:0:
244,134,129315,1,2,0:0:0:0:
93,235,129702,6,0,L|97:270,3,35,0|0|0|0,0:0|0:0|0:0|0:0,0:0:0:0:
118,305,130089,6,0,P|139:276|167:256,1,70,6|0,0:0|0:0,0:0:0:0:
243,241,130476,1,0,0:0:0:0:
310,278,130670,1,0,0:0:0:0:
336,350,130863,1,2,0:0:0:0:
353,274,131057,1,0,0:0:0:0:
370,198,131250,1,0,0:0:0:0:
387,122,131444,1,0,0:0:0:0:
403,46,131637,6,0,P|384:75|357:96,1,70,6|0,0:0|0:0,0:0:0:0:
281,109,132024,1,0,0:0:0:0:
205,94,132218,1,0,0:0:0:0:
157,33,132412,1,2,0:0:0:0:
232,21,132605,1,0,0:0:0:0:
281,79,132799,1,0,0:0:0:0:
257,152,132992,1,0,0:0:0:0:
206,210,133186,6,0,P|199:244|205:278,1,70,6|0,0:0|0:0,0:0:0:0:
299,240,133573,2,0,P|350:234|401:246,1,105,0|0,0:0|0:0,0:0:0:0:
437,243,133960,2,0,P|426:275|425:310,1,70,2|0,0:0|0:0,0:0:0:0:
460,379,134347,1,0,0:0:0:0:
359,335,134541,1,2,0:0:0:0:
259,373,134734,6,0,P|224:368|194:351,1,70,6|0,0:0|0:0,0:0:0:0:
119,279,135121,1,2,0:0:0:0:
199,347,135314,1,2,0:0:0:0:
270,277,135508,2,0,P|274:242|265:208,1,70,2|0,0:0|0:0,0:0:0:0:
193,249,135895,5,2,0:0:0:0:
360,330,136283,5,0,0:0:0:0:
277,314,136670,1,0,0:0:0:0:
194,295,137057,2,0,L|199:249,1,45.4999979171754,6|0,0:0|0:0,0:0:0:0:
247,225,137444,2,0,L|244:179,1,45.4999979171754,0|0,0:0|0:0,0:0:0:0:
301,132,137831,6,0,L|189:126,1,112,2|0,0:0|0:0,0:0:0:0:
145,91,138412,1,0,0:0:0:0:
141,87,138605,2,0,L|27:97,1,112,2|0,0:0|0:0,0:0:0:0:
91,190,139379,6,0,L|94:301,1,112,2|0,0:0|0:0,0:0:0:0:
198,367,140153,1,2,0:0:0:0:
245,336,140347,1,0,0:0:0:0:
291,366,140541,2,0,L|346:370,1,56
412,335,140928,5,6,0:0:0:0:
356,287,141121,2,0,L|353:259,5,28,0|0|0|0|0|0,0:0|0:0|0:0|0:0|0:0|0:0,0:0:0:0:
378,232,141702,2,0,L|489:241,1,112,2|2,0:0|0:0,0:0:0:0:
460,118,142476,5,0,0:0:0:0:
390,161,142863,1,0,0:0:0:0:
326,109,143250,2,0,L|332:64,2,45.4999979171754,2|0|0,0:0|0:0|0:0,0:0:0:0:
305,208,144024,6,0,L|208:197,1,97.9999970092774,6|0,0:0|0:0,0:0:0:0:
165,173,144605,1,0,0:0:0:0:
161,177,144799,2,0,L|167:278,1,97.9999970092774,2|0,0:0|0:0,0:0:0:0:
56,354,145573,6,0,L|8:348,1,48.9999985046387,2|0,0:0|0:0,0:0:0:0:
46,279,145960,1,2,0:0:0:0:
99,296,146153,1,0,0:0:0:0:
116,246,146347,1,2,0:0:0:0:
185,351,146734,1,0,0:0:0:0:
293,287,147121,1,6,0:0:0:0:
150,239,147508,6,0,L|115:246,8,35,0|2|0|0|0|2|0|0|2,0:0|0:0|0:0|0:0|0:0|0:0|0:0|0:0|0:0,0:0:0:0:
239,166,148670,6,0,L|350:180,1,112,6|0,0:0|0:0,0:0:0:0:
388,218,149250,1,0,0:0:0:0:
392,222,149444,2,0,L|447:218,1,56,2|0,0:0|0:0,0:0:0:0:
505,168,149831,1,0,0:0:0:0:
459,107,150024,1,0,0:0:0:0:
502,45,150218,6,0,L|496:-11,1,56,6|0,0:0|0:0,0:0:0:0:
425,16,150605,1,0,0:0:0:0:
419,14,150799,1,0,0:0:0:0:
355,51,150992,2,0,L|300:41,1,56,2|0,0:0|0:0,0:0:0:0:
232,76,151379,1,0,0:0:0:0:
280,135,151573,1,0,0:0:0:0:
215,172,151766,6,0,L|210:227,1,56,6|0,0:0|0:0,0:0:0:0:
148,271,152153,2,0,L|152:326,1,56,2|0,0:0|0:0,0:0:0:0:
224,367,152541,1,2,0:0:0:0:
148,330,152734,1,0,0:0:0:0:
72,367,152928,1,2,0:0:0:0:
0,324,153121,1,0,0:0:0:0:
78,261,153315,6,0,L|123:265,1,45.4999979171754,6|0,0:0|0:0,0:0:0:0:
150,302,153702,2,0,L|195:306,1,45.4999979171754,0|0,0:0|0:0,0:0:0:0:
226,272,154089,2,0,L|316:280,1,90.9999958343508,2|2,0:0|0:0,0:0:0:0:
346,316,154670,1,0,0:0:0:0:
415,278,154863,5,2,0:0:0:0:
345,183,155250,1,0,0:0:0:0:
250,253,155637,2,0,L|204:248,1,45.4999979171754,2|0,0:0|0:0,0:0:0:0:
140,284,156024,1,0,0:0:0:0:
136,288,156218,1,0,0:0:0:0:
74,249,156412,6,0,L|71:193,1,56,6|0,0:0|0:0,0:0:0:0:
20,137,156799,1,0,0:0:0:0:
25,124,156992,1,0,0:0:0:0:
82,75,157186,6,0,L|137:81,1,56,2|0,0:0|0:0,0:0:0:0:
203,44,157573,1,0,0:0:0:0:
198,22,157766,1,0,0:0:0:0:
284,0,157960,6,0,L|278:55,1,56,6|0,0:0|0:0,0:0:0:0:
341,98,158347,1,0,0:0:0:0:
280,144,158541,1,0,0:0:0:0:
356,207,158734,6,0,L|361:290,1,84,6|0,0:0|0:0,0:0:0:0:
385,309,159121,2,0,L|377:364,1,56,2|0,0:0|0:0,0:0:0:0:
273,323,159508,6,0,L|134:332,1,140,6|0,0:0|0:0,0:0:0:0:
165,71,160282,6,0,L|305:80,1,140,6|0,0:0|0:0,0:0:0:0:
375,126,160863,1,0,0:0:0:0:
445,78,161057,1,6,0:0:0:0:
508,133,161250,1,0,0:0:0:0:
510,139,161347,1,0,0:0:0:0:
512,145,161444,2,0,L|509:214,1,70,2|0,0:0|0:0,0:0:0:0:
452,266,161831,5,2,0:0:0:0:
452,266,162218,2,0,L|348:256,1,105,0|0,0:0|0:0,0:0:0:0:
324,273,162605,5,6,0:0:0:0:
192,222,162895,2,0,L|189:256,1,35,2|2,0:0|0:0,0:0:0:0:
312,139,163379,5,6,0:0:0:0:
179,169,163670,2,0,L|182:203,1,35,2|2,0:0|0:0,0:0:0:0:
283,20,164153,5,6,0:0:0:0:
223,68,164347,1,0,0:0:0:0:
217,70,164444,1,0,0:0:0:0:
211,72,164541,1,2,0:0:0:0:
264,130,164734,1,0,0:0:0:0:
247,157,164928,1,2,0:0:0:0:
296,274,165218,6,0,L|331:268,1,35,0|2,0:0|0:0,0:0:0:0:
382,217,165508,1,0,0:0:0:0:
353,150,165702,6,0,L|361:105,2,45.4999979171754,6|0|0,0:0|0:0|0:0,0:0:0:0:
312,187,166282,1,0,0:0:0:0:
242,220,166476,6,0,L|235:175,2,45.4999979171754,2|0|0,0:0|0:0|0:0,0:0:0:0:
283,257,167057,1,0,0:0:0:0:
222,314,167250,6,0,L|177:317,1,45.4999979171754,2|0,0:0|0:0,0:0:0:0:
134,352,167637,1,0,0:0:0:0:
119,350,167831,1,0,0:0:0:0:
57,305,168024,6,0,L|54:259,1,45.4999979171754,2|0,0:0|0:0,0:0:0:0:
91,223,168411,1,0,0:0:0:0:
93,208,168605,1,0,0:0:0:0:
160,168,168799,6,0,L|152:112,1,56,2|0,0:0|0:0,0:0:0:0:
93,70,169186,1,0,0:0:0:0:
93,70,169573,6,0,L|205:61,1,112,6|2,0:0|0:0,0:0:0:0:
202,111,170153,1,0,0:0:0:0:
195,161,170347,1,2,0:0:0:0:
318,239,170734,5,0,0:0:0:0:
296,272,170927,1,0,0:0:0:0:
304,298,171121,1,0,0:0:0:0:
440,222,171508,5,6,0:0:0:0:
