osu file format v14

[General]
AudioFilename: audio.mp3
AudioLeadIn: 0
PreviewTime: 12855
Countdown: 0
SampleSet: Soft
StackLeniency: 0.4
Mode: 0
LetterboxInBreaks: 0
WidescreenStoryboard: 1

[Editor]
Bookmarks: 13230,23730,35730,47730,59730,63667,70230,82230,94230,106230,117480
DistanceSpacing: 0.5
BeatDivisor: 4
GridSize: 16
TimelineZoom: 2

[Metadata]
Title:A Bella! (feat. Lucy)
TitleUnicode:A Bella! (feat. Lucy)
Artist:M2U
ArtistUnicode:M2U
Creator:celerih
Version:Ultima Fox's Insane
Source:하이파이브
Tags:HIGH5 drug step square musiq original soundtrack pnix games Finshie Sulfur Ultima Fox Gabe Veus
BeatmapID:1557869
BeatmapSetID:678510

[Difficulty]
HPDrainRate:6
CircleSize:3.9
OverallDifficulty:7.7
ApproachRate:9.1
SliderMultiplier:1.8
SliderTickRate:1

[Events]
//Background and Video events
0,0,"A Bella BG.jpg",0,0
//Break Periods
2,59930,63083
//Storyboard Layer 0 (Background)
//Storyboard Layer 1 (Fail)
//Storyboard Layer 2 (Pass)
//Storyboard Layer 3 (Foreground)
//Storyboard Sound Samples

[TimingPoints]
-270,375,4,2,2,100,1,0
7042,-100,4,2,2,100,0,0
7230,-100,4,2,1,100,0,0
12855,-100,4,2,2,100,0,0
13230,-125,4,2,1,80,0,0
16230,-111.111111111111,4,2,1,100,0,0
17730,-100,4,2,1,80,0,0
19230,-125,4,2,1,80,0,0
22230,-111.111111111111,4,2,1,80,0,0
23730,-142.857142857143,4,2,1,80,0,0
28230,-125,4,2,1,80,0,0
28792,-111.111111111111,4,2,1,80,0,0
29730,-142.857142857143,4,2,1,80,0,0
33855,-111.111111111111,4,2,1,80,0,0
35730,-83.3333333333333,4,2,1,100,0,1
36855,-100,4,2,1,100,0,1
38730,-83.3333333333333,4,2,1,100,0,1
39855,-100,4,2,1,100,0,1
42292,-83.3333333333333,4,2,1,100,0,1
42855,-100,4,2,1,100,0,1
43230,-83.3333333333333,4,2,1,100,0,1
44355,-100,4,2,1,100,0,1
47730,-83.3333333333333,4,2,1,100,0,1
48855,-100,4,2,1,100,0,1
50730,-83.3333333333333,4,2,1,100,0,1
51855,-100,4,2,1,100,0,1
53355,-125,4,2,1,100,0,1
53730,-100,4,2,1,100,0,1
54292,-83.3333333333333,4,2,1,100,0,1
54855,-100,4,2,1,100,0,1
55230,-83.3333333333333,4,2,1,100,0,1
56355,-100,4,2,1,100,0,1
57292,-83.3333333333333,4,2,1,100,0,1
57855,-100,4,2,1,100,0,1
59730,-100,4,2,1,80,0,0
63667,-142.857142857143,4,2,1,80,0,0
64792,-100,4,2,1,80,0,0
70230,-142.857142857143,4,2,1,80,0,0
74730,-125,4,2,1,80,0,0
75292,-111.111111111111,4,2,1,80,0,0
76230,-142.857142857143,4,2,1,80,0,0
80355,-62.5,4,2,1,80,0,0
80730,-90.9090909090909,4,2,1,80,0,0
81667,-111.111111111111,4,2,1,80,0,0
82230,-83.3333333333333,4,2,1,100,0,1
83355,-100,4,2,1,100,0,1
85230,-83.3333333333333,4,2,1,100,0,1
86355,-100,4,2,1,100,0,1
87480,-71.4285714285714,4,2,1,100,0,1
88792,-83.3333333333333,4,2,1,100,0,1
89355,-100,4,2,1,100,0,1
89730,-83.3333333333333,4,2,1,100,0,1
90855,-100,4,2,1,100,0,1
91792,-83.3333333333333,4,2,1,100,0,1
92355,-100,4,2,1,100,0,1
94230,-83.3333333333333,4,2,1,100,0,1
95355,-100,4,2,1,100,0,1
97230,-83.3333333333333,4,2,1,100,0,1
98355,-100,4,2,1,100,0,1
99292,-200,4,2,1,100,0,1
99667,-66.6666666666667,4,2,1,100,0,1
100230,-83.3333333333333,4,2,1,100,0,1
101355,-100,4,2,1,100,0,1
101730,-83.3333333333333,4,2,1,100,0,1
102855,-100,4,2,1,100,0,1
103792,-83.3333333333333,4,2,1,100,0,1
104355,-100,4,2,1,100,0,1
106230,-200,4,2,1,80,0,0
116730,-66.6666666666667,4,2,1,80,0,0
117105,-71.4285714285714,4,2,1,80,0,0

[Colours]
Combo1 : 226,151,171
Combo2 : 174,41,98
Combo3 : 128,145,217
Combo4 : 106,37,133

[HitObjects]
102,157,855,6,0,P|148:115|241:133,1,135,2|0,0:0|0:0,0:0:0:0:
280,182,1230,6,0,L|269:292,1,90,6|2,0:0|0:0,0:0:0:0:
380,149,1605,1,10,0:0:0:0:
194,292,1792,2,0,P|235:343|339:314,1,180,6|2,0:3|0:0,0:0:0:0:
269,161,2355,1,6,0:3:0:0:
91,212,2542,1,10,0:0:0:0:
311,68,2730,6,0,L|188:54,1,90,6|2,0:3|0:0,0:0:0:0:
344,234,3105,1,10,0:0:0:0:
474,33,3292,2,0,P|427:5|317:50,1,180,6|2,0:3|0:0,0:0:0:0:
364,252,3855,1,6,0:3:0:0:
404,95,4042,1,10,0:0:0:0:
200,173,4230,6,0,P|244:177|315:170,1,90,6|2,0:3|0:0,0:0:0:0:
142,80,4605,1,10,0:0:0:0:
335,245,4792,2,0,P|284:255|154:243,1,180,6|10,0:3|0:0,0:0:0:0:
323,102,5355,1,6,0:3:0:0:
396,303,5542,5,2,0:0:0:0:
407,310,5636,1,0,0:0:0:0:
417,318,5730,2,0,L|428:209,1,90,6|2,0:3|0:0,0:0:0:0:
297,101,6105,2,0,L|304:187,1,45,14|2,0:3|0:0,0:0:0:0:
307,237,6292,1,2,0:0:0:0:
433,92,6480,5,12,0:3:0:0:
211,141,6667,2,0,L|204:227,1,45,2|2,0:0|0:0,0:0:0:0:
201,277,6854,1,14,0:3:0:0:
369,178,7042,1,2,0:0:0:0:
316,355,7230,6,0,P|308:299|287:247,1,90,6|2,0:0|0:0,0:0:0:0:
120,225,7605,1,10,0:0:0:0:
331,363,7792,2,0,P|351:269|329:160,1,180,6|2,0:3|0:0,0:0:0:0:
133,130,8355,1,6,0:3:0:0:
181,288,8542,1,10,0:0:0:0:
340,162,8730,6,0,P|295:151|226:154,1,90,6|2,0:3|0:0,0:0:0:0:
332,14,9105,1,10,0:0:0:0:
429,263,9292,2,0,P|426:199|475:82,1,180,6|2,0:3|0:0,0:0:0:0:
267,181,9855,1,6,0:3:0:0:
452,273,10042,1,10,0:0:0:0:
319,334,10230,5,6,0:3:0:0:
345,126,10417,1,6,0:3:0:0:
411,356,10605,1,10,0:0:0:0:
236,262,10792,2,0,B|146:234|147:290|44:258,1,180,6|14,0:3|0:3,0:0:0:0:
195,346,11355,1,6,0:3:0:0:
103,188,11542,5,2,0:0:0:0:
94,177,11636,1,0,0:0:0:0:
83,167,11730,2,0,L|98:65,1,90,6|0,0:3|0:0,0:0:0:0:
384,144,12105,5,14,0:3:0:0:
303,154,12292,5,10,0:0:0:0:
222,164,12480,5,14,0:3:0:0:
222,164,12855,6,0,L|359:186,1,135,2|2,0:0|0:0,0:0:0:0:
444,219,13230,6,0,P|434:147|458:91,1,108,6|0,0:0|0:0,0:0:0:0:
463,104,13605,1,10,0:0:0:0:
432,239,13792,2,0,P|396:197|381:128,1,108,6|0,0:3|0:0,0:0:0:0:
383,73,14167,1,2,0:0:0:0:
275,185,14355,1,6,0:3:0:0:
158,92,14542,1,10,0:0:0:0:
356,269,14730,6,0,L|267:273,1,72,6|2,0:3|0:0,0:0:0:0:
182,210,15105,1,10,0:0:0:0:
369,281,15292,2,0,L|257:306,1,108,6|0,0:3|0:0,0:0:0:0:
174,300,15667,1,2,0:0:0:0:
298,182,15855,1,4,0:3:0:0:
448,359,16042,5,8,0:0:0:0:
448,359,16136,1,0,0:0:0:0:
448,359,16230,2,0,L|454:261,2,80.9999975280763,6|2|10,0:3|0:0|0:0,0:0:0:0:
419,166,16792,2,0,L|437:288,1,121.499996292114,6|0,0:3|0:0,0:0:0:0:
509,217,17167,1,2,0:0:0:0:
321,171,17355,1,6,0:3:0:0:
302,287,17542,1,10,0:0:0:0:
110,222,17730,6,0,L|247:214,1,135,6|2,0:3|0:0,0:0:0:0:
321,171,18105,1,14,0:3:0:0:
194,299,18292,2,0,L|233:306,3,22.5,2|0|2|0,0:0|0:0|0:0|0:0,0:0:0:0:
124,347,18480,2,0,L|74:352,2,45,6|0|2,0:3|0:0|0:0,0:0:0:0:
297,367,18855,2,0,L|304:266,1,90,6|8,0:3|0:0,0:0:0:0:
348,164,19230,6,0,P|294:177|217:154,1,108,6|0,0:0|0:0,0:0:0:0:
233,148,19605,1,8,0:0:0:0:
367,173,19792,2,0,P|322:203|256:209,1,108,6|0,0:3|0:0,0:0:0:0:
166,194,20167,1,2,0:0:0:0:
257,15,20355,1,6,0:3:0:0:
304,108,20542,1,10,0:0:0:0:
100,93,20730,6,0,P|136:78|198:84,1,72,6|2,0:3|0:0,0:0:0:0:
302,128,21105,1,10,0:0:0:0:
82,105,21292,2,0,P|121:134|208:127,1,108,6|0,0:3|0:0,0:0:0:0:
251,56,21667,1,0,0:0:0:0:
369,181,21855,2,0,L|357:276,1,72,6|10,0:3|0:0,0:0:0:0:
253,326,22136,5,0,0:0:0:0:
253,326,22230,2,0,L|236:217,2,80.9999975280763,14|14|0,0:3|0:3|0:0,0:0:0:0:
155,180,22792,2,0,L|138:334,1,121.499996292114,14|0,0:3|0:0,0:0:0:0:
65,374,23167,2,0,L|53:299,1,40.4999987640381,14|0,0:3|0:0,0:0:0:0:
43,217,23355,1,12,0:3:0:0:
163,322,23542,1,2,0:0:0:0:
298,172,23730,6,0,L|224:164,1,62.9999980773926,6|0,0:0|0:0,0:0:0:0:
403,185,24105,1,12,0:3:0:0:
277,260,24292,2,0,L|351:252,1,62.9999980773926,2|4,0:0|0:3,0:0:0:0:
172,273,24667,1,0,0:0:0:0:
308,359,24855,2,0,L|234:351,1,62.9999980773926,14|0,0:3|0:0,0:0:0:0:
92,244,25230,6,0,P|87:289|101:326,1,62.9999980773926,6|0,0:3|0:0,0:0:0:0:
183,198,25605,1,14,0:3:0:0:
241,363,25792,2,0,L|170:369,1,62.9999980773926,2|4,0:0|0:3,0:0:0:0:
277,195,26167,1,2,0:0:0:0:
329,345,26355,2,0,L|258:339,1,62.9999980773926,14|0,0:3|0:0,0:0:0:0:
376,202,26730,6,0,L|391:277,2,62.9999980773926,4|2|14,0:3|0:0|0:3,0:0:0:0:
471,347,27292,2,0,L|486:272,1,62.9999980773926,2|4,0:0|0:3,0:0:0:0:
431,132,27667,1,2,0:0:0:0:
310,280,27855,2,0,L|387:285,1,62.9999980773926,14|0,0:3|0:0,0:0:0:0:
190,155,28230,6,0,L|167:134,1,18,14|0,0:3|0:0,0:0:0:0:
229,301,28417,2,0,L|222:331,1,18,10|0,0:0|0:0,0:0:0:0:
336,194,28605,2,0,L|365:184,1,18,10|0,0:0|0:0,0:0:0:0:
201,71,28792,6,0,B|136:51|134:100|56:71,1,121.499996292114,6|0,0:3|0:0,0:0:0:0:
65,64,29167,1,10,0:0:0:0:
167,223,29355,2,0,L|177:137,1,80.9999975280763,14|2,0:3|0:0,0:0:0:0:
282,18,29636,5,0,0:0:0:0:
282,18,29730,2,0,L|292:102,1,62.9999980773926,6|0,0:0|0:0,0:0:0:0:
426,123,30105,1,12,0:3:0:0:
284,100,30292,2,0,L|274:184,1,62.9999980773926,2|4,0:0|0:3,0:0:0:0:
146,193,30667,1,0,0:0:0:0:
282,183,30855,2,0,L|292:267,1,62.9999980773926,14|0,0:3|0:0,0:0:0:0:
182,345,31230,6,0,P|149:351|113:340,1,62.9999980773926,6|0,0:3|0:0,0:0:0:0:
162,169,31605,1,14,0:3:0:0:
102,332,31792,2,0,P|76:310|61:275,1,62.9999980773926,2|4,0:0|0:3,0:0:0:0:
162,169,32167,1,2,0:0:0:0:
57,262,32355,2,0,P|56:228|73:194,1,62.9999980773926,14|0,0:3|0:0,0:0:0:0:
257,189,32730,6,0,L|329:199,1,62.9999980773926,4|2,0:3|0:0,0:0:0:0:
226,88,33105,1,14,0:3:0:0:
392,233,33292,2,0,P|401:197|383:150,1,62.9999980773926,2|4,0:0|0:3,0:0:0:0:
250,85,33667,1,2,0:0:0:0:
169,221,33855,2,0,P|116:250|48:230,1,121.499996292114,14|0,0:3|0:0,0:0:0:0:
106,165,34230,6,0,L|93:63,2,80.9999975280763,14|10|10,0:3|0:0|0:0,0:0:0:0:
192,266,34792,2,0,P|197:224|208:196,1,40.4999987640381,14|0,0:3|0:0,0:0:0:0:
190,384,35073,1,0,0:0:0:0:
190,384,35167,2,0,P|199:318|168:208,1,161.999995056153,14|0,0:3|0:0,0:0:0:0:
85,95,35730,6,0,P|161:135|256:93,1,161.999995056153,6|0,0:0|0:0,0:0:0:0:
238,90,36105,1,10,0:0:0:0:
314,190,36292,2,0,P|336:123|312:28,1,161.999995056153,6|0,0:3|0:0,0:0:0:0:
291,25,36667,1,10,0:0:0:0:
131,208,36855,2,0,P|178:216|244:216,1,90,6|10,0:3|0:0,0:0:0:0:
419,171,37230,6,0,L|414:266,1,90,6|2,0:3|0:0,0:0:0:0:
346,137,37605,1,10,0:0:0:0:
344,159,37698,1,2,0:0:0:0:
343,181,37792,1,6,0:3:0:0:
271,104,37980,2,0,L|268:164,1,45,2|2,0:0|0:0,0:0:0:0:
198,75,38261,2,0,L|195:135,1,45,2|6,0:0|0:3,0:0:0:0:
334,53,38542,1,8,0:0:0:0:
136,240,38730,6,0,B|214:216|220:276|308:250,1,161.999995056153,6|0,0:3|0:0,0:0:0:0:
316,238,39105,1,10,0:0:0:0:
440,169,39292,2,0,P|406:233|419:333,1,161.999995056153,6|0,0:3|0:0,0:0:0:0:
434,336,39667,1,10,0:0:0:0:
355,151,39855,2,0,L|262:156,1,90,6|10,0:3|0:0,0:0:0:0:
411,70,40230,5,6,0:3:0:0:
292,243,40417,1,2,0:0:0:0:
277,34,40605,1,14,0:3:0:0:
448,198,40792,2,0,L|442:237,6,22.5,2|0|0|0|4|0|0,0:0|0:0|0:0|0:0|0:3|0:0|0:0,0:0:0:0:
380,137,41167,1,10,0:0:0:0:
389,284,41355,2,0,P|351:261|261:264,1,135,6|0,0:3|0:0,0:0:0:0:
206,318,41730,6,0,L|211:359,1,22.5,6|0,0:0|0:0,0:0:0:0:
111,231,41917,1,2,0:0:0:0:
85,366,42105,1,10,0:0:0:0:
258,245,42292,6,0,L|239:83,1,161.999995056153,6|0,0:3|0:0,0:0:0:0:
235,57,42667,1,10,0:0:0:0:
345,288,42855,2,0,L|360:166,1,90,6|10,0:3|0:0,0:0:0:0:
164,340,43230,6,0,L|149:218,1,107.999996704102,6|0,0:3|0:0,0:0:0:0:
334,111,43605,1,10,0:0:0:0:
166,219,43792,2,0,B|244:197|244:247|341:220,1,161.999995056153,6|0,0:3|0:0,0:0:0:0:
345,205,44167,1,10,0:0:0:0:
262,62,44355,2,0,B|245:105|245:105|261:156,1,90,6|10,0:3|0:0,0:0:0:0:
399,311,44730,5,6,0:3:0:0:
399,311,44917,1,4,0:3:0:0:
420,164,45105,1,10,0:0:0:0:
180,329,45292,6,0,L|327:338,1,135,6|0,0:3|0:0,0:0:0:0:
330,353,45667,1,10,0:0:0:0:
133,240,45855,2,0,L|261:233,1,90,6|0,0:3|0:0,0:0:0:0:
313,169,46136,5,0,0:0:0:0:
313,169,46230,2,0,L|305:265,1,90,14|10,0:3|0:0,0:0:0:0:
437,106,46605,1,14,0:3:0:0:
224,81,46792,1,10,0:0:0:0:
406,190,46980,1,2,0:0:0:0:
380,290,47167,6,0,L|388:199,2,90,2|2|2,0:0|0:0|0:0,0:0:0:0:
154,346,47730,6,0,P|205:306|308:321,1,161.999995056153,6|0,0:0|0:0,0:0:0:0:
312,337,48105,1,10,0:0:0:0:
417,196,48292,2,0,P|397:261|420:368,1,161.999995056153,6|0,0:3|0:0,0:0:0:0:
437,360,48667,1,10,0:0:0:0:
304,213,48855,2,0,L|207:219,1,90,6|10,0:3|0:0,0:0:0:0:
31,197,49230,6,0,L|20:294,1,90,6|2,0:3|0:0,0:0:0:0:
116,169,49605,1,10,0:0:0:0:
113,191,49698,1,2,0:0:0:0:
110,213,49792,1,6,0:3:0:0:
198,151,49980,2,0,L|188:237,1,45,2|2,0:0|0:0,0:0:0:0:
280,132,50261,2,0,L|270:218,1,45,2|6,0:0|0:3,0:0:0:0:
138,86,50542,1,8,0:0:0:0:
325,267,50730,6,0,B|244:239|244:294|164:273,1,161.999995056153,6|0,0:3|0:0,0:0:0:0:
145,257,51105,1,10,0:0:0:0:
376,202,51292,2,0,P|409:254|340:344,1,161.999995056153,6|0,0:3|0:0,0:0:0:0:
341,346,51667,1,10,0:0:0:0:
192,195,51855,2,0,L|204:97,1,90,6|10,0:3|0:0,0:0:0:0:
314,262,52230,5,6,0:3:0:0:
209,356,52417,1,10,0:0:0:0:
92,287,52605,1,10,0:0:0:0:
227,184,52792,6,0,L|262:187,6,22.5,10|0|0|0|0|0|0,0:0|0:0|0:0|0:0|0:0|0:0|0:0,0:0:0:0:
138,208,53167,1,10,0:0:0:0:
314,262,53355,2,0,L|197:271,1,108,6|0,0:3|0:0,0:0:0:0:
125,204,53730,6,0,L|120:167,1,22.5,6|0,0:0|0:0,0:0:0:0:
242,81,53917,1,2,0:0:0:0:
312,244,54105,1,10,0:0:0:0:
164,58,54292,6,0,P|215:7|310:38,1,161.999995056153,6|0,0:3|0:0,0:0:0:0:
313,44,54667,1,10,0:0:0:0:
433,152,54855,2,0,L|444:43,1,90,6|10,0:3|0:0,0:0:0:0:
295,343,55230,6,0,L|280:221,1,107.999996704102,6|0,0:3|0:0,0:0:0:0:
92,107,55605,1,10,0:0:0:0:
260,215,55792,2,0,B|182:193|182:243|85:216,1,161.999995056153,6|0,0:3|0:0,0:0:0:0:
81,201,56167,1,10,0:0:0:0:
164,58,56355,2,0,B|181:101|181:101|165:152,1,90,6|10,0:3|0:0,0:0:0:0:
35,306,56730,5,6,0:3:0:0:
35,306,56917,1,4,0:3:0:0:
67,170,57105,1,10,0:0:0:0:
195,307,57292,6,0,P|248:335|345:295,1,161.999995056153,6|0,0:3|0:0,0:0:0:0:
349,277,57667,1,10,0:0:0:0:
255,148,57855,2,0,L|264:246,1,90,6|0,0:3|0:0,0:0:0:0:
171,323,58136,5,0,0:0:0:0:
171,323,58230,2,0,P|124:331|63:307,1,90,14|10,0:3|0:0,0:0:0:0:
245,128,58605,1,14,0:3:0:0:
337,281,58792,1,10,0:0:0:0:
132,248,58980,6,0,L|139:190,1,45,6|0,0:3|0:0,0:0:0:0:
213,75,59167,2,0,L|218:119,1,45,2|0,0:0|0:0,0:0:0:0:
190,325,59355,2,0,P|185:268|150:179,1,135,8|2,0:0|0:0,0:0:0:0:
78,150,59730,1,6,0:0:0:0:
140,195,63667,6,0,L|133:241,1,31.4999990386963,0|0,0:0|0:0,0:0:0:0:
160,189,63855,6,0,L|153:235,1,31.4999990386963,0|0,0:0|0:0,0:0:0:0:
180,183,64042,6,0,L|173:229,1,31.4999990386963,0|0,0:0|0:0,0:0:0:0:
203,182,64230,6,0,B|201:207|205:220|205:220|203:237|196:249|196:249|194:268|201:280|201:280|204:303|195:322,1,125.999996154785,0|0,0:0|0:0,0:0:0:0:
403,348,64792,2,0,P|371:300|277:304,1,135,4|0,0:3|0:0,0:0:0:0:
285,309,65167,1,8,0:0:0:0:
422,361,65355,2,0,P|433:307|468:259,1,90,0|0,0:0|0:0,0:0:0:0:
507,154,65730,6,0,L|401:160,1,90,6|2,0:0|0:0,0:0:0:0:
284,55,66105,1,10,0:0:0:0:
340,202,66292,1,6,0:3:0:0:
349,212,66386,1,2,0:0:0:0:
357,222,66480,2,0,L|251:216,1,90,2|10,0:0|0:0,0:0:0:0:
72,285,66855,5,6,0:3:0:0:
90,254,66948,1,2,0:0:0:0:
122,238,67042,1,10,0:0:0:0:
158,237,67136,1,2,0:0:0:0:
191,249,67230,2,0,L|202:355,1,90,6|2,0:3|0:0,0:0:0:0:
294,384,67511,1,2,0:0:0:0:
294,384,67605,2,0,L|299:331,1,45,10|2,0:0|0:0,0:0:0:0:
407,211,67792,6,0,P|355:248|272:229,1,135,6|0,0:3|0:0,0:0:0:0:
273,221,68167,1,10,0:0:0:0:
429,209,68355,2,0,P|446:261|431:322,1,90,6|8,0:3|0:0,0:0:0:0:
294,384,68730,6,0,L|196:375,1,90,6|2,0:0|0:0,0:0:0:0:
86,351,69105,1,10,0:0:0:0:
112,315,69198,1,2,0:0:0:0:
101,295,69292,1,2,0:0:0:0:
111,267,69386,1,2,0:0:0:0:
83,228,69480,5,14,0:0:0:0:
429,228,69855,1,14,0:0:0:0:
234,113,70230,6,0,L|221:191,1,62.9999980773926,6|0,0:0|0:0,0:0:0:0:
248,31,70605,1,12,0:3:0:0:
335,166,70792,2,0,L|322:88,1,62.9999980773926,2|4,0:0|0:3,0:0:0:0:
349,248,71167,1,0,0:0:0:0:
437,112,71355,2,0,L|424:190,1,62.9999980773926,14|0,0:3|0:0,0:0:0:0:
344,327,71730,6,0,P|336:291|307:249,1,62.9999980773926,6|0,0:3|0:0,0:0:0:0:
230,188,72105,1,14,0:3:0:0:
243,374,72292,2,0,P|254:338|249:287,1,62.9999980773926,2|4,0:0|0:3,0:0:0:0:
230,188,72667,1,2,0:0:0:0:
129,365,72855,2,0,P|156:340|178:293,1,62.9999980773926,14|0,0:3|0:0,0:0:0:0:
143,166,73230,6,0,L|71:171,2,62.9999980773926,4|2|14,0:3|0:0|0:3,0:0:0:0:
261,98,73792,2,0,L|333:103,1,62.9999980773926,2|4,0:0|0:3,0:0:0:0:
404,227,74167,1,2,0:0:0:0:
232,274,74355,2,0,P|222:222|230:186,1,62.9999980773926,14|0,0:3|0:0,0:0:0:0:
464,165,74730,6,0,L|487:144,1,18,14|0,0:3|0:0,0:0:0:0:
425,311,74917,2,0,L|432:341,1,18,10|0,0:0|0:0,0:0:0:0:
318,204,75105,2,0,L|289:194,1,18,10|0,0:0|0:0,0:0:0:0:
434,355,75292,6,0,B|370:326|375:388|287:350,1,121.499996292114,14|0,0:3|0:0,0:0:0:0:
298,350,75667,1,8,0:0:0:0:
333,195,75855,2,0,L|341:292,1,80.9999975280763,12|0,0:3|0:0,0:0:0:0:
211,365,76136,5,0,0:0:0:0:
211,365,76230,2,0,P|207:325|216:282,1,62.9999980773926,6|0,0:0|0:0,0:0:0:0:
368,274,76605,1,12,0:3:0:0:
226,282,76792,2,0,P|230:242|221:199,1,62.9999980773926,2|4,0:0|0:3,0:0:0:0:
64,206,77167,1,0,0:0:0:0:
206,196,77355,2,0,P|202:156|211:113,1,62.9999980773926,14|0,0:3|0:0,0:0:0:0:
341,88,77730,6,0,L|407:94,1,62.9999980773926,6|0,0:3|0:0,0:0:0:0:
338,260,78105,1,14,0:3:0:0:
411,111,78292,2,0,L|470:139,1,62.9999980773926,2|4,0:0|0:3,0:0:0:0:
338,260,78667,1,2,0:0:0:0:
462,160,78855,2,0,L|508:207,1,62.9999980773926,14|0,0:3|0:0,0:0:0:0:
460,336,79230,6,0,P|416:340|380:327,1,62.9999980773926,4|2,0:3|0:0,0:0:0:0:
372,171,79605,1,14,0:3:0:0:
315,373,79792,2,0,P|306:339|316:289,1,62.9999980773926,2|4,0:0|0:3,0:0:0:0:
388,182,80167,1,2,0:0:0:0:
246,235,80355,6,0,B|191:315|44:256|162:132|206:208,1,216,14|0,0:3|0:0,0:0:0:0:
176,186,80730,6,0,P|183:118|169:52,1,99.0000030212403,14|10,0:3|0:0,0:0:0:0:
34,229,81105,1,10,0:0:0:0:
219,292,81292,2,0,P|176:296|152:305,1,49.5000015106202,14|0,0:3|0:0,0:0:0:0:
319,287,81573,1,4,0:3:0:0:
319,287,81667,2,0,P|236:309|139:270,1,161.999995056153,12|0,0:3|0:0,0:0:0:0:
51,145,82230,6,0,P|80:206|61:324,1,161.999995056153,4|0,0:0|0:0,0:0:0:0:
43,321,82605,1,10,0:0:0:0:
171,199,82792,2,0,P|232:170|329:214,1,161.999995056153,6|0,0:3|0:0,0:0:0:0:
327,236,83167,1,10,0:0:0:0:
168,378,83355,2,0,P|169:332|161:272,1,90,6|2,0:3|0:0,0:0:0:0:
60,113,83730,6,0,L|52:209,1,90,6|2,0:3|0:0,0:0:0:0:
137,96,84105,1,10,0:0:0:0:
135,118,84198,1,2,0:0:0:0:
133,140,84292,1,6,0:3:0:0:
215,81,84480,2,0,L|208:168,1,45,2|2,0:0|0:0,0:0:0:0:
290,69,84761,2,0,L|283:156,1,45,2|6,0:0|0:3,0:0:0:0:
82,33,85042,1,0,0:0:0:0:
337,242,85230,6,0,P|286:207|186:240,1,161.999995056153,6|0,0:3|0:0,0:0:0:0:
184,255,85605,1,10,0:0:0:0:
414,322,85792,2,0,P|431:249|409:152,1,161.999995056153,6|0,0:3|0:0,0:0:0:0:
394,146,86167,1,10,0:0:0:0:
227,341,86355,2,0,L|337:350,1,90,2|2,0:0|0:0,0:0:0:0:
177,228,86730,5,2,0:0:0:0:
92,301,86917,1,0,0:0:0:0:
99,225,87105,5,0,0:0:0:0:
172,310,87292,1,0,0:0:0:0:
314,159,87480,6,0,B|282:122|232:120|232:120|179:166|121:135,1,188.999994232178,0|0,0:0|0:0,0:0:0:0:
137,72,87855,2,0,P|153:6|161:76,1,188.999994232178,8|0,0:0|0:0,0:0:0:0:
65,126,88230,5,6,0:0:0:0:
273,51,88417,1,2,0:0:0:0:
23,30,88605,1,10,0:0:0:0:
179,236,88792,6,0,B|259:214|258:276|357:242,1,161.999995056153,6|0,0:3|0:0,0:0:0:0:
358,230,89167,1,10,0:0:0:0:
452,118,89355,2,0,L|466:223,1,90,6|2,0:3|0:0,0:0:0:0:
508,355,89730,6,0,P|464:311|371:330,1,161.999995056153,6|0,0:3|0:0,0:0:0:0:
363,353,90105,1,10,0:0:0:0:
213,232,90292,2,0,P|257:188|350:207,1,161.999995056153,6|0,0:3|0:0,0:0:0:0:
358,230,90667,1,10,0:0:0:0:
284,361,90855,2,0,L|291:252,1,90,6|2,0:3|0:0,0:0:0:0:
157,127,91230,5,6,0:3:0:0:
157,127,91417,1,4,0:3:0:0:
129,281,91605,1,10,0:0:0:0:
390,206,91792,6,0,L|227:194,1,161.999995056153,6|0,0:3|0:0,0:0:0:0:
201,194,92167,1,10,0:0:0:0:
398,299,92355,2,0,L|269:308,1,90,6|0,0:3|0:0,0:0:0:0:
203,371,92636,5,0,0:0:0:0:
203,371,92730,2,0,L|215:270,1,90,14|10,0:3|0:0,0:0:0:0:
81,153,93105,1,14,0:3:0:0:
90,315,93292,1,10,0:0:0:0:
208,196,93480,5,6,0:3:0:0:
20,245,93667,1,10,0:0:0:0:
170,90,93855,1,12,0:0:0:0:
209,95,93948,1,0,0:0:0:0:
249,100,94042,1,10,0:0:0:0:
289,105,94136,1,0,0:0:0:0:
329,110,94230,6,0,L|354:283,1,161.999995056153,6|0,0:0|0:0,0:0:0:0:
357,296,94605,1,10,0:0:0:0:
127,317,94792,2,0,P|179:258|279:281,1,161.999995056153,6|0,0:3|0:0,0:0:0:0:
270,286,95167,1,10,0:0:0:0:
448,369,95355,2,0,L|454:267,1,90,6|2,0:3|0:0,0:0:0:0:
312,112,95730,6,0,L|317:201,1,90,6|2,0:3|0:0,0:0:0:0:
234,89,96105,1,10,0:0:0:0:
235,111,96198,1,2,0:0:0:0:
236,133,96292,1,6,0:3:0:0:
155,67,96480,2,0,L|159:146,1,45,2|2,0:0|0:0,0:0:0:0:
76,41,96761,2,0,L|80:120,1,45,2|6,0:0|0:3,0:0:0:0:
236,6,97042,1,0,0:0:0:0:
55,207,97230,6,0,B|135:185|131:244|233:209,1,161.999995056153,6|0,0:3|0:0,0:0:0:0:
234,197,97605,1,10,0:0:0:0:
317,355,97792,2,0,P|312:283|358:196,1,161.999995056153,6|0,0:3|0:0,0:0:0:0:
377,201,98167,1,10,0:0:0:0:
237,107,98355,2,0,L|232:227,1,90,6|2,0:3|0:0,0:0:0:0:
385,101,98730,5,6,0:3:0:0:
147,47,98917,1,2,0:0:0:0:
297,18,99105,1,10,0:0:0:0:
154,207,99292,6,0,L|241:213,1,67.5,2|2,0:0|0:0,0:0:0:0:
237,212,99667,6,0,B|250:246|250:246|234:311,1,67.5000025749208,10|0,0:0|0:0,0:0:0:0:
116,131,99855,2,0,B|216:91|214:169|328:129,1,202.500007724762,2|2,0:0|0:0,0:0:0:0:
384,67,100230,5,6,0:0:0:0:
329,233,100417,1,2,0:0:0:0:
266,51,100605,1,10,0:0:0:0:
439,167,100792,6,0,L|424:358,1,161.999995056153,6|0,0:3|0:0,0:0:0:0:
422,355,101167,1,10,0:0:0:0:
228,256,101355,2,0,L|336:251,1,90,6|2,0:3|0:0,0:0:0:0:
441,144,101730,6,0,P|404:96|296:117,1,161.999995056153,6|0,0:3|0:0,0:0:0:0:
300,127,102105,1,10,0:0:0:0:
162,36,102292,2,0,P|195:105|197:195,1,161.999995056153,6|0,0:3|0:0,0:0:0:0:
183,212,102667,1,10,0:0:0:0:
390,265,102855,2,0,L|264:280,1,90,6|2,0:3|0:0,0:0:0:0:
98,193,103230,5,6,0:3:0:0:
98,193,103417,1,4,0:3:0:0:
65,336,103605,1,10,0:0:0:0:
274,280,103792,6,0,P|264:223|281:113,1,161.999995056153,6|0,0:3|0:0,0:0:0:0:
304,113,104167,1,10,0:0:0:0:
480,223,104355,2,0,L|363:229,1,90,6|0,0:3|0:0,0:0:0:0:
286,298,104636,5,0,0:0:0:0:
286,298,104730,2,0,L|169:292,1,90,14|10,0:3|0:0,0:0:0:0:
33,228,105105,1,14,0:3:0:0:
116,372,105292,1,10,0:0:0:0:
130,135,105480,6,0,L|120:199,1,45,14|0,0:3|0:0,0:0:0:0:
223,285,105667,2,0,L|216:240,1,45,2|0,0:0|0:0,0:0:0:0:
101,58,105855,2,0,P|86:111|119:195,1,135,10|2,0:0|0:0,0:0:0:0:
243,158,106230,6,0,L|251:94,1,45,6|0,0:0|0:0,0:0:0:0:
348,216,106605,2,0,L|340:152,1,45,10|2,0:0|0:0,0:0:0:0:
438,130,106886,1,2,0:0:0:0:
449,127,106980,2,0,L|443:171,2,45,2|2|10,0:0|0:0|0:0,0:0:0:0:
348,58,107542,1,2,0:0:0:0:
457,189,107730,6,0,L|451:233,2,45,2|2|10,0:0|0:0|0:0,0:0:0:0:
320,234,108292,1,10,0:0:0:0:
465,341,108480,2,0,P|442:323|371:318,1,90,2|10,0:0|0:0,0:0:0:0:
275,310,109042,5,2,0:0:0:0:
277,318,109136,1,2,0:0:0:0:
278,329,109230,2,0,P|231:348|177:333,1,90,2|10,0:0|0:0,0:0:0:0:
221,248,109792,1,2,0:0:0:0:
97,353,109980,2,0,L|110:294,1,45,2|2,0:0|0:0,0:0:0:0:
31,262,110355,2,0,L|18:203,1,45,10|2,0:0|0:0,0:0:0:0:
82,150,110636,5,0,0:0:0:0:
90,142,110730,2,0,P|146:125|189:149,1,90,2|8,0:0|0:0,0:0:0:0:
236,207,111292,1,2,0:0:0:0:
288,62,111480,2,0,L|297:146,1,67.5,2|0,0:0|0:0,0:0:0:0:
305,70,111855,2,0,L|314:154,1,67.5,10|0,0:0|0:0,0:0:0:0:
397,197,112230,6,0,L|391:252,1,45,6|0,0:0|0:0,0:0:0:0:
324,336,112605,1,10,0:0:0:0:
313,339,112698,1,0,0:0:0:0:
301,338,112792,1,2,0:0:0:0:
290,333,112886,1,2,0:0:0:0:
281,325,112980,2,0,L|276:270,1,45,2|2,0:0|0:0,0:0:0:0:
199,242,113261,1,2,0:0:0:0:
191,233,113355,2,0,L|196:178,1,45,10|2,0:0|0:0,0:0:0:0:
279,157,113636,5,2,0:0:0:0:
287,148,113730,2,0,L|282:93,1,45,2|0,0:0|0:0,0:0:0:0:
208,43,114105,1,10,0:0:0:0:
208,43,114480,2,0,L|103:54,1,90,2|10,0:0|0:0,0:0:0:0:
9,68,115042,5,2,0:0:0:0:
13,78,115136,1,2,0:0:0:0:
5,151,115230,1,10,0:0:0:0:
5,151,115605,6,0,P|31:164|61:164,1,45,10|2,0:0|0:0,0:0:0:0:
122,125,115886,1,0,0:0:0:0:
131,119,115980,2,0,P|157:106|187:106,1,45,10|2,0:0|0:0,0:0:0:0:
229,162,116261,1,2,0:0:0:0:
238,168,116355,2,0,P|264:181|294:181,1,45,10|2,0:0|0:0,0:0:0:0:
359,137,116636,1,2,0:0:0:0:
368,131,116730,6,0,P|354:211|380:293,1,135.000005149842,14|2,0:3|0:0,0:0:0:0:
484,342,117011,1,2,0:0:0:0:
491,337,117105,2,0,P|454:319|411:317,1,62.9999980773926,14|2,0:3|0:0,0:0:0:0:
365,262,117292,2,0,P|328:280|285:282,1,62.9999980773926,2|2,0:0|0:0,0:0:0:0:
234,326,117480,1,14,0:0:0:0:
