osu file format v14

[General]
AudioFilename: audio.mp3
AudioLeadIn: 0
PreviewTime: 12855
Countdown: 0
SampleSet: Soft
StackLeniency: 0.4
Mode: 0
LetterboxInBreaks: 0
WidescreenStoryboard: 1

[Editor]
Bookmarks: 13230,23730,35730,47730,59730,70230,82230,94230,106230,117480
DistanceSpacing: 0.9
BeatDivisor: 2
GridSize: 16
TimelineZoom: 1.4

[Metadata]
Title:A Bella! (feat. Lucy)
TitleUnicode:A Bella! (feat. Lucy)
Artist:M2U
ArtistUnicode:M2U
Creator:celerih
Version:Normal
Source:하이파이브
Tags:HIGH5 drug step square musiq original soundtrack pnix games Finshie Sulfur Ultima Fox Gabe Veus
BeatmapID:1437978
BeatmapSetID:678510

[Difficulty]
HPDrainRate:3
CircleSize:3
OverallDifficulty:3.5
ApproachRate:4.5
SliderMultiplier:1.2
SliderTickRate:1

[Events]
//Background and Video events
0,0,"A Bella BG.jpg",0,0
//Break Periods
2,59929,62970
//Storyboard Layer 0 (Background)
//Storyboard Layer 1 (Fail)
//Storyboard Layer 2 (Pass)
//Storyboard Layer 3 (Foreground)
//Storyboard Sound Samples

[TimingPoints]
-270,375,4,2,1,80,1,0
35730,-100,4,2,1,100,0,1
59730,-100,4,2,1,80,0,0
82230,-100,4,2,1,100,0,1
106230,-100,4,2,1,80,0,0

[Colours]
Combo1 : 226,151,171
Combo2 : 174,41,98
Combo3 : 128,145,217
Combo4 : 106,37,133

[HitObjects]
279,132,1230,6,0,P|368:148|466:107,2,180,6|6|6,0:0|0:3|0:3,0:0:0:0:
180,86,2730,2,0,P|91:70|-7:111,2,180,6|6|6,0:3|0:3|0:3,0:0:0:0:
196,193,4230,6,0,B|182:246|182:246|196:378,2,180,6|6|6,0:3|0:3|0:3,0:0:0:0:
286,251,5730,1,6,0:3:0:0:
393,265,6105,1,14,0:3:0:0:
490,218,6480,2,0,P|499:166|482:88,1,120,12|14,0:3|0:3,0:0:0:0:
383,71,7230,6,0,L|191:91,2,180,6|6|6,0:0|0:3|0:3,0:0:0:0:
332,166,8730,2,0,P|310:256|342:361,2,180,6|6|6,0:3|0:3|0:3,0:0:0:0:
372,66,10230,6,0,P|462:81|512:16,2,180,6|6|6,0:3|0:3|0:3,0:0:0:0:
306,152,11730,2,0,P|223:142|181:164,1,120,6|14,0:3|0:3,0:0:0:0:
165,203,12292,1,10,0:0:0:0:
165,203,12480,1,14,0:3:0:0:
344,322,13230,6,0,P|409:335|479:300,1,120,6|10,0:0|0:0,0:0:0:0:
492,275,13792,2,0,P|505:210|470:140,1,120,6|2,0:3|0:0,0:0:0:0:
446,124,14355,1,6,0:3:0:0:
347,169,14730,2,0,B|283:180|283:180|220:168,1,120,6|10,0:3|0:0,0:0:0:0:
176,158,15292,1,6,0:3:0:0:
74,208,15667,1,2,0:0:0:0:
74,208,15855,2,0,P|70:241|73:270,1,60,4|8,0:3|0:0,0:0:0:0:
96,322,16230,6,0,P|162:304|235:318,1,120,6|10,0:3|0:0,0:0:0:0:
261,286,16792,2,0,P|327:304|400:290,1,120,6|2,0:3|0:0,0:0:0:0:
425,272,17355,1,6,0:3:0:0:
468,173,17730,2,0,P|474:106|459:42,2,120,6|14|6,0:3|0:3|0:3,0:0:0:0:
360,186,18855,1,6,0:3:0:0:
277,255,19230,6,0,P|204:266|145:247,1,120,6|8,0:0|0:0,0:0:0:0:
122,215,19792,2,0,L|137:80,1,120,6|2,0:3|0:0,0:0:0:0:
142,42,20355,1,6,0:3:0:0:
229,105,20730,2,0,P|288:115|358:96,1,120,6|10,0:3|0:0,0:0:0:0:
383,63,21292,1,6,0:3:0:0:
424,219,21855,1,6,0:3:0:0:
317,202,22230,5,14,0:3:0:0:
317,202,22417,2,0,P|283:208|240:200,1,60,14|0,0:3|0:0,0:0:0:0:
205,219,22792,2,0,P|129:211|81:224,1,120,14|14,0:3|0:3,0:0:0:0:
49,260,23355,1,12,0:3:0:0:
26,154,23730,6,0,L|148:141,1,120,6|12,0:0|0:3,0:0:0:0:
233,79,24480,2,0,L|355:91,1,120,4|14,0:3|0:3,0:0:0:0:
430,165,25230,2,0,P|444:234|427:295,1,120,6|14,0:3|0:3,0:0:0:0:
345,217,25980,2,0,P|331:148|348:87,1,120,4|14,0:3|0:3,0:0:0:0:
258,32,26730,6,0,P|196:20|136:33,1,120,4|14,0:3|0:3,0:0:0:0:
62,105,27480,2,0,P|50:167|63:227,1,120,4|14,0:3|0:3,0:0:0:0:
158,268,28230,2,0,L|280:254,1,120,14|10,0:3|0:0,0:0:0:0:
330,247,28792,1,6,0:3:0:0:
360,143,29167,1,10,0:0:0:0:
360,143,29355,1,14,0:3:0:0:
309,47,29730,6,0,P|242:33|180:48,1,120,6|12,0:0|0:3,0:0:0:0:
130,131,30480,2,0,L|117:255,1,120,4|14,0:3|0:3,0:0:0:0:
218,210,31230,2,0,P|276:200|346:218,1,120,6|14,0:3|0:3,0:0:0:0:
398,299,31980,2,0,P|340:309|270:291,1,120,4|14,0:3|0:3,0:0:0:0:
206,216,32730,6,0,L|196:91,1,120,4|14,0:3|0:3,0:0:0:0:
283,32,33480,2,0,L|293:157,1,120,4|14,0:3|0:3,0:0:0:0:
376,219,34230,2,0,P|411:224|451:217,1,60,14|10,0:3|0:0,0:0:0:0:
483,197,34605,1,10,0:0:0:0:
483,197,34792,1,14,0:3:0:0:
453,93,35167,1,14,0:3:0:0:
307,164,35730,6,0,B|244:173|244:173|167:159,1,120,6|10,0:0|0:0,0:0:0:0:
145,194,36292,2,0,B|82:185|82:185|5:199,1,120,6|10,0:3|0:0,0:0:0:0:
9,246,36855,1,6,0:3:0:0:
91,315,37230,2,0,P|126:319|169:310,1,60,6|2,0:3|0:0,0:0:0:0:
198,290,37605,2,0,P|233:286|276:295,1,60,10|6,0:0|0:3,0:0:0:0:
307,308,37980,2,0,P|371:320|433:301,1,120,2|6,0:0|0:3,0:0:0:0:
476,211,38730,6,0,L|489:85,1,120,6|10,0:3|0:0,0:0:0:0:
437,109,39292,2,0,P|380:126|313:119,1,120,6|10,0:3|0:0,0:0:0:0:
277,88,39855,1,6,0:3:0:0:
249,192,40230,2,0,P|246:227|252:263,1,60,6|2,0:3|0:0,0:0:0:0:
275,299,40605,1,14,0:3:0:0:
275,299,40792,2,0,P|357:313|447:275,1,180,2|6,0:0|0:3,0:0:0:0:
457,148,41730,6,0,P|460:120|449:74,2,60,6|2|10,0:0|0:0|0:0,0:0:0:0:
414,181,42292,2,0,B|348:197|348:197|211:175,1,180,6|6,0:3|0:3,0:0:0:0:
130,162,43230,2,0,P|115:92|130:32,1,120,6|10,0:3|0:0,0:0:0:0:
160,4,43792,2,0,P|230:-11|290:4,1,120,6|10,0:3|0:0,0:0:0:0:
317,33,44355,1,6,0:3:0:0:
305,140,44730,6,0,L|290:284,1,120,6|10,0:3|0:0,0:0:0:0:
286,312,45292,1,6,0:3:0:0:
191,259,45667,1,10,0:0:0:0:
191,259,45855,2,0,P|186:226|196:185,1,60,6|0,0:3|0:0,0:0:0:0:
212,150,46230,5,14,0:3:0:0:
212,150,46417,2,0,P|148:165|87:144,1,120,10|10,0:0|0:0,0:0:0:0:
39,58,47167,2,0,L|30:-21,2,60,2|2|2,0:0|0:0|0:0,0:0:0:0:
92,63,47730,6,0,P|151:75|229:50,1,120,6|10,0:0|0:0,0:0:0:0:
251,94,48292,2,0,P|309:80|367:92,1,120,6|10,0:3|0:0,0:0:0:0:
409,127,48855,1,6,0:3:0:0:
352,218,49230,2,0,L|277:211,1,60,6|2,0:3|0:0,0:0:0:0:
244,187,49605,2,0,L|169:193,1,60,10|6,0:0|0:3,0:0:0:0:
138,221,49980,2,0,L|-6:205,1,120,2|6,0:0|0:3,0:0:0:0:
58,308,50730,6,0,P|122:320|186:299,1,120,6|10,0:3|0:0,0:0:0:0:
217,273,51292,2,0,P|229:209|208:145,1,120,6|10,0:3|0:0,0:0:0:0:
181,114,51855,1,6,0:3:0:0:
268,51,52230,2,0,P|302:49|339:54,1,60,6|10,0:3|0:0,0:0:0:0:
374,79,52605,1,10,0:0:0:0:
374,79,52792,2,0,B|398:140|398:140|377:259,1,180,10|6,0:0|0:3,0:0:0:0:
287,311,53730,6,0,L|211:318,2,60,6|2|10,0:0|0:0|0:0,0:0:0:0:
299,258,54292,2,0,P|286:186|185:159,1,180,6|6,0:3|0:3,0:0:0:0:
87,181,55230,2,0,P|77:124|96:55,1,120,6|10,0:3|0:0,0:0:0:0:
120,18,55792,2,0,L|249:31,1,120,6|10,0:3|0:0,0:0:0:0:
293,38,56355,1,6,0:3:0:0:
359,123,56730,6,0,P|371:194|353:251,1,120,6|10,0:3|0:0,0:0:0:0:
325,282,57292,1,6,0:3:0:0:
225,240,57667,1,10,0:0:0:0:
225,240,57855,2,0,P|192:235|150:245,1,60,6|0,0:3|0:0,0:0:0:0:
116,261,58230,5,14,0:3:0:0:
116,261,58417,2,0,L|103:139,1,120,10|10,0:0|0:0,0:0:0:0:
167,54,59167,1,2,0:0:0:0:
167,54,59355,2,0,P|231:64|289:46,1,120,8|6,0:0|0:0,0:0:0:0:
286,150,64230,6,0,B|251:153|220:140|220:140|187:158|148:164|102:155,2,180,0|4|0,0:0|0:3|0:0,0:0:0:0:
392,148,65730,6,0,P|405:208|390:271,1,120,6|10,0:0|0:0,0:0:0:0:
363,309,66292,1,6,0:3:0:0:
203,338,66855,1,6,0:3:0:0:
146,245,67230,2,0,P|203:232|269:250,1,120,6|10,0:3|0:0,0:0:0:0:
299,284,67792,1,6,0:3:0:0:
278,123,68355,1,6,0:3:0:0:
353,45,68730,6,0,P|382:100|367:182,1,120,6|10,0:0|0:0,0:0:0:0:
338,256,69480,1,14,0:0:0:0:
372,358,69855,1,14,0:0:0:0:
443,276,70230,6,0,L|456:154,1,120,6|12,0:0|0:3,0:0:0:0:
377,82,70980,2,0,L|365:204,1,120,4|14,0:3|0:3,0:0:0:0:
273,258,71730,2,0,P|204:272|143:255,1,120,6|14,0:3|0:3,0:0:0:0:
89,176,72480,2,0,P|158:162|219:179,1,120,4|14,0:3|0:3,0:0:0:0:
307,136,73230,6,0,L|428:147,1,120,4|14,0:3|0:3,0:0:0:0:
461,45,73980,2,0,L|339:56,1,120,4|14,0:3|0:3,0:0:0:0:
236,81,74730,2,0,P|222:138|243:200,1,120,14|10,0:3|0:0,0:0:0:0:
285,224,75292,1,14,0:3:0:0:
392,216,75667,1,8,0:0:0:0:
392,216,75855,1,12,0:3:0:0:
450,125,76230,6,0,P|383:111|321:126,1,120,6|12,0:0|0:3,0:0:0:0:
243,181,76980,2,0,P|176:195|114:180,1,120,4|14,0:3|0:3,0:0:0:0:
44,114,77730,2,0,L|29:250,1,120,6|14,0:3|0:3,0:0:0:0:
113,304,78480,2,0,L|127:167,1,120,4|14,0:3|0:3,0:0:0:0:
194,101,79230,6,0,P|252:83|316:97,1,120,4|14,0:3|0:3,0:0:0:0:
373,180,79980,2,0,P|315:198|251:184,1,120,4|14,0:3|0:3,0:0:0:0:
149,186,80730,2,0,P|112:182|74:188,1,60,14|10,0:3|0:0,0:0:0:0:
42,211,81105,1,10,0:0:0:0:
42,211,81292,1,14,0:3:0:0:
11,107,81667,1,12,0:3:0:0:
159,44,82230,6,0,P|219:33|296:51,1,120,4|10,0:0|0:0,0:0:0:0:
318,76,82792,2,0,P|378:87|455:69,1,120,6|10,0:3|0:0,0:0:0:0:
483,50,83355,1,6,0:3:0:0:
456,154,83730,2,0,L|447:232,1,60,6|2,0:3|0:0,0:0:0:0:
470,263,84105,2,0,L|461:341,1,60,10|6,0:0|0:3,0:0:0:0:
414,346,84480,2,0,P|350:358|288:339,1,120,2|6,0:0|0:3,0:0:0:0:
237,254,85230,6,0,L|250:128,1,120,6|10,0:3|0:0,0:0:0:0:
201,110,85792,2,0,P|144:127|79:105,1,120,6|10,0:3|0:0,0:0:0:0:
58,65,86355,1,2,0:0:0:0:
24,167,86730,2,0,P|29:199|27:238,1,60,2|0,0:0|0:0,0:0:0:0:
12,278,87105,2,0,P|7:310|9:349,2,60,0|0|0,0:0|0:0|0:0,0:0:0:0:
120,283,87855,1,8,0:0:0:0:
181,193,88230,6,0,P|183:169|179:131,2,60,6|2|10,0:0|0:0|0:0,0:0:0:0:
221,229,88792,2,0,P|295:206|416:236,1,180,6|6,0:3|0:3,0:0:0:0:
483,284,89730,2,0,B|498:229|498:229|483:154,1,120,6|10,0:3|0:0,0:0:0:0:
459,119,90292,2,0,B|404:104|404:104|329:119,1,120,6|10,0:3|0:0,0:0:0:0:
290,131,90855,1,6,0:3:0:0:
275,237,91230,6,0,P|209:244|148:212,1,120,6|10,0:3|0:0,0:0:0:0:
132,177,91792,1,6,0:3:0:0:
141,69,92167,1,10,0:0:0:0:
141,69,92355,2,0,P|174:64|217:71,1,60,6|0,0:3|0:0,0:0:0:0:
250,87,92730,5,14,0:3:0:0:
250,87,92918,2,0,P|307:102|364:87,1,120,10|10,0:0|0:0,0:0:0:0:
438,165,93667,2,0,L|497:171,2,60,10|12|10,0:0|0:0|0:0,0:0:0:0:
389,189,94230,6,0,L|250:203,1,120,6|10,0:0|0:0,0:0:0:0:
221,177,94792,2,0,L|82:162,1,120,6|10,0:3|0:0,0:0:0:0:
50,182,95355,1,6,0:3:0:0:
77,286,95730,2,0,P|108:289|151:281,1,60,6|2,0:3|0:0,0:0:0:0:
189,272,96105,2,0,P|220:269|263:277,1,60,10|6,0:0|0:3,0:0:0:0:
288,309,96480,2,0,P|281:252|288:184,1,120,2|6,0:0|0:3,0:0:0:0:
330,91,97230,6,0,P|262:100|190:86,1,120,6|10,0:3|0:0,0:0:0:0:
161,112,97792,2,0,P|93:103|21:117,1,120,6|10,0:3|0:0,0:0:0:0:
1,145,98355,1,6,0:3:0:0:
36,247,98730,2,0,L|28:312,1,60,6|2,0:3|0:0,0:0:0:0:
70,341,99105,1,10,0:0:0:0:
70,341,99292,2,0,B|132:359|132:359|249:340,1,180,2|2,0:0|0:0,0:0:0:0:
352,318,100230,6,0,L|428:325,2,60,6|2|10,0:0|0:0|0:0,0:0:0:0:
316,276,100792,2,0,P|303:204|395:193,1,180,6|6,0:3|0:3,0:0:0:0:
495,210,101730,2,0,B|505:149|505:149|496:87,1,120,6|10,0:3|0:0,0:0:0:0:
471,44,102292,2,0,B|410:54|410:54|348:45,1,120,6|10,0:3|0:0,0:0:0:0:
300,31,102855,1,6,0:3:0:0:
331,134,103230,6,0,P|343:205|325:262,1,120,6|10,0:3|0:0,0:0:0:0:
304,297,103792,1,6,0:3:0:0:
200,265,104167,1,10,0:0:0:0:
200,265,104355,2,0,P|167:260|125:270,1,60,6|0,0:3|0:0,0:0:0:0:
116,261,104730,5,14,0:3:0:0:
116,261,104917,2,0,L|103:139,1,120,10|10,0:0|0:0,0:0:0:0:
160,50,105667,1,2,0:0:0:0:
160,50,105855,1,10,0:0:0:0:
210,145,106230,6,0,P|268:151|350:135,1,120,6|10,0:0|0:0,0:0:0:0:
436,136,106980,2,0,L|499:141,2,60,2|2|10,0:0|0:0|0:0,0:0:0:0:
391,234,107730,1,2,0:0:0:0:
336,327,108105,2,0,L|273:332,2,60,10|10|2,0:0|0:0|0:0,0:0:0:0:
443,318,108855,1,10,0:0:0:0:
469,213,109230,6,0,P|407:191|329:203,1,120,2|10,0:0|0:0,0:0:0:0:
259,247,109980,2,0,L|255:310,2,60,2|2|10,0:0|0:0|0:0,0:0:0:0:
269,139,110730,1,2,0:0:0:0:
171,95,111105,1,8,0:0:0:0:
98,175,111480,1,2,0:0:0:0:
152,269,111855,1,10,0:0:0:0:
259,247,112230,6,0,P|328:233|379:249,1,120,6|10,0:0|0:0,0:0:0:0:
463,307,112980,2,0,L|466:388,2,60,2|2|10,0:0|0:0|0:0,0:0:0:0:
468,199,113730,2,0,P|460:139|469:65,2,120,2|10|2,0:0|0:0|0:0,0:0:0:0:
509,299,114855,2,0,L|413:292,1,60,10|2,0:0|0:0,0:0:0:0:
398,275,115230,6,0,L|260:289,1,120,10|10,0:0|0:0,0:0:0:0:
179,331,115980,1,10,0:0:0:0:
79,288,116355,1,10,0:0:0:0:
96,181,116730,6,0,B|106:123|106:123|87:57,2,120,14|14|14,0:3|0:3|0:0,0:0:0:0:
