osu file format v14

[General]
AudioFilename: audio.mp3
AudioLeadIn: 0
PreviewTime: 37318
Countdown: 0
SampleSet: Normal
StackLeniency: 0.7
Mode: 2
LetterboxInBreaks: 0
WidescreenStoryboard: 1

[Editor]
Bookmarks: 15006,25506,72006,119256
DistanceSpacing: 1.9
BeatDivisor: 4
GridSize: 8
TimelineZoom: 1.6

[Metadata]
Title:A Bella! (feat. Lucy)
TitleUnicode:A Bella! (feat. Lucy)
Artist:M2U
ArtistUnicode:M2U
Creator:ZiRoX
Version:Salad
Source:하이파이브
Tags:PNIX Games HIGH5 Drugstep drug step square musiq original soundtrack JBHyperion Deif Chromoxx
BeatmapID:1147349
BeatmapSetID:541101

[Difficulty]
HPDrainRate:5
CircleSize:3
OverallDifficulty:7
ApproachRate:7
SliderMultiplier:1.4
SliderTickRate:1

[Events]
//Background and Video events
0,0,"bg.png",0,0
//Break Periods
//Storyboard Layer 0 (Background)
//Storyboard Layer 1 (Fail)
//Storyboard Layer 2 (Pass)
//Storyboard Layer 3 (Foreground)
//Storyboard Sound Samples

[TimingPoints]
3006,375,4,1,1,40,1,0
15006,-133.333333333333,4,1,1,30,0,0
24568,-133.333333333333,4,1,1,40,0,0
25131,-133.333333333333,4,1,1,30,0,0
25506,-133.333333333333,4,1,1,40,0,0
37506,-100,4,1,2,50,0,1
48756,-100,4,3,0,40,0,0
49506,-100,4,1,2,50,0,1
54568,-100,4,1,2,60,0,1
55131,-100,4,1,2,50,0,1
60756,-100,4,3,0,40,0,1
61131,-100,4,1,2,50,0,1
61506,-166.666666666667,4,2,0,45,0,0
65443,-166.666666666667,4,3,0,30,0,0
66568,-166.666666666667,4,1,1,40,0,0
67506,-133.333333333333,4,1,1,40,0,0
72006,-133.333333333333,4,1,1,40,0,0
82131,-133.333333333333,4,1,1,50,0,0
82506,-100,4,1,1,60,0,0
83068,-100,4,1,1,50,0,0
84006,-100,4,1,2,50,0,1
88506,-100,4,1,2,40,0,0
89631,-100,4,1,2,60,0,0
90006,-100,4,1,2,50,0,1
95256,-100,4,3,0,40,0,0
96006,-100,4,1,2,50,0,1
101068,-100,4,1,2,40,0,1
101631,-100,4,1,2,50,0,1
107256,-100,4,3,0,40,0,1
107631,-100,4,1,2,50,0,1
108006,-133.333333333333,4,2,0,40,0,0
118506,-133.333333333333,4,1,1,50,0,0

[Colours]
Combo1 : 220,213,114
Combo2 : 149,76,79
Combo3 : 242,104,129
Combo4 : 106,96,154

[HitObjects]
168,288,3006,6,0,L|92:248,2,70,4|0|2,0:0|0:0|0:0,0:0:0:0:
240,288,3568,1,8,0:0:0:0:
376,288,3943,2,0,L|392:208,1,70,0|2,0:0|0:0,0:0:0:0:
216,240,4506,6,0,L|192:168,3,70,4|0|2|8,0:0|0:0|0:0|0:0,0:0:0:0:
56,176,5443,2,0,L|40:104,1,70,0|2,0:0|0:0,0:0:0:0:
222,178,6006,6,0,L|310:226,2,70,4|0|2,0:0|0:0|0:0,0:0:0:0:
166,170,6568,1,8,0:0:0:0:
24,176,6943,2,0,L|8:248,1,70,0|2,0:0|0:0,0:0:0:0:
168,240,7506,5,4,0:0:0:0:
320,240,7881,2,0,L|352:302,1,70,2|8,0:0|0:0,0:0:0:0:
184,312,8443,2,0,L|176:224,1,70,8|2,0:0|0:0,0:0:0:0:
448,288,9006,6,0,L|524:248,2,70,4|0|2,0:0|0:0|0:0,0:0:0:0:
376,288,9568,1,8,0:0:0:0:
216,288,9943,2,0,L|200:208,1,70,0|2,0:0|0:0,0:0:0:0:
488,232,10506,6,0,L|424:192,1,70,4|0,0:0|0:0,0:0:0:0:
368,168,10881,2,0,L|304:128,1,70,2|8,0:0|0:0,0:0:0:0:
480,120,11443,2,0,L|496:48,1,70,8|2,0:0|0:0,0:0:0:0:
192,120,12006,6,0,L|104:168,2,70,4|0|2,0:0|0:0|0:0,0:0:0:0:
248,112,12568,1,8,0:0:0:0:
390,118,12943,2,0,L|406:190,1,70,0|2,0:0|0:0,0:0:0:0:
200,176,13506,5,4,0:0:0:0:
144,208,13693,1,0,0:0:0:0:
256,224,13881,1,2,0:0:0:0:
304,256,14068,1,2,0:0:0:0:
192,296,14256,1,2,0:0:0:0:
336,352,14631,1,2,0:0:0:0:
72,360,15006,6,0,P|64:288|96:224,1,105.000004005432,4|8,0:0|0:0,0:0:0:0:
104,208,15568,1,2,0:0:0:0:
256,144,15943,2,0,L|304:80,1,52.5000020027161,8|2,0:0|0:0,0:0:0:0:
152,72,16506,6,0,P|112:88|72:152,1,105.000004005432,4|8,0:0|0:0,0:0:0:0:
64,184,17068,1,2,0:0:0:0:
176,184,17443,2,0,L|208:232,1,52.5000020027161,8|2,0:0|0:0,0:0:0:0:
344,224,18006,6,0,L|424:192,2,52.5000020027161,4|0|8,0:0|0:0|0:0,0:0:0:0:
280,232,18568,1,2,0:0:0:0:
136,232,18943,2,0,L|112:168,1,52.5000020027161,8|2,0:0|0:0,0:0:0:0:
392,56,19506,6,0,L|464:96,2,52.5000020027161,4|8|2,0:0|0:0|0:0,0:0:0:0:
320,120,20068,2,0,L|248:136,2,52.5000020027161,8|2|0,0:0|0:0|0:0,0:0:0:0:
392,104,20631,1,2,0:0:0:0:
128,264,21006,6,0,P|136:192|224:112,1,157.500006008148,4|2,0:0|0:0,0:0:0:0:
352,128,21943,2,0,L|384:192,1,52.5000020027161,8|2,0:0|0:0,0:0:0:0:
224,208,22506,6,0,L|152:176,2,52.5000020027161,4|0|8,0:0|0:0|0:0,0:0:0:0:
320,216,23068,2,0,P|408:184|440:128,1,157.500006008148,2|2,0:0|0:0,0:0:0:0:
264,120,24006,6,0,L|208:96,1,52.5000020027161,4|4,0:0|0:0,0:0:0:0:
464,144,24568,2,0,P|384:216|352:240,1,105.000004005432,6|0,0:0|0:0,0:0:0:0:
312,248,25131,1,4,1:1:0:0:
40,112,25506,6,0,L|200:144,2,157.500006008148,4|0|2,0:0|0:0|0:0,0:0:0:0:
192,200,27006,6,0,L|216:344,1,105.000004005432,4|2,0:0|0:0,0:0:0:0:
312,304,27568,2,0,L|330:200,1,105.000004005432,8|8,0:0|0:0,0:0:0:0:
224,200,28131,1,2,0:0:0:0:
384,200,28506,6,0,L|440:200,2,52.5000020027161,4|2|2,0:0|0:0|0:0,0:0:0:0:
312,200,29068,2,0,L|152:200,1,157.500006008148,8|2,0:0|0:0,0:0:0:0:
312,200,30006,6,0,L|384:200,2,52.5000020027161,8|8|8,0:0|0:0|0:0,0:0:0:0:
232,200,30568,2,0,L|112:200,1,105.000004005432,2|0,0:0|0:0,0:0:0:0:
56,208,31131,1,4,0:0:0:0:
336,112,31506,6,0,L|176:144,2,157.500006008148,4|0|2,0:0|0:0|0:0,0:0:0:0:
464,104,33006,6,0,L|496:248,1,105.000004005432,2|2,0:0|0:0,0:0:0:0:
384,200,33568,2,0,L|368:304,1,105.000004005432,8|8,0:0|0:0,0:0:0:0:
264,304,34131,1,2,0:0:0:0:
112,304,34506,6,0,L|56:304,2,52.5000020027161,4|8|2,0:0|0:0|0:0,0:0:0:0:
192,304,35068,2,0,L|320:304,1,105.000004005432,8|8,0:0|0:0,0:0:0:0:
376,304,35631,1,2,0:0:0:0:
248,176,36006,6,0,L|168:176,2,52.5000020027161,4|10|4,0:0|3:1|3:1,0:0:0:0:
408,176,36568,2,0,P|432:128|408:88,1,105.000004005432,10|4,0:0|1:1,0:0:0:0:
64,176,37506,6,0,L|216:176,1,140,4|8,0:0|0:0,0:0:0:0:
304,160,38068,2,0,L|304:312,1,140,4|8,0:0|0:0,0:0:0:0:
200,304,38631,1,4,0:0:0:0:
392,304,39006,6,0,L|456:272,2,70,2|2|2,0:0|0:0|0:0,0:0:0:0:
304,304,39568,2,0,L|240:272,2,70,6|0|0,0:0|0:0|0:0,0:0:0:0:
400,304,40131,1,6,0:0:0:0:
136,304,40506,6,0,L|280:304,1,140,4|8,0:0|0:0,0:0:0:0:
368,224,41068,2,0,L|224:224,1,140,4|8,0:0|0:0,0:0:0:0:
136,224,41631,1,4,0:0:0:0:
336,232,42006,6,0,L|400:200,2,70,2|0|2,0:0|0:0|0:0,0:0:0:0:
248,232,42568,2,0,L|184:200,2,70,0|6|0,0:0|0:0|0:0,0:0:0:0:
344,232,43131,1,6,0:0:0:0:
88,232,43506,6,0,L|240:232,1,140,12|8,0:0|0:0,0:0:0:0:
312,232,44068,1,6,0:0:0:0:
136,232,44443,2,0,L|64:232,2,70,8|4|8,0:0|0:0|0:0,0:0:0:0:
304,232,45006,6,0,P|344:192|296:136,1,140,2|2,0:0|0:0,0:0:0:0:
216,136,45568,1,4,0:0:0:0:
384,136,45943,2,0,L|456:136,2,70,8|4|8,0:0|0:0|0:0,0:0:0:0:
216,136,46506,6,0,P|176:96|224:40,1,140,2|2,0:0|0:0,0:0:0:0:
304,40,47068,1,4,0:0:0:0:
120,240,47443,2,0,L|55:240,1,65,8|0,0:0|0:0,0:0:0:0:
360,240,48006,6,0,L|448:240,2,65,12|0|0,0:0|0:0|0:0,0:0:0:0:
176,240,48756,1,4,0:0:0:0:
112,200,48943,1,2,0:0:0:0:
104,144,49131,1,2,0:0:0:0:
136,88,49318,1,2,0:0:0:0:
328,176,49506,6,0,P|368:136|320:80,1,140,4|8,0:0|0:0,0:0:0:0:
240,80,50068,1,4,0:0:0:0:
72,80,50443,2,0,L|8:40,1,70,8|4,0:0|0:0,0:0:0:0:
208,176,51006,6,0,L|264:144,2,65,2|0|0,0:0|0:0|0:0,0:0:0:0:
112,176,51568,2,0,L|56:144,2,65,6|0|0,0:0|0:0|0:0,0:0:0:0:
208,176,52131,1,6,0:0:0:0:
488,200,52506,6,0,P|480:136|416:88,1,140,4|8,0:0|0:0,0:0:0:0:
352,80,53068,1,4,0:0:0:0:
192,80,53443,2,0,L|120:32,1,70,8|4,0:0|0:0,0:0:0:0:
328,80,54006,6,0,L|400:40,2,70,2|0|2,0:0|0:0|0:0,0:0:0:0:
152,72,54568,2,0,P|80:104|112:160,1,140,14|8,0:0|0:0,0:0:0:0:
152,208,55131,1,6,0:0:0:0:
424,88,55506,5,12,0:0:0:0:
256,88,55881,2,0,L|200:136,1,70,8|6,0:0|0:0,0:0:0:0:
376,160,56443,2,0,L|432:208,2,70,8|4|8,0:0|0:0|0:0,0:0:0:0:
216,224,57006,5,2,0:0:0:0:
400,232,57381,2,0,L|456:280,1,70,2|4,0:0|0:0,0:0:0:0:
280,304,57943,2,0,L|224:352,2,70,8|4|8,0:0|0:0|0:0,0:0:0:0:
448,296,58506,5,2,0:0:0:0:
264,304,58881,2,0,L|192:256,1,70,2|4,0:0|0:0,0:0:0:0:
384,240,59443,2,0,L|456:192,1,70,8|4,0:0|0:0,0:0:0:0:
160,208,60006,5,12,0:0:0:0:
96,208,60193,1,2,0:0:0:0:
160,208,60381,1,12,0:0:0:0:
328,208,60756,2,0,L|400:208,2,70,4|12|0,0:0|0:0|0:0,0:0:0:0:
48,208,61506,6,0,L|152:208,1,83.9999974365235,2|2,0:0|0:0,0:0:0:0:
184,208,62068,1,2,0:0:0:0:
248,208,62256,2,0,L|352:208,1,83.9999974365235,2|2,0:0|0:0,0:0:0:0:
216,104,63006,6,0,L|112:104,1,83.9999974365235,2|2,0:0|0:0,0:0:0:0:
64,104,63568,2,0,L|168:104,1,83.9999974365235,2|2,0:0|0:0,0:0:0:0:
216,104,64131,1,2,0:0:0:0:
416,104,64506,6,0,L|496:104,2,41.9999987182618,2|0|2,0:0|0:0|0:0,0:0:0:0:
360,104,65068,1,2,0:0:0:0:
256,112,65443,2,0,L|200:112,2,41.9999987182618,4|4|4,0:0|0:0|0:0,0:0:0:0:
320,120,66006,6,0,L|408:216,1,125.999996154785,4|4,0:0|0:0,0:0:0:0:
208,240,66943,2,0,L|152:240,1,41.9999987182618,8|4,0:0|0:0,0:0:0:0:
480,224,67506,6,0,L|360:224,1,105.000004005432,4|8,0:0|0:0,0:0:0:0:
320,224,68068,1,2,0:0:0:0:
440,224,68443,2,0,L|488:176,1,52.5000020027161,0|2,0:0|0:0,0:0:0:0:
208,136,69006,6,0,L|328:136,1,105.000004005432,4|8,0:0|0:0,0:0:0:0:
368,136,69568,1,2,0:0:0:0:
248,136,69943,2,0,L|200:88,1,52.5000020027161,8|2,0:0|0:0,0:0:0:0:
464,96,70506,6,0,L|416:96,1,48.750001859665,4|0,0:0|0:0,0:0:0:0:
248,192,71068,2,0,L|200:192,1,48.750001859665,8|0,0:0|0:0,0:0:0:0:
384,192,71631,1,6,0:0:0:0:
128,112,72006,6,0,L|288:144,2,157.500006008148,4|0|2,0:0|0:0|0:0,0:0:0:0:
280,200,73506,6,0,L|304:344,1,105.000004005432,4|2,0:0|0:0,0:0:0:0:
400,304,74068,2,0,L|418:200,1,105.000004005432,8|8,0:0|0:0,0:0:0:0:
320,200,74631,1,2,0:0:0:0:
176,200,75006,6,0,L|120:200,2,52.5000020027161,4|2|2,0:0|0:0|0:0,0:0:0:0:
232,200,75568,2,0,L|392:200,1,157.500006008148,8|2,0:0|0:0,0:0:0:0:
176,200,76506,6,0,L|104:200,2,52.5000020027161,8|8|8,0:0|0:0|0:0,0:0:0:0:
240,200,77068,2,0,L|120:200,1,105.000004005432,2|0,0:0|0:0,0:0:0:0:
64,200,77631,1,4,0:0:0:0:
328,112,78006,6,0,L|168:144,2,157.500006008148,4|0|2,0:0|0:0|0:0,0:0:0:0:
464,104,79506,6,0,L|496:248,1,105.000004005432,2|2,0:0|0:0,0:0:0:0:
384,200,80068,2,0,L|368:304,1,105.000004005432,8|8,0:0|0:0,0:0:0:0:
264,304,80631,1,2,0:0:0:0:
128,304,81006,6,0,L|72:304,2,52.5000020027161,4|8|2,0:0|0:0|0:0,0:0:0:0:
208,304,81568,2,0,L|336:304,1,105.000004005432,8|8,0:0|0:0,0:0:0:0:
392,304,82131,1,10,0:0:0:0:
136,176,82506,6,0,L|280:176,1,140,10|4,0:0|1:1,0:0:0:0:
336,176,83068,2,0,L|480:176,1,140,10|4,0:0|1:1,0:0:0:0:
88,176,84006,6,0,L|18:176,2,70,4|0|8,0:0|0:0|0:0,0:0:0:0:
160,176,84568,2,0,P|200:224|152:280,1,140,4|8,0:0|0:0,0:0:0:0:
88,280,85131,1,4,0:0:0:0:
280,304,85506,6,0,L|344:272,2,70,2|2|2,0:0|0:0|0:0,0:0:0:0:
192,304,86068,2,0,L|128:272,2,70,6|0|0,0:0|0:0|0:0,0:0:0:0:
288,304,86631,1,6,0:0:0:0:
24,304,87006,6,0,L|168:304,1,140,4|8,0:0|0:0,0:0:0:0:
256,224,87568,2,0,L|112:224,1,140,4|8,0:0|0:0,0:0:0:0:
24,224,88131,1,4,0:0:0:0:
296,232,88506,6,0,P|344:200|320:128,1,140,2|2,0:0|0:0,0:0:0:0:
248,232,89068,2,0,L|184:200,1,70,14|0,0:0|0:0,0:0:0:0:
432,232,89631,1,6,0:0:0:0:
176,232,90006,6,0,L|328:232,1,140,12|8,0:0|0:0,0:0:0:0:
392,232,90568,1,6,0:0:0:0:
200,232,90943,2,0,L|128:232,2,70,8|4|8,0:0|0:0|0:0,0:0:0:0:
368,232,91506,6,0,P|408:192|360:136,1,140,2|2,0:0|0:0,0:0:0:0:
280,136,92068,1,4,0:0:0:0:
440,136,92443,2,0,L|512:136,2,70,8|4|8,0:0|0:0|0:0,0:0:0:0:
272,136,93006,6,0,P|232:96|280:40,1,140,2|2,0:0|0:0,0:0:0:0:
352,40,93568,1,4,0:0:0:0:
193,240,93943,2,0,L|128:240,1,65,8|0,0:0|0:0,0:0:0:0:
320,240,94506,6,0,L|408:240,2,65,12|0|0,0:0|0:0|0:0,0:0:0:0:
160,240,95256,1,4,0:0:0:0:
104,200,95443,1,2,0:0:0:0:
96,136,95631,1,2,0:0:0:0:
144,88,95818,1,2,0:0:0:0:
320,176,96006,6,0,P|360:136|312:80,1,140,4|8,0:0|0:0,0:0:0:0:
232,80,96568,1,4,0:0:0:0:
72,80,96943,2,0,L|8:40,1,70,8|4,0:0|0:0,0:0:0:0:
208,176,97506,6,0,L|264:144,2,65,2|0|0,0:0|0:0|0:0,0:0:0:0:
112,176,98068,2,0,L|56:144,2,65,6|0|0,0:0|0:0|0:0,0:0:0:0:
208,176,98631,1,6,0:0:0:0:
480,200,99006,6,0,P|480:136|416:88,1,140,4|8,0:0|0:0,0:0:0:0:
352,80,99568,1,4,0:0:0:0:
192,80,99943,2,0,L|120:32,1,70,8|4,0:0|0:0,0:0:0:0:
328,80,100506,6,0,L|400:40,2,70,2|0|2,0:0|0:0|0:0,0:0:0:0:
240,88,101068,2,0,L|96:88,1,140,14|10,0:0|0:0,0:0:0:0:
176,88,101631,1,6,0:0:0:0:
456,88,102006,5,12,0:0:0:0:
288,88,102381,2,0,L|232:136,1,70,8|6,0:0|0:0,0:0:0:0:
408,160,102943,2,0,L|464:208,2,70,8|4|8,0:0|0:0|0:0,0:0:0:0:
248,224,103506,5,2,0:0:0:0:
432,232,103881,2,0,L|488:280,1,70,2|4,0:0|0:0,0:0:0:0:
312,304,104443,2,0,L|256:352,2,70,8|4|8,0:0|0:0|0:0,0:0:0:0:
480,296,105006,5,2,0:0:0:0:
320,304,105381,2,0,L|248:256,1,70,2|4,0:0|0:0,0:0:0:0:
432,240,105943,2,0,L|504:192,1,70,8|4,0:0|0:0,0:0:0:0:
208,208,106506,5,12,0:0:0:0:
144,208,106693,1,2,0:0:0:0:
208,208,106881,1,12,0:0:0:0:
368,208,107256,2,0,L|440:208,2,70,4|12|0,0:0|0:0|0:0,0:0:0:0:
88,112,108006,6,0,L|224:112,1,105.000004005432,6|8,0:0|0:0,0:0:0:0:
336,112,108756,2,0,L|416:112,2,52.5000020027161,2|0|8,0:0|0:0|0:0,0:0:0:0:
272,112,109318,1,0,0:0:0:0:
208,112,109506,6,0,L|168:232,1,105.000004005432,2|8,0:0|0:0,0:0:0:0:
248,216,110068,1,8,0:0:0:0:
328,224,110256,2,0,L|368:336,1,105.000004005432,2|8,0:0|0:0,0:0:0:0:
120,328,111006,6,0,L|136:224,1,105.000004005432,2|8,0:0|0:0,0:0:0:0:
208,224,111568,1,0,0:0:0:0:
280,224,111756,2,0,L|352:224,2,52.5000020027161,2|0|8,0:0|0:0|0:0,0:0:0:0:
208,224,112318,1,0,0:0:0:0:
136,232,112506,6,0,L|96:112,1,105.000004005432,2|8,0:0|0:0,0:0:0:0:
176,128,113068,1,0,0:0:0:0:
248,120,113256,2,0,L|272:8,1,105.000004005432,2|8,0:0|0:0,0:0:0:0:
496,40,114006,6,0,L|480:144,1,105.000004005432,6|8,0:0|0:0,0:0:0:0:
408,144,114568,1,0,0:0:0:0:
336,144,114756,2,0,L|320:256,1,105.000004005432,2|8,0:0|0:0,0:0:0:0:
248,248,115318,1,0,0:0:0:0:
184,248,115506,6,0,L|168:144,1,105.000004005432,2|8,0:0|0:0,0:0:0:0:
240,144,116068,1,0,0:0:0:0:
312,144,116256,2,0,L|328:32,1,105.000004005432,2|8,0:0|0:0,0:0:0:0:
256,40,116818,1,0,0:0:0:0:
96,48,117006,6,0,L|40:160,1,105.000004005432,6|2,0:0|0:0,0:0:0:0:
120,160,117568,1,0,0:0:0:0:
192,160,117756,2,0,L|312:160,1,105.000004005432,2|8,0:0|0:0,0:0:0:0:
47,160,118506,6,0,L|152:160,1,105.000004005432,4|4,0:0|0:0,0:0:0:0:
456,160,119256,1,14,0:0:0:0:
