osu file format v14

[General]
AudioFilename: audio.mp3
AudioLeadIn: 0
PreviewTime: 37318
Countdown: 0
SampleSet: Normal
StackLeniency: 0.7
Mode: 2
LetterboxInBreaks: 0
WidescreenStoryboard: 1

[Editor]
Bookmarks: 15006,25506,72006,119256
DistanceSpacing: 1.9
BeatDivisor: 4
GridSize: 8
TimelineZoom: 2.76

[Metadata]
Title:A Bella! (feat. Lucy)
TitleUnicode:A Bella! (feat. Lucy)
Artist:M2U
ArtistUnicode:M2U
Creator:ZiRoX
Version:Rain
Source:하이파이브
Tags:PNIX Games HIGH5 Drugstep drug step square musiq original soundtrack JBHyperion Deif Chromoxx
BeatmapID:1148183
BeatmapSetID:541101

[Difficulty]
HPDrainRate:6
CircleSize:4
OverallDifficulty:9
ApproachRate:9
SliderMultiplier:2
SliderTickRate:1

[Events]
//Background and Video events
0,0,"bg.png",0,0
//Break Periods
//Storyboard Layer 0 (Background)
//Storyboard Layer 1 (Fail)
//Storyboard Layer 2 (Pass)
//Storyboard Layer 3 (Foreground)
//Storyboard Sound Samples

[TimingPoints]
3006,375,4,1,1,40,1,0
15006,-133.333333333333,4,1,1,30,0,0
19506,-100,4,1,1,30,0,0
21006,-133.333333333333,4,1,1,30,0,0
24568,-100,4,1,1,40,0,0
25131,-100,4,1,1,30,0,0
25506,-100,4,1,1,40,0,0
37506,-90.9090909090909,4,1,2,50,0,1
48756,-100,4,3,0,40,0,0
49506,-90.9090909090909,4,1,2,50,0,1
54568,-90.9090909090909,4,1,2,60,0,1
55131,-90.9090909090909,4,1,2,50,0,1
60756,-100,4,3,0,40,0,1
61131,-100,4,1,2,50,0,1
61506,-133.333333333333,4,2,0,45,0,0
65443,-133.333333333333,4,3,0,30,0,0
66568,-100,4,1,1,40,0,0
82131,-83.3333333333333,4,1,1,50,0,0
82506,-100,4,1,1,60,0,0
83068,-83.3333333333333,4,1,1,50,0,0
83443,-100,4,1,1,50,0,0
84006,-90.9090909090909,4,1,2,50,0,1
88506,-100,4,1,2,40,0,0
89068,-100,4,1,2,40,0,0
89631,-80,4,1,2,60,0,0
90006,-90.9090909090909,4,1,2,50,0,1
95256,-100,4,3,0,40,0,0
96006,-90.9090909090909,4,1,2,50,0,1
101068,-90.9090909090909,4,1,2,40,0,1
101631,-90.9090909090909,4,1,2,50,0,1
107256,-90.9090909090909,4,3,0,40,0,1
107631,-50,4,1,2,50,0,1
108006,-133.333333333333,4,2,0,40,0,0
117756,-100,4,2,0,40,0,0
118506,-100,4,1,1,50,0,0

[Colours]
Combo1 : 220,213,114
Combo2 : 149,76,79
Combo3 : 242,104,129
Combo4 : 106,96,154

[HitObjects]
384,192,3006,6,0,L|480:144,2,100,4|0|2,0:0|0:0|0:0,0:0:0:0:
128,256,3568,2,0,P|64:192|128:128,1,200,8|0,0:0|0:0,0:0:0:0:
272,128,4131,2,0,L|384:128,1,100,2|8,0:0|0:0,0:0:0:0:
112,128,4506,6,0,L|16:192,2,100,4|0|2,0:0|0:0|0:0,0:0:0:0:
368,64,5068,2,0,P|432:128|368:192,1,200,8|0,0:0|0:0,0:0:0:0:
224,192,5631,2,0,L|112:192,1,100,2|8,0:0|0:0,0:0:0:0:
384,192,6006,6,0,L|484:192,2,100,4|0|2,0:0|0:0|0:0,0:0:0:0:
124,192,6568,2,0,P|60:256|124:320,1,200,8|0,0:0|0:0,0:0:0:0:
240,320,7131,2,0,L|352:320,1,100,2|8,0:0|0:0,0:0:0:0:
48,320,7506,5,4,0:0:0:0:
152,320,7693,1,0,0:0:0:0:
200,288,7786,1,0,0:0:0:0:
216,240,7880,1,2,0:0:0:0:
184,200,7974,1,0,0:0:0:0:
144,176,8068,2,0,P|96:112|112:64,1,100,8|2,0:0|0:0,0:0:0:0:
272,96,8443,2,0,L|336:128,2,50,8|0|2,0:0|0:0|0:0,0:0:0:0:
96,96,8818,1,0,0:0:0:0:
384,112,9006,6,0,L|322:191,2,100,4|0|2,0:0|0:0|0:0,0:0:0:0:
128,256,9568,2,0,P|64:192|128:128,1,200,8|0,0:0|0:0,0:0:0:0:
256,128,10131,2,0,L|368:128,1,100,2|8,0:0|0:0,0:0:0:0:
66,113,10506,6,0,L|128:192,2,100,4|0|2,0:0|0:0|0:0,0:0:0:0:
352,64,11068,2,0,P|416:128|352:192,1,200,8|8,0:0|0:0,0:0:0:0:
224,192,11631,2,0,L|112:192,1,100,2|8,0:0|0:0,0:0:0:0:
446,113,12006,6,0,L|384:192,2,100,4|0|2,0:0|0:0|0:0,0:0:0:0:
124,192,12568,2,0,P|60:256|124:320,1,200,8|0,0:0|0:0,0:0:0:0:
256,320,13131,2,0,L|368:320,1,100,2|8,0:0|0:0,0:0:0:0:
96,320,13506,6,0,L|0:240,1,100,4|0,0:0|0:0,0:0:0:0:
304,192,13881,2,0,L|400:272,1,100,2|2,0:0|0:0,0:0:0:0:
120,320,14256,1,2,0:0:0:0:
352,320,14631,2,0,L|480:320,1,100,2|0,0:0|0:0,0:0:0:0:
96,320,15006,6,0,P|48:280|104:232,1,150.000005722046,4|8,0:0|0:0,0:0:0:0:
256,192,15568,2,0,P|304:138|290:67,1,150.000005722046,2|8,0:0|0:0,0:0:0:0:
136,64,16131,2,0,L|56:64,1,75.0000028610231,2|0,0:0|0:0,0:0:0:0:
336,64,16506,6,0,L|416:64,2,75.0000028610231,4|0|8,0:0|0:0|0:0,0:0:0:0:
184,64,17068,2,0,P|135:118|150:189,1,150.000005722046,2|8,0:0|0:0,0:0:0:0:
303,192,17631,2,0,L|378:192,1,75.0000028610231,2|0,0:0|0:0,0:0:0:0:
120,192,18006,6,0,L|40:192,2,75.0000028610231,4|0|8,0:0|0:0|0:0,0:0:0:0:
272,192,18568,2,0,P|321:138|306:67,1,150.000005722046,2|8,0:0|0:0,0:0:0:0:
153,64,19131,2,0,L|78:64,1,75.0000028610231,2|0,0:0|0:0,0:0:0:0:
336,64,19506,6,0,P|392:64|432:88,1,100,4|8,0:0|0:0,0:0:0:0:
472,120,19787,1,0,0:0:0:0:
288,120,19881,2,0,P|232:120|192:144,1,100,2|8,0:0|0:0,0:0:0:0:
152,176,20162,1,0,3:0:0:0:
360,176,20256,2,0,L|440:176,2,50,2|0|0,0:0|0:0|0:0,0:0:0:0:
208,64,20631,1,2,0:0:0:0:
376,64,20818,1,8,0:0:0:0:
64,64,21006,6,0,P|48:128|112:192,1,150.000005722046,4|8,0:0|0:0,0:0:0:0:
256,192,21568,2,0,P|304:246|290:317,1,150.000005722046,2|8,0:0|0:0,0:0:0:0:
136,320,22131,2,0,L|56:320,1,75.0000028610231,2|0,0:0|0:0,0:0:0:0:
336,320,22506,6,0,L|416:320,2,75.0000028610231,4|0|8,0:0|0:0|0:0,0:0:0:0:
160,320,23068,2,0,P|120:264|150:195,1,150.000005722046,2|8,0:0|0:0,0:0:0:0:
303,192,23631,2,0,L|378:192,1,75.0000028610231,2|0,0:0|0:0,0:0:0:0:
120,192,24006,6,0,L|16:192,2,75.0000028610231,4|4|0,0:0|0:0|0:0,0:0:0:0:
388,192,24568,2,0,P|456:240|376:280,1,200,6|0,0:0|0:0,0:0:0:0:
128,288,25131,2,0,L|24:288,1,100,4|8,1:1|0:0,0:0:0:0:
360,256,25506,6,0,L|448:192,2,100,4|0|2,0:0|0:0|0:0,0:0:0:0:
208,256,26068,2,0,L|120:192,2,100,0|2|0,0:0|0:0|0:0,0:0:0:0:
344,256,26631,1,2,0:0:0:0:
208,256,26818,1,8,0:0:0:0:
472,200,27006,6,0,L|391:258,2,100,4|0|2,0:0|0:0|0:0,0:0:0:0:
304,120,27568,2,0,L|384:178,2,100,8|2|8,0:0|0:0|0:0,0:0:0:0:
472,200,28131,2,0,L|384:264,1,100,2|8,0:0|0:0,0:0:0:0:
144,272,28506,6,0,L|56:208,2,100,4|2|2,0:0|0:0|0:0,0:0:0:0:
408,280,29068,2,0,P|384:176|288:176,1,200,8|8,0:0|0:0,0:0:0:0:
480,160,29631,2,0,L|400:88,1,100,2|0,0:0|0:0,0:0:0:0:
144,272,30006,6,0,L|240:200,2,100,8|8|8,0:0|0:0|0:0,0:0:0:0:
400,272,30568,2,0,P|462:207|398:143,1,200,2|0,0:0|0:0,0:0:0:0:
208,264,31131,2,0,L|96:264,1,100,4|8,0:0|0:0,0:0:0:0:
456,200,31506,6,0,L|376:259,2,100,4|0|2,0:0|0:0|0:0,0:0:0:0:
304,176,32068,2,0,L|216:112,2,100,0|2|0,0:0|0:0|0:0,0:0:0:0:
456,176,32631,2,0,L|356:176,1,100,2|8,0:0|0:0,0:0:0:0:
104,176,33006,6,0,L|23:234,2,100,2|0|2,0:0|0:0|0:0,0:0:0:0:
272,176,33568,2,0,L|191:117,2,100,8|2|8,0:0|0:0|0:0,0:0:0:0:
128,208,34131,2,0,L|40:272,1,100,2|0,0:0|0:0,0:0:0:0:
360,256,34506,6,0,L|440:197,2,100,4|8|2,0:0|0:0|0:0,0:0:0:0:
112,256,35068,2,0,P|48:192|120:128,1,200,8|8,0:0|0:0,0:0:0:0:
280,128,35631,2,0,L|392:128,1,100,2|0,0:0|0:0,0:0:0:0:
63,213,36006,6,0,L|144:272,2,100,4|10|4,0:0|3:1|3:1,0:0:0:0:
400,272,36568,2,0,P|462:207|398:143,1,200,10|4,0:0|1:1,0:0:0:0:
152,144,37131,2,0,L|40:144,1,100,0|8,0:0|0:0,0:0:0:0:
432,280,37506,6,0,P|432:152|328:136,1,220.000006713867,4|8,0:0|0:0,0:0:0:0:
80,280,38068,2,0,P|80:152|184:136,1,220.000006713867,4|8,0:0|0:0,0:0:0:0:
312,128,38631,2,0,L|432:128,1,110.000003356934,4|8,0:0|0:0,0:0:0:0:
152,128,39006,6,0,L|40:128,1,110.000003356934,2|2,0:0|0:0,0:0:0:0:
312,128,39381,2,0,L|344:184,2,55.0000016784668,2|0|6,0:0|0:0|0:0,0:0:0:0:
120,136,39756,2,0,L|88:192,1,55.0000016784668,0|2,0:0|0:0,0:0:0:0:
264,200,40037,2,0,L|296:256,1,55.0000016784668,0|6,0:0|0:0,0:0:0:0:
96,256,40318,1,8,0:0:0:0:
432,280,40506,6,0,P|432:152|328:136,1,220.000006713867,4|8,0:0|0:0,0:0:0:0:
80,280,41068,2,0,P|80:152|184:136,1,220.000006713867,4|8,0:0|0:0,0:0:0:0:
422,128,41631,2,0,L|312:128,1,110.000003356934,4|8,0:0|0:0,0:0:0:0:
56,128,42006,6,0,L|166:128,1,110.000003356934,2|0,0:0|0:0,0:0:0:0:
360,128,42381,2,0,L|250:128,1,110.000003356934,2|0,0:0|0:0,0:0:0:0:
194,128,42662,1,0,0:0:0:0:
138,128,42756,2,0,L|74:128,2,55.0000016784668,6|0|0,0:0|0:0|0:0,0:0:0:0:
320,128,43131,2,0,L|448:112,1,110.000003356934,6|8,0:0|0:0,0:0:0:0:
138,128,43506,6,0,L|32:96,2,110.000003356934,12|8|8,0:0|0:0|0:0,0:0:0:0:
384,136,44068,2,0,P|448:216|384:304,1,220.000006713867,6|8,0:0|0:0,0:0:0:0:
232,304,44631,1,4,0:0:0:0:
386,301,44818,1,8,0:0:0:0:
138,128,45006,6,0,L|32:96,2,110.000003356934,2|0|2,0:0|0:0|0:0,0:0:0:0:
400,136,45568,2,0,P|464:216|400:304,1,220.000006713867,4|8,0:0|0:0,0:0:0:0:
248,304,46131,1,4,0:0:0:0:
96,304,46318,1,8,0:0:0:0:
374,128,46506,6,0,L|480:96,2,110.000003356934,2|2|2,0:0|0:0|0:0,0:0:0:0:
112,136,47068,2,0,P|48:216|112:304,1,220.000006713867,4|8,0:0|0:0,0:0:0:0:
296,304,47631,2,0,L|416:304,1,110.000003356934,4|8,0:0|0:0,0:0:0:0:
144,288,48006,5,12,0:0:0:0:
328,192,48193,1,2,0:0:0:0:
144,96,48381,1,12,0:0:0:0:
336,96,48756,5,4,0:0:0:0:
192,96,48943,2,0,L|92:96,2,100,2|2|2,0:0|0:0|0:0,0:0:0:0:
448,280,49506,6,0,P|448:152|344:136,1,220.000006713867,4|8,0:0|0:0,0:0:0:0:
80,280,50068,2,0,P|80:152|184:136,1,220.000006713867,4|8,0:0|0:0,0:0:0:0:
312,128,50631,2,0,L|432:128,1,110.000003356934,4|8,0:0|0:0,0:0:0:0:
152,128,51006,6,0,L|40:128,1,110.000003356934,2|2,0:0|0:0,0:0:0:0:
312,128,51381,2,0,L|344:184,2,55.0000016784668,2|0|6,0:0|0:0|0:0,0:0:0:0:
120,136,51756,2,0,L|88:192,1,55.0000016784668,0|2,0:0|0:0,0:0:0:0:
264,200,52037,2,0,L|296:256,1,55.0000016784668,0|6,0:0|0:0,0:0:0:0:
96,256,52318,1,8,0:0:0:0:
432,280,52506,6,0,P|432:152|328:136,1,220.000006713867,4|8,0:0|0:0,0:0:0:0:
80,280,53068,2,0,P|80:152|184:136,1,220.000006713867,4|8,0:0|0:0,0:0:0:0:
422,128,53631,2,0,L|312:128,1,110.000003356934,4|8,0:0|0:0,0:0:0:0:
56,128,54006,6,0,L|166:128,1,110.000003356934,2|0,0:0|0:0,0:0:0:0:
320,128,54381,1,2,0:0:0:0:
72,136,54568,2,0,P|40:216|168:272,1,220.000006713867,14|8,0:0|0:0,0:0:0:0:
304,128,55131,2,0,L|432:112,1,110.000003356934,6|8,0:0|0:0,0:0:0:0:
138,128,55506,6,0,L|32:96,2,110.000003356934,12|8|8,0:0|0:0|0:0,0:0:0:0:
384,136,56068,2,0,P|448:216|384:304,1,220.000006713867,6|8,0:0|0:0,0:0:0:0:
232,304,56631,1,4,0:0:0:0:
386,301,56818,1,8,0:0:0:0:
138,128,57006,6,0,L|32:96,2,110.000003356934,2|0|2,0:0|0:0|0:0,0:0:0:0:
400,136,57568,2,0,P|464:216|400:304,1,220.000006713867,4|8,0:0|0:0,0:0:0:0:
248,304,58131,1,4,0:0:0:0:
96,304,58318,1,8,0:0:0:0:
374,128,58506,6,0,L|480:96,2,110.000003356934,2|2|2,0:0|0:0|0:0,0:0:0:0:
112,136,59068,2,0,P|48:216|112:304,1,220.000006713867,4|8,0:0|0:0,0:0:0:0:
296,304,59631,2,0,L|416:304,1,110.000003356934,4|8,0:0|0:0,0:0:0:0:
144,288,60006,5,12,0:0:0:0:
416,192,60193,1,2,0:0:0:0:
144,96,60381,1,12,0:0:0:0:
336,96,60756,5,4,0:0:0:0:
216,96,60943,2,0,L|104:96,1,100,8|12,0:0|0:0,0:0:0:0:
416,192,61506,6,0,L|512:192,2,75.0000028610231,2|0|2,0:0|0:0|0:0,0:0:0:0:
296,192,62068,1,0,0:0:0:0:
258,192,62161,1,0,0:0:0:0:
208,192,62256,1,2,0:0:0:0:
72,192,62443,2,0,L|147:192,2,75.0000028610231,0|2|2,0:0|0:0|0:0,0:0:0:0:
328,144,63006,6,0,L|413:144,1,75.0000028610231,2|2,0:0|0:0,0:0:0:0:
456,144,63287,2,0,L|512:144,2,37.5000014305115,0|2|0,0:0|0:0|0:0,0:0:0:0:
280,144,63568,2,0,P|232:176|280:256,1,150.000005722046,2|2,0:0|0:0,0:0:0:0:
416,144,64131,2,0,L|496:104,1,75.0000028610231,2|0,0:0|0:0,0:0:0:0:
176,192,64506,6,0,L|88:192,2,75.0000028610231,2|0|2,0:0|0:0|0:0,0:0:0:0:
432,192,65068,2,0,P|480:240|424:296,1,150.000005722046,2|4,0:0|0:0,0:0:0:0:
288,288,65631,1,4,0:0:0:0:
440,296,65818,1,4,0:0:0:0:
144,288,66006,6,0,P|96:248|152:200,1,150.000005722046,4|8,0:0|0:0,0:0:0:0:
400,200,66568,2,0,P|464:136|392:72,1,200,4|8,0:0|0:0,0:0:0:0:
152,72,67131,2,0,L|48:72,1,100,4|8,0:0|0:0,0:0:0:0:
320,288,67506,6,0,L|440:288,2,100,4|0|8,0:0|0:0|0:0,0:0:0:0:
176,288,68068,2,0,L|120:256,1,50,2|0,0:0|0:0,0:0:0:0:
296,240,68256,2,0,L|396:240,1,100,8|0,0:0|0:0,0:0:0:0:
208,232,68631,2,0,L|152:200,1,50,2|0,0:0|0:0,0:0:0:0:
336,184,68818,2,0,L|392:152,1,50,8|0,0:0|0:0,0:0:0:0:
208,184,69006,6,0,P|184:120|208:88,1,100,4|8,0:0|0:0,0:0:0:0:
262,98,69287,2,0,L|318:98,2,50,0|8|0,0:0|0:0|0:0,0:0:0:0:
88,88,69568,2,0,P|32:160|56:264,1,200,2|8,0:0|0:0,0:0:0:0:
344,264,70131,2,0,L|480:264,1,100,2|8,0:0|0:0,0:0:0:0:
160,264,70506,6,0,L|40:264,1,100,4|8,0:0|0:0,0:0:0:0:
328,272,70881,1,8,0:0:0:0:
368,244,70974,1,0,0:0:0:0:
372,196,71068,1,8,0:0:0:0:
338,162,71162,1,0,0:0:0:0:
160,160,71256,2,0,L|48:160,1,100,6|0,0:0|0:0,0:0:0:0:
352,160,71631,2,0,L|464:160,1,100,6|8,0:0|0:0,0:0:0:0:
152,256,72006,6,0,L|64:192,2,100,4|0|2,0:0|0:0|0:0,0:0:0:0:
304,256,72568,2,0,L|392:192,2,100,0|2|0,0:0|0:0|0:0,0:0:0:0:
168,256,73131,1,2,0:0:0:0:
304,256,73318,1,8,0:0:0:0:
40,200,73506,6,0,L|121:258,2,100,4|0|2,0:0|0:0|0:0,0:0:0:0:
208,120,74068,2,0,L|128:178,2,100,8|2|8,0:0|0:0|0:0,0:0:0:0:
376,176,74631,2,0,L|295:117,1,100,2|8,0:0|0:0,0:0:0:0:
48,216,75006,6,0,L|128:274,2,100,4|2|2,0:0|0:0|0:0,0:0:0:0:
432,280,75568,2,0,P|474:166|408:120,1,200,8|8,0:0|0:0,0:0:0:0:
160,280,76131,2,0,L|60:280,1,100,2|0,0:0|0:0,0:0:0:0:
368,272,76506,6,0,L|456:208,2,100,8|8|8,0:0|0:0|0:0,0:0:0:0:
112,272,77068,2,0,P|50:207|114:143,1,200,2|0,0:0|0:0,0:0:0:0:
288,264,77631,2,0,L|400:264,1,100,4|8,0:0|0:0,0:0:0:0:
56,200,78006,6,0,L|136:259,2,100,4|0|2,0:0|0:0|0:0,0:0:0:0:
376,176,78568,2,0,L|464:112,2,100,0|2|0,0:0|0:0|0:0,0:0:0:0:
232,176,79131,2,0,L|132:176,1,100,2|8,0:0|0:0,0:0:0:0:
408,176,79506,6,0,L|489:234,2,100,2|0|2,0:0|0:0|0:0,0:0:0:0:
240,176,80068,2,0,L|321:117,2,100,8|2|8,0:0|0:0|0:0,0:0:0:0:
384,208,80631,2,0,L|472:272,1,100,2|0,0:0|0:0,0:0:0:0:
152,256,81006,6,0,L|72:197,2,100,4|8|2,0:0|0:0|0:0,0:0:0:0:
400,256,81568,2,0,P|464:192|392:128,1,200,8|8,0:0|0:0,0:0:0:0:
240,128,82131,2,0,L|120:128,1,119.999996337891,10|0,0:0|0:0,0:0:0:0:
424,128,82506,5,4,0:0:0:0:
264,128,82693,1,10,3:1:0:0:
424,128,82881,1,4,3:1:0:0:
128,272,83068,2,0,P|56:232|40:192,1,119.999996337891,10|0,0:0|2:1,0:0:0:0:
392,128,83443,2,0,L|480:176,2,100,4|0|8,0:0|0:0|0:0,0:0:0:0:
80,280,84006,6,0,P|80:152|184:136,1,220.000006713867,4|8,0:0|0:0,0:0:0:0:
432,280,84568,2,0,P|432:152|328:136,1,220.000006713867,4|8,0:0|0:0,0:0:0:0:
200,128,85131,2,0,L|80:128,1,110.000003356934,4|8,0:0|0:0,0:0:0:0:
360,128,85506,6,0,L|472:128,1,110.000003356934,2|2,0:0|0:0,0:0:0:0:
152,128,85881,2,0,L|120:184,2,55.0000016784668,2|0|6,0:0|0:0|0:0,0:0:0:0:
448,200,86256,2,0,L|480:256,1,55.0000016784668,0|2,0:0|0:0,0:0:0:0:
280,256,86537,2,0,L|248:312,1,55.0000016784668,0|6,0:0|0:0,0:0:0:0:
432,304,86818,1,8,0:0:0:0:
80,280,87006,6,0,P|80:152|184:136,1,220.000006713867,4|8,0:0|0:0,0:0:0:0:
432,280,87568,2,0,P|432:152|328:136,1,220.000006713867,4|8,0:0|0:0,0:0:0:0:
90,128,88131,2,0,L|200:128,1,110.000003356934,4|8,0:0|0:0,0:0:0:0:
456,128,88506,6,0,L|256:128,1,200,2|0,0:0|0:0,0:0:0:0:
384,128,89068,1,0,0:0:0:0:
56,128,89256,2,0,L|0:128,2,50,0|0|0,0:0|0:0|0:0,0:0:0:0:
352,128,89631,2,0,L|488:88,1,125,6|0,0:0|0:0,0:0:0:0:
138,128,90006,6,0,L|32:96,2,110.000003356934,12|8|8,0:0|0:0|0:0,0:0:0:0:
384,136,90568,2,0,P|448:216|384:304,1,220.000006713867,6|8,0:0|0:0,0:0:0:0:
232,304,91131,1,4,0:0:0:0:
386,301,91318,1,8,0:0:0:0:
138,128,91506,6,0,L|32:96,2,110.000003356934,2|0|2,0:0|0:0|0:0,0:0:0:0:
400,136,92068,2,0,P|464:216|400:304,1,220.000006713867,4|8,0:0|0:0,0:0:0:0:
248,304,92631,1,4,0:0:0:0:
96,304,92818,1,8,0:0:0:0:
374,128,93006,6,0,L|480:96,2,110.000003356934,2|2|2,0:0|0:0|0:0,0:0:0:0:
112,136,93568,2,0,P|48:216|112:304,1,220.000006713867,4|8,0:0|0:0,0:0:0:0:
296,304,94131,2,0,L|416:304,1,110.000003356934,4|8,0:0|0:0,0:0:0:0:
144,288,94506,5,12,0:0:0:0:
400,192,94693,1,2,0:0:0:0:
144,96,94881,1,12,0:0:0:0:
320,96,95256,5,4,0:0:0:0:
120,96,95443,2,0,L|220:96,1,100,2|2,0:0|0:0,0:0:0:0:
64,96,95818,1,2,0:0:0:0:
432,280,96006,6,0,P|432:152|328:136,1,220.000006713867,4|8,0:0|0:0,0:0:0:0:
80,280,96568,2,0,P|80:152|184:136,1,220.000006713867,4|8,0:0|0:0,0:0:0:0:
328,128,97131,2,0,L|448:128,1,110.000003356934,4|8,0:0|0:0,0:0:0:0:
152,128,97506,6,0,L|40:128,1,110.000003356934,2|2,0:0|0:0,0:0:0:0:
328,128,97881,2,0,L|360:184,2,55.0000016784668,2|0|6,0:0|0:0|0:0,0:0:0:0:
104,168,98256,2,0,L|72:224,1,55.0000016784668,0|2,0:0|0:0,0:0:0:0:
352,256,98537,2,0,L|384:312,1,55.0000016784668,0|6,0:0|0:0,0:0:0:0:
72,304,98818,1,8,0:0:0:0:
432,280,99006,6,0,P|432:152|328:136,1,220.000006713867,4|8,0:0|0:0,0:0:0:0:
80,280,99568,2,0,P|80:152|184:136,1,220.000006713867,4|8,0:0|0:0,0:0:0:0:
422,128,100131,2,0,L|312:128,1,110.000003356934,4|8,0:0|0:0,0:0:0:0:
56,128,100506,6,0,L|160:176,2,110.000003356934,2|0|2,0:0|0:0|0:0,0:0:0:0:
344,128,101068,2,0,L|376:160,6,27.5000008392334,14|0|0|0|0|0|0,0:0|3:0|3:0|3:0|3:0|3:0|3:0,0:0:0:0:
176,128,101443,2,0,L|112:160,1,55.0000016784668,10|0,0:0|0:0,0:0:0:0:
368,128,101631,2,0,L|496:112,1,110.000003356934,6|0,0:0|0:0,0:0:0:0:
138,128,102006,6,0,L|32:96,2,110.000003356934,12|8|8,0:0|0:0|0:0,0:0:0:0:
384,136,102568,2,0,P|448:216|384:304,1,220.000006713867,6|8,0:0|0:0,0:0:0:0:
232,304,103131,1,4,0:0:0:0:
386,301,103318,1,8,0:0:0:0:
138,128,103506,6,0,L|32:96,2,110.000003356934,2|0|2,0:0|0:0|0:0,0:0:0:0:
400,136,104068,2,0,P|464:216|400:304,1,220.000006713867,4|8,0:0|0:0,0:0:0:0:
248,304,104631,1,4,0:0:0:0:
416,304,104818,1,8,0:0:0:0:
138,128,105006,6,0,L|32:96,2,110.000003356934,2|2|2,0:0|0:0|0:0,0:0:0:0:
400,136,105568,2,0,P|464:216|400:304,1,220.000006713867,4|8,0:0|0:0,0:0:0:0:
216,304,106131,2,0,L|96:304,1,110.000003356934,4|8,0:0|0:0,0:0:0:0:
368,288,106506,5,12,0:0:0:0:
96,192,106693,1,2,0:0:0:0:
368,96,106881,2,12,L|368:208,1,110.000003356934
200,96,107256,2,0,L|88:128,1,110.000003356934,4|8,0:0|0:0,0:0:0:0:
400,104,107631,2,0,P|472:160|392:184,1,200,12|8,0:0|0:0,0:0:0:0:
152,112,108006,6,0,P|88:144|64:224,1,150.000005722046,6|8,0:0|0:0,0:0:0:0:
160,216,108568,2,0,L|208:216,1,37.5000014305115,0|0,0:0|0:0,0:0:0:0:
360,216,108756,2,0,L|435:216,1,75.0000028610231,2|0,0:0|0:0,0:0:0:0:
280,152,109131,2,0,L|205:152,1,75.0000028610231,8|0,0:0|0:0,0:0:0:0:
32,88,109506,6,0,L|107:88,1,75.0000028610231,2|0,0:0|0:0,0:0:0:0:
248,176,109881,2,0,L|173:176,1,75.0000028610231,8|8,0:0|0:0,0:0:0:0:
424,168,110256,2,0,P|484:128|495:56,1,150.000005722046,2|8,0:0|0:0,0:0:0:0:
400,56,110818,2,0,L|362:56,1,37.5000014305115,0|0,0:0|0:0,0:0:0:0:
184,64,111006,6,0,P|120:96|96:176,1,150.000005722046,2|8,0:0|0:0,0:0:0:0:
216,168,111568,1,0,0:0:0:0:
344,168,111756,2,0,L|419:168,1,75.0000028610231,2|0,0:0|0:0,0:0:0:0:
248,256,112131,2,0,L|146:256,1,75.0000028610231,8|0,0:0|0:0,0:0:0:0:
464,256,112506,6,0,P|448:184|392:128,1,150.000005722046,2|8,0:0|0:0,0:0:0:0:
304,128,113068,1,0,0:0:0:0:
48,256,113256,2,0,P|64:184|120:128,1,150.000005722046,2|8,0:0|0:0,0:0:0:0:
376,128,114006,6,0,P|427:181|443:253,1,150.000005722046,6|8,0:0|0:0,0:0:0:0:
272,256,114568,2,0,L|216:256,2,37.5000014305115,0|0|2,0:0|0:0|0:0,0:0:0:0:
416,256,114943,2,0,L|472:256,2,37.5000014305115,0|0|8,0:0|0:0|0:0,0:0:0:0:
272,256,115318,2,0,L|224:256,1,37.5000014305115,0|0,0:0|0:0,0:0:0:0:
408,256,115506,6,0,P|459:202|424:136,1,150.000005722046,2|8,0:0|0:0,0:0:0:0:
352,104,116068,1,0,0:0:0:0:
79,140,116256,2,0,P|53:206|104:256,1,150.000005722046,2|8,0:0|0:0,0:0:0:0:
224,256,116818,2,0,L|264:256,1,37.5000014305115,0|0,0:0|0:0,0:0:0:0:
104,256,117006,6,0,P|32:224|56:144,1,150.000005722046,6|2,0:0|0:0,0:0:0:0:
104,128,117568,1,0,0:0:0:0:
256,128,117756,2,0,L|360:128,1,100,2|0,0:0|0:0,0:0:0:0:
400,128,118037,1,0,0:0:0:0:
224,128,118131,2,0,L|120:128,1,100,8|0,0:0|0:0,0:0:0:0:
72,128,118412,1,0,0:0:0:0:
288,128,118506,5,4,0:0:0:0:
416,128,118693,2,0,L|480:128,1,50,8|0,0:0|0:0,0:0:0:0:
280,128,118881,2,0,L|224:128,1,50,4|0,0:0|0:0,0:0:0:0:
456,192,119068,2,0,L|512:192,1,50,8|0,0:0|0:0,0:0:0:0:
168,144,119256,1,14,0:0:0:0:
