osu file format v14

[General]
AudioFilename: audio.mp3
AudioLeadIn: 0
PreviewTime: 37318
Countdown: 0
SampleSet: Normal
StackLeniency: 0.7
Mode: 1
LetterboxInBreaks: 0
WidescreenStoryboard: 0

[Editor]
Bookmarks: 15006,25506,72006,119256
DistanceSpacing: 1.9
BeatDivisor: 2
GridSize: 8
TimelineZoom: 0.8

[Metadata]
Title:A Bella! (feat. Lucy)
TitleUnicode:A Bella! (feat. Lucy)
Artist:M2U
ArtistUnicode:M2U
Creator:ZiRoX
Version:Kantan
Source:하이파이브
Tags:PNIX Games HIGH5 Drugstep drug step square musiq original soundtrack JBHyperion Deif Chromoxx
BeatmapID:1181223
BeatmapSetID:541101

[Difficulty]
HPDrainRate:8
CircleSize:2.5
OverallDifficulty:3
ApproachRate:6
SliderMultiplier:1.4
SliderTickRate:1

[Events]
//Background and Video events
0,0,"bg.png",0,-100
//Break Periods
//Storyboard Layer 0 (Background)
//Storyboard Layer 1 (Fail)
//Storyboard Layer 2 (Pass)
//Storyboard Layer 3 (Foreground)
//Storyboard Sound Samples

[TimingPoints]
3006,375,4,1,0,90,1,0
37506,-100,4,1,0,90,0,1
48756,-100,4,1,0,90,0,0
49506,-100,4,1,0,90,0,1
61506,-100,4,1,0,90,0,0
84006,-100,4,1,0,90,0,1
88506,-100,4,1,0,90,0,0
90006,-100,4,1,0,90,0,1
95256,-100,4,1,0,90,0,0
96006,-100,4,1,0,90,0,1
108006,-100,4,1,0,90,0,0

[HitObjects]
256,192,3006,5,6,0:0:0:0:
256,192,3568,1,2,0:0:0:0:
256,192,4506,1,0,0:0:0:0:
256,192,5068,1,0,0:0:0:0:
256,192,6006,1,2,0:0:0:0:
256,192,6568,1,2,0:0:0:0:
256,192,7506,1,2,0:0:0:0:
256,192,7881,1,0,0:0:0:0:
256,192,8256,1,0,0:0:0:0:
256,192,9006,1,6,0:0:0:0:
256,192,9568,1,0,0:0:0:0:
256,192,10506,1,2,0:0:0:0:
256,192,11068,1,2,0:0:0:0:
256,192,12006,1,0,0:0:0:0:
256,192,12568,1,0,0:0:0:0:
256,192,13506,1,2,0:0:0:0:
256,192,13881,1,2,0:0:0:0:
256,192,14256,1,0,0:0:0:0:
256,192,15006,1,6,0:0:0:0:
256,192,15568,1,0,0:0:0:0:
256,192,16506,1,2,0:0:0:0:
256,192,17068,1,0,0:0:0:0:
256,192,18006,1,0,0:0:0:0:
256,192,18568,1,0,0:0:0:0:
256,192,19506,1,2,0:0:0:0:
256,192,19881,1,2,0:0:0:0:
256,192,20256,1,2,0:0:0:0:
256,192,21006,1,2,0:0:0:0:
256,192,21568,1,0,0:0:0:0:
256,192,22506,1,0,0:0:0:0:
256,192,23068,1,2,0:0:0:0:
256,192,24006,1,0,0:0:0:0:
256,192,24568,1,2,0:0:0:0:
256,192,25506,1,6,0:0:0:0:
256,192,26256,1,2,0:0:0:0:
256,192,27006,1,0,0:0:0:0:
256,192,27756,1,0,0:0:0:0:
256,192,28506,1,2,0:0:0:0:
256,192,29256,1,0,0:0:0:0:
256,192,30006,1,2,0:0:0:0:
256,192,30568,1,0,0:0:0:0:
256,192,31506,1,6,0:0:0:0:
256,192,32256,1,2,0:0:0:0:
256,192,33006,1,0,0:0:0:0:
256,192,33756,1,2,0:0:0:0:
256,192,34506,1,0,0:0:0:0:
256,192,35256,1,0,0:0:0:0:
256,192,36006,1,2,0:0:0:0:
256,192,36568,1,0,0:0:0:0:
256,192,37506,1,6,0:0:0:0:
256,192,38068,1,0,0:0:0:0:
256,192,38631,1,2,0:0:0:0:
256,192,39006,1,0,0:0:0:0:
256,192,39381,1,0,0:0:0:0:
256,192,40131,1,0,0:0:0:0:
256,192,40506,1,2,0:0:0:0:
256,192,41068,1,2,0:0:0:0:
256,192,42006,1,2,0:0:0:0:
256,192,42381,1,2,0:0:0:0:
256,192,42756,1,2,0:0:0:0:
256,192,43506,1,2,0:0:0:0:
256,192,44068,1,0,0:0:0:0:
256,192,45006,1,2,0:0:0:0:
256,192,45568,1,0,0:0:0:0:
256,192,46131,1,0,0:0:0:0:
256,192,46506,1,0,0:0:0:0:
256,192,47068,1,2,0:0:0:0:
256,192,48006,1,2,0:0:0:0:
256,192,49506,1,6,0:0:0:0:
256,192,50068,1,0,0:0:0:0:
256,192,50631,1,2,0:0:0:0:
256,192,51006,1,0,0:0:0:0:
256,192,51381,1,0,0:0:0:0:
256,192,52131,1,2,0:0:0:0:
256,192,52506,1,0,0:0:0:0:
256,192,53068,1,2,0:0:0:0:
256,192,54006,1,0,0:0:0:0:
256,192,54568,1,6,0:0:0:0:
256,192,55506,1,2,0:0:0:0:
256,192,56068,1,0,0:0:0:0:
256,192,57006,1,2,0:0:0:0:
256,192,57568,1,0,0:0:0:0:
256,192,58131,1,0,0:0:0:0:
256,192,58506,1,0,0:0:0:0:
256,192,59068,1,2,0:0:0:0:
256,192,60006,1,2,0:0:0:0:
256,192,61131,1,2,0:0:0:0:
256,192,61506,1,0,0:0:0:0:
256,192,63006,1,2,0:0:0:0:
256,192,64506,1,2,0:0:0:0:
256,192,66006,1,0,0:0:0:0:
256,192,66568,1,0,0:0:0:0:
256,192,67506,1,6,0:0:0:0:
256,192,68068,1,0,0:0:0:0:
256,192,69006,1,0,0:0:0:0:
256,192,69568,1,0,0:0:0:0:
256,192,70506,1,2,0:0:0:0:
256,192,71256,1,0,0:0:0:0:
256,192,71631,1,0,0:0:0:0:
256,192,72006,1,6,0:0:0:0:
256,192,72756,1,2,0:0:0:0:
256,192,73506,1,0,0:0:0:0:
256,192,74256,1,0,0:0:0:0:
256,192,75006,1,0,0:0:0:0:
256,192,75756,1,2,0:0:0:0:
256,192,76506,1,2,0:0:0:0:
256,192,77068,1,0,0:0:0:0:
256,192,78006,1,6,0:0:0:0:
256,192,78756,1,2,0:0:0:0:
256,192,79506,1,0,0:0:0:0:
256,192,80256,1,2,0:0:0:0:
256,192,81006,1,0,0:0:0:0:
256,192,81756,1,0,0:0:0:0:
256,192,82506,1,2,0:0:0:0:
256,192,83068,5,0,0:0:0:0:
256,192,84006,1,6,0:0:0:0:
256,192,84568,1,0,0:0:0:0:
256,192,85506,1,2,0:0:0:0:
256,192,85881,1,0,0:0:0:0:
256,192,86256,1,0,0:0:0:0:
256,192,86631,1,0,0:0:0:0:
256,192,87006,1,2,0:0:0:0:
256,192,87568,1,2,0:0:0:0:
256,192,88506,1,2,0:0:0:0:
256,192,89631,1,0,0:0:0:0:
256,192,90006,1,6,0:0:0:0:
256,192,90568,1,0,0:0:0:0:
256,192,91506,1,2,0:0:0:0:
256,192,92068,1,0,0:0:0:0:
256,192,92631,1,0,0:0:0:0:
256,192,93006,1,0,0:0:0:0:
256,192,93568,1,2,0:0:0:0:
256,192,94506,1,2,0:0:0:0:
256,192,94881,1,2,0:0:0:0:
256,192,95256,1,0,0:0:0:0:
256,192,96006,1,6,0:0:0:0:
256,192,96568,1,0,0:0:0:0:
256,192,97506,1,0,0:0:0:0:
256,192,97881,1,2,0:0:0:0:
256,192,98256,1,2,0:0:0:0:
256,192,98631,1,2,0:0:0:0:
256,192,99006,1,0,0:0:0:0:
256,192,99568,1,2,0:0:0:0:
256,192,100506,1,0,0:0:0:0:
256,192,101068,1,6,0:0:0:0:
256,192,102006,1,2,0:0:0:0:
256,192,102568,1,0,0:0:0:0:
256,192,103506,1,2,0:0:0:0:
256,192,104068,1,0,0:0:0:0:
256,192,104631,1,0,0:0:0:0:
256,192,105006,1,2,0:0:0:0:
256,192,105568,1,0,0:0:0:0:
256,192,106506,1,2,0:0:0:0:
256,192,106881,1,2,0:0:0:0:
256,192,107256,1,0,0:0:0:0:
256,192,108006,1,6,0:0:0:0:
256,192,109506,1,0,0:0:0:0:
256,192,109881,1,2,0:0:0:0:
256,192,110256,1,0,0:0:0:0:
256,192,111006,1,2,0:0:0:0:
256,192,112506,1,2,0:0:0:0:
256,192,112881,1,2,0:0:0:0:
256,192,113256,1,0,0:0:0:0:
256,192,114006,1,0,0:0:0:0:
256,192,115506,1,0,0:0:0:0:
256,192,117006,1,6,0:0:0:0:
256,192,117381,1,2,0:0:0:0:
256,192,117756,1,0,0:0:0:0:
256,192,118506,1,4,0:0:0:0:
256,192,119256,1,6,0:0:0:0:
