osu file format v14

[General]
AudioFilename: audio.mp3
AudioLeadIn: 0
PreviewTime: 37318
Countdown: 0
SampleSet: Normal
StackLeniency: 0.7
Mode: 2
LetterboxInBreaks: 0
WidescreenStoryboard: 1

[Editor]
Bookmarks: 15006,25506,72006,119256
DistanceSpacing: 1.1
BeatDivisor: 4
GridSize: 4
TimelineZoom: 1

[Metadata]
Title:A Bella! (feat. Lucy)
TitleUnicode:A Bella! (feat. Lucy)
Artist:M2U
ArtistUnicode:M2U
Creator:ZiRoX
Version:Hyperion's Platter
Source:하이파이브
Tags:PNIX Games HIGH5 Drugstep drug step square musiq original soundtrack JBHyperion Deif Chromoxx
BeatmapID:1149080
BeatmapSetID:541101

[Difficulty]
HPDrainRate:5
CircleSize:3.5
OverallDifficulty:8
ApproachRate:8
SliderMultiplier:1.6
SliderTickRate:1

[Events]
//Background and Video events
0,0,"bg.png",0,0
//Break Periods
//Storyboard Layer 0 (Background)
//Storyboard Layer 1 (Fail)
//Storyboard Layer 2 (Pass)
//Storyboard Layer 3 (Foreground)
//Storyboard Sound Samples

[TimingPoints]
3006,375,4,1,1,40,1,0
6568,-80,4,1,1,40,0,0
6943,-100,4,1,1,40,0,0
11068,-80,4,1,1,40,0,0
11443,-100,4,1,1,40,0,0
12568,-80,4,1,1,40,0,0
12943,-100,4,1,1,40,0,0
15006,-100,4,1,1,30,0,0
24568,-66.6666666666667,4,1,1,40,0,0
24943,-100,4,1,1,40,0,0
25131,-100,4,1,1,30,0,0
25506,-100,4,1,1,40,0,0
26068,-66.6666666666667,4,1,1,40,0,0
26443,-100,4,1,1,40,0,0
27568,-80,4,1,1,40,0,0
27943,-100,4,1,1,40,0,0
29068,-80,4,1,1,40,0,0
29443,-100,4,1,1,40,0,0
32068,-66.6666666666667,4,1,1,40,0,0
32443,-100,4,1,1,40,0,0
33568,-80,4,1,1,40,0,0
33943,-100,4,1,1,40,0,0
36943,-66.6666666666667,4,1,1,40,0,0
37506,-80,4,1,2,50,0,1
48756,-100,4,3,0,40,0,0
49506,-80,4,1,2,50,0,1
54568,-50,4,1,2,60,0,1
54756,-80,4,1,2,60,0,1
55131,-80,4,1,2,50,0,1
60756,-80,4,3,0,40,0,1
61131,-80,4,1,2,50,0,1
61506,-100,4,2,0,45,0,0
65443,-100,4,3,0,30,0,0
66006,-80,4,3,0,30,0,0
66381,-100,4,3,0,30,0,0
66568,-100,4,1,1,40,0,0
67131,-80,4,1,1,40,0,0
67506,-100,4,1,1,40,0,0
72006,-100,4,1,1,40,0,0
74068,-80,4,1,1,40,0,0
74443,-100,4,1,1,40,0,0
80068,-80,4,1,1,40,0,0
80443,-100,4,1,1,40,0,0
82131,-100,4,1,1,50,0,0
82506,-100,4,1,1,60,0,0
83068,-100,4,1,1,50,0,0
83443,-66.6666666666667,4,1,1,50,0,0
84006,-80,4,1,2,50,0,1
88506,-100,4,1,2,40,0,0
89631,-100,4,1,2,60,0,0
90006,-80,4,1,2,50,0,1
95256,-100,4,3,0,40,0,0
96006,-80,4,1,2,50,0,1
101068,-80,4,1,2,40,0,1
101631,-80,4,1,2,50,0,1
107256,-80,4,3,0,40,0,1
107631,-80,4,1,2,50,0,1
108006,-100,4,2,0,40,0,0
118506,-100,4,1,1,50,0,0

[Colours]
Combo1 : 220,213,114
Combo2 : 149,76,79
Combo3 : 242,104,129
Combo4 : 106,96,154

[HitObjects]
220,296,2631,6,0,L|204:216,1,80
396,220,3006,2,0,L|476:188,2,80,4|0|2,0:0|0:0|0:0,0:0:0:0:
204,217,3568,2,0,P|156:181|204:113,1,160,8|0,0:0|0:0,0:0:0:0:
316,112,4131,2,0,L|236:112,1,80,2|8,0:0|0:0,0:0:0:0:
356,32,4506,6,0,L|436:32,1,80,4|0,0:0|0:0,0:0:0:0:
340,112,4881,1,2,0:0:0:0:
452,112,5068,2,0,P|508:160|456:208,1,160,8|0,0:0|0:0,0:0:0:0:
348,208,5631,2,0,L|268:208,1,80,2|8,0:0|0:0,0:0:0:0:
76,208,6006,5,4,0:0:0:0:
12,152,6193,1,0,0:0:0:0:
60,80,6381,1,2,0:0:0:0:
288,80,6568,2,0,B|288:192|288:192|200:192,1,200,8|0,0:0|0:0,0:0:0:0:
80,192,7131,2,0,L|176:192,1,80,2|8,0:0|0:0,0:0:0:0:
280,192,7506,6,0,L|196:240,1,80,4|0,0:0|0:0,0:0:0:0:
292,264,7881,1,2,0:0:0:0:
240,294,7974,1,0,0:0:0:0:
188,325,8068,1,8,0:0:0:0:
76,324,8256,2,0,L|68:236,1,80,2|8,0:0|0:0,0:0:0:0:
192,192,8631,1,2,0:0:0:0:
88,192,8818,1,0,0:0:0:0:
280,192,9006,6,0,L|360:160,2,80,4|0|2,0:0|0:0|0:0,0:0:0:0:
88,192,9568,2,0,P|44:148|96:80,1,160,8|0,0:0|0:0,0:0:0:0:
204,80,10131,1,2,0:0:0:0:
108,80,10318,1,8,0:0:0:0:
292,188,10506,6,0,L|222:228,1,80,4|0,0:0|0:0,0:0:0:0:
124,228,10881,1,2,0:0:0:0:
324,228,11068,2,0,B|424:228|424:228|424:328,1,200,8|8,0:0|0:0,0:0:0:0:
232,324,11631,2,0,L|152:324,1,80,2|8,0:0|0:0,0:0:0:0:
336,236,12006,5,4,0:0:0:0:
236,236,12193,1,0,0:0:0:0:
372,236,12381,1,2,0:0:0:0:
192,236,12568,2,0,B|116:236|116:236|116:176|132:112,1,200,8|0,0:0|0:0,0:0:0:0:
240,112,13131,1,2,0:0:0:0:
344,56,13318,1,8,0:0:0:0:
296,56,13412,1,0,0:0:0:0:
248,56,13506,6,0,L|152:56,2,80,4|0|2,0:0|0:0|0:0,0:0:0:0:
344,56,14068,1,2,0:0:0:0:
184,144,14256,1,2,0:0:0:0:
472,144,14631,2,0,L|408:192,1,80,2|0,0:0|0:0,0:0:0:0:
136,192,15006,6,0,B|56:192|56:192|28:272,1,160,4|8,0:0|0:0,0:0:0:0:
140,268,15568,2,0,P|192:244|196:144,1,160,2|8,0:0|0:0,0:0:0:0:
88,148,16131,2,0,L|172:148,1,80,2|0,0:0|0:0,0:0:0:0:
344,152,16506,6,0,L|436:152,2,80,4|0|8,0:0|0:0|0:0,0:0:0:0:
232,148,17068,2,0,P|250:213|336:264,1,160,2|8,0:0|0:0,0:0:0:0:
436,264,17631,2,0,L|359:340,1,80,2|0,0:0|0:0,0:0:0:0:
204,320,18006,5,4,0:0:0:0:
166,236,18193,1,0,0:0:0:0:
245,191,18381,1,8,0:0:0:0:
404,192,18568,2,0,P|456:140|400:96,1,160,2|8,0:0|0:0,0:0:0:0:
304,96,19131,1,2,0:0:0:0:
416,96,19318,1,0,0:0:0:0:
224,96,19506,6,0,L|120:156,1,120,4|0,0:0|0:0,0:0:0:0:
76,180,19881,1,2,0:0:0:0:
212,192,20068,1,8,0:0:0:0:
260,192,20162,1,0,3:0:0:0:
308,192,20256,2,0,L|388:192,1,80,2|0,0:0|0:0,0:0:0:0:
272,280,20631,1,2,0:0:0:0:
396,280,20818,1,8,0:0:0:0:
124,192,21006,6,0,P|120:115|188:72,1,160,4|8,0:0|0:0,0:0:0:0:
302,227,21568,2,0,B|275:151|275:151|195:151,1,160,2|8,0:0|0:0,0:0:0:0:
308,72,22131,2,0,L|224:72,1,80,2|0,0:0|0:0,0:0:0:0:
388,72,22506,6,0,L|480:72,2,80,4|0|8,0:0|0:0|0:0,0:0:0:0:
116,72,23068,2,0,P|52:104|28:192,1,160,2|8,0:0|0:0,0:0:0:0:
132,184,23631,1,2,0:0:0:0:
20,184,23818,1,0,0:0:0:0:
196,184,24006,6,0,L|280:184,2,80,4|4|0,0:0|0:0|0:0,0:0:0:0:
448,184,24568,2,0,P|504:264|432:372,1,240.000009155274,6|0,0:0|0:0,0:0:0:0:
256,328,25131,2,0,L|152:328,1,80,4|8,1:1|0:0,0:0:0:0:
320,328,25506,5,4,0:0:0:0:
428,300,25693,1,0,0:0:0:0:
456,193,25881,1,2,0:0:0:0:
204,72,26068,2,0,P|116:148|192:192,1,240.000009155274,0|0,0:0|0:0,0:0:0:0:
360,192,26631,2,0,L|440:192,1,80,2|8,0:0|0:0,0:0:0:0:
260,192,27006,5,4,0:0:0:0:
164,224,27193,1,0,0:0:0:0:
135,321,27381,1,2,0:0:0:0:
312,324,27568,2,0,P|346:259|260:192,1,200,8|8,0:0|0:0,0:0:0:0:
148,192,28131,2,0,L|60:192,1,80,2|8,0:0|0:0,0:0:0:0:
252,108,28506,5,4,0:0:0:0:
148,108,28693,2,0,L|128:24,1,80,2|2,0:0|0:0,0:0:0:0:
304,28,29068,2,0,P|348:96|272:172,1,200,8|8,0:0|0:0,0:0:0:0:
168,168,29631,2,0,L|248:168,1,80,2|0,0:0|0:0,0:0:0:0:
424,172,30006,5,8,0:0:0:0:
280,260,30193,1,8,0:0:0:0:
408,260,30381,1,8,0:0:0:0:
232,260,30568,2,0,B|152:260|152:260|124:184,1,160,2|0,0:0|0:0,0:0:0:0:
384,184,31131,2,0,L|468:184,1,80,4|8,0:0|0:0,0:0:0:0:
284,52,31506,5,4,0:0:0:0:
176,80,31693,1,0,0:0:0:0:
148,187,31881,1,2,0:0:0:0:
404,188,32068,2,0,P|424:292|320:352,1,240.000009155274,0|0,0:0|0:0,0:0:0:0:
152,352,32631,2,0,L|232:352,1,80,2|8,0:0|0:0,0:0:0:0:
400,256,33006,6,0,L|304:256,2,80,2|0|2,0:0|0:0|0:0,0:0:0:0:
224,256,33568,2,0,P|132:204|116:116,1,200,8|8,0:0|0:0,0:0:0:0:
228,120,34131,2,0,L|316:120,1,80,2|0,0:0|0:0,0:0:0:0:
124,120,34506,5,4,0:0:0:0:
228,120,34693,2,0,L|240:204,1,80,8|2,0:0|0:0,0:0:0:0:
72,196,35068,1,8,0:0:0:0:
228,196,35443,1,8,0:0:0:0:
408,200,35631,2,0,L|488:192,1,80,2|0,0:0|0:0,0:0:0:0:
232,96,36006,5,4,0:0:0:0:
120,96,36193,1,10,3:1:0:0:
216,96,36381,1,4,3:1:0:0:
36,96,36568,1,10,0:0:0:0:
476,192,36943,2,0,P|488:288|372:340,1,240.000009155274,4|8,1:1|0:0,0:0:0:0:
120,340,37506,6,0,P|72:324|128:228,1,200,4|8,0:0|0:0,0:0:0:0:
304,232,38068,2,0,P|312:176|208:80,1,200,4|8,0:0|0:0,0:0:0:0:
100,80,38631,2,0,L|200:80,1,100,4|8,0:0|0:0,0:0:0:0:
380,80,39006,6,0,L|472:120,1,100,2|2,0:0|0:0,0:0:0:0:
292,164,39381,1,2,0:0:0:0:
232,164,39474,1,0,0:0:0:0:
172,164,39568,2,0,P|88:196|60:304,1,200,6|0,0:0|0:0,0:0:0:0:
200,296,40131,2,0,L|116:232,1,100,6|8,0:0|0:0,0:0:0:0:
304,296,40506,6,0,L|400:252,2,100,4|0|8,0:0|0:0|0:0,0:0:0:0:
124,296,41068,2,0,P|72:272|136:176,1,200,4|8,0:0|0:0,0:0:0:0:
244,176,41631,2,0,L|344:136,1,100,4|8,0:0|0:0,0:0:0:0:
164,96,42006,6,0,L|264:56,2,100,2|0|2,0:0|0:0|0:0,0:0:0:0:
356,140,42568,1,0,0:0:0:0:
416,140,42661,1,0,0:0:0:0:
476,140,42756,2,0,L|388:192,1,100,6|0,0:0|0:0,0:0:0:0:
260,192,43131,2,0,L|348:244,1,100,6|8,0:0|0:0,0:0:0:0:
96,244,43506,6,0,L|8:192,2,100,12|8|8,0:0|0:0|0:0,0:0:0:0:
276,244,44068,2,0,P|364:284|396:380,1,200,6|8,0:0|0:0,0:0:0:0:
216,376,44631,1,4,0:0:0:0:
336,376,44818,1,8,0:0:0:0:
156,372,45006,6,0,P|108:316|184:244,1,200,2|2,0:0|0:0,0:0:0:0:
364,244,45568,2,0,P|376:192|272:104,1,200,4|8,0:0|0:0,0:0:0:0:
156,104,46131,2,0,L|256:104,1,100,4|8,0:0|0:0,0:0:0:0:
76,192,46506,6,0,L|184:192,2,100,2|2|2,0:0|0:0|0:0,0:0:0:0:
276,192,47068,2,0,P|340:252|280:328,1,200,4|8,0:0|0:0,0:0:0:0:
164,328,47631,2,0,L|68:292,1,100,4|8,0:0|0:0,0:0:0:0:
324,232,48006,5,12,0:0:0:0:
464,232,48193,1,2,0:0:0:0:
264,232,48381,2,0,L|172:192,1,100,12|6,0:0|0:0,0:0:0:0:
352,192,48756,1,4,0:0:0:0:
240,104,48943,1,2,0:0:0:0:
352,104,49131,1,2,0:0:0:0:
464,104,49318,1,2,0:0:0:0:
208,60,49506,6,0,P|128:114|123:210,1,200,4|8,0:0|0:0,0:0:0:0:
304,212,50068,2,0,P|352:228|296:324,1,200,4|8,0:0|0:0,0:0:0:0:
180,324,50631,2,0,L|280:324,1,100,4|8,0:0|0:0,0:0:0:0:
100,324,51006,6,0,L|8:284,1,100,2|2,0:0|0:0,0:0:0:0:
188,240,51381,1,2,0:0:0:0:
248,240,51474,1,0,0:0:0:0:
308,240,51568,2,0,P|392:208|420:100,1,200,6|0,0:0|0:0,0:0:0:0:
280,108,52131,2,0,L|364:172,1,100,6|8,0:0|0:0,0:0:0:0:
180,288,52506,6,0,L|80:288,2,100,4|0|8,0:0|0:0|0:0,0:0:0:0:
361,290,53068,2,0,P|413:266|349:170,1,200,4|8,0:0|0:0,0:0:0:0:
241,170,53631,2,0,L|141:130,1,100,4|8,0:0|0:0,0:0:0:0:
328,88,54006,5,2,0:0:0:0:
168,88,54193,1,0,0:0:0:0:
348,88,54381,1,2,0:0:0:0:
88,88,54568,2,0,P|52:156|88:224,1,160,14|0,0:0|0:0,0:0:0:0:
204,224,54943,1,8,0:0:0:0:
384,224,55131,2,0,L|480:192,1,100,6|8,0:0|0:0,0:0:0:0:
204,224,55506,6,0,L|116:172,2,100,12|8|8,0:0|0:0|0:0,0:0:0:0:
384,224,56068,2,0,P|384:316|292:344,1,200,6|8,0:0|0:0,0:0:0:0:
432,344,56631,1,4,0:0:0:0:
312,344,56818,1,8,0:0:0:0:
492,340,57006,6,0,P|488:264|384:224,1,200,2|2,0:0|0:0,0:0:0:0:
200,224,57568,2,0,P|188:172|292:84,1,200,4|8,0:0|0:0,0:0:0:0:
408,84,58131,2,0,L|308:84,1,100,4|8,0:0|0:0,0:0:0:0:
136,192,58506,6,0,L|229:246,2,100,2|2|2,0:0|0:0|0:0,0:0:0:0:
328,192,59068,2,0,P|304:280|208:324,1,200,4|8,0:0|0:0,0:0:0:0:
332,324,59631,2,0,L|428:288,1,100,4|8,0:0|0:0,0:0:0:0:
176,231,60006,5,12,0:0:0:0:
36,231,60193,1,2,0:0:0:0:
236,231,60381,2,0,L|328:191,1,100,12|6,0:0|0:0,0:0:0:0:
148,191,60756,1,4,0:0:0:0:
36,103,60943,1,8,0:0:0:0:
348,108,61131,2,0,L|452:108,1,100,12|8,0:0|0:0,0:0:0:0:
272,192,61506,6,0,L|264:280,1,80,2|0,0:0|0:0,0:0:0:0:
424,272,61881,1,2,0:0:0:0:
328,272,62068,1,2,0:0:0:0:
280,272,62162,1,0,0:0:0:0:
232,272,62256,2,0,L|152:272,1,80,2|0,0:0|0:0,0:0:0:0:
248,192,62631,1,2,0:0:0:0:
168,192,62818,1,2,0:0:0:0:
348,192,63006,6,0,L|432:192,1,80,2|2,0:0|0:0,0:0:0:0:
468,160,63286,1,0,0:0:0:0:
480,108,63380,1,2,0:0:0:0:
448,56,63474,1,0,0:0:0:0:
396,52,63568,2,0,P|324:76|292:148,1,160,2|2,0:0|0:0,0:0:0:0:
408,148,64131,2,0,L|476:192,1,80,2|0,0:0|0:0,0:0:0:0:
296,228,64506,5,2,0:0:0:0:
221,230,64693,1,0,0:0:0:0:
207,303,64881,1,2,0:0:0:0:
392,304,65068,2,0,L|476:304,1,80,2|0,0:0|0:0,0:0:0:0:
312,304,65443,1,4,0:0:0:0:
440,228,65631,1,4,0:0:0:0:
296,228,65818,1,4,0:0:0:0:
456,228,66006,6,0,P|504:176|432:96,1,200,4|8,0:0|0:0,0:0:0:0:
268,124,66568,2,0,P|276:72|364:24,1,160,4|8,0:0|0:0,0:0:0:0:
108,28,67131,2,0,L|8:28,1,100,4|8,0:0|0:0,0:0:0:0:
184,192,67506,6,0,L|264:192,1,80,4|0,0:0|0:0,0:0:0:0:
360,192,67881,1,8,0:0:0:0:
192,272,68068,1,2,0:0:0:0:
236,272,68162,1,0,0:0:0:0:
280,272,68256,2,0,L|360:272,1,80,8|0,0:0|0:0,0:0:0:0:
264,192,68631,2,0,L|212:192,1,40,2|0,0:0|0:0,0:0:0:0:
176,160,68818,2,0,L|204:131,1,40,8|0,0:0|0:0,0:0:0:0:
260,132,69006,6,0,L|344:132,1,80,4|8,0:0|0:0,0:0:0:0:
388,160,69286,1,0,0:0:0:0:
392,216,69380,1,8,0:0:0:0:
368,260,69474,1,0,0:0:0:0:
316,272,69568,2,0,P|388:296|420:368,1,160,2|8,0:0|0:0,0:0:0:0:
248,368,70131,2,0,L|180:324,1,80,2|8,0:0|0:0,0:0:0:0:
352,192,70506,6,0,L|432:192,1,80,4|8,0:0|0:0,0:0:0:0:
464,155,70786,1,0,0:0:0:0:
461,106,70880,1,8,0:0:0:0:
425,73,70974,1,0,0:0:0:0:
377,75,71068,1,8,0:0:0:0:
128,76,71256,2,0,L|44:76,1,80,6|0,0:0|0:0,0:0:0:0:
232,160,71631,2,0,L|324:160,1,80,6|8,0:0|0:0,0:0:0:0:
124,160,72006,6,0,L|32:160,2,80,4|0|2,0:0|0:0|0:0,0:0:0:0:
304,160,72568,1,0,0:0:0:0:
400,232,72756,2,0,L|296:232,1,80,2|0,0:0|0:0,0:0:0:0:
144,288,73131,2,0,L|224:288,1,80,2|8,0:0|0:0,0:0:0:0:
400,232,73506,5,4,0:0:0:0:
296,212,73693,1,0,0:0:0:0:
192,192,73881,1,2,0:0:0:0:
376,232,74068,2,0,P|456:192|420:108,1,200,8|8,0:0|0:0,0:0:0:0:
308,108,74631,2,0,L|220:108,1,80,2|8,0:0|0:0,0:0:0:0:
396,28,75006,5,4,0:0:0:0:
300,28,75193,2,0,L|231:68,2,80,2|2|8,0:0|0:0|0:0,0:0:0:0:
468,108,75756,2,0,L|480:192,1,80,0|8,0:0|0:0,0:0:0:0:
368,192,76131,2,0,L|288:192,1,80,2|0,0:0|0:0,0:0:0:0:
108,192,76506,5,8,0:0:0:0:
228,192,76693,1,8,0:0:0:0:
124,192,76881,1,8,0:0:0:0:
304,192,77068,2,0,B|384:192|384:192|412:268,1,160,2|0,0:0|0:0,0:0:0:0:
160,268,77631,2,0,L|76:268,1,80,4|8,0:0|0:0,0:0:0:0:
256,268,78006,5,4,0:0:0:0:
288,184,78194,1,0,0:0:0:0:
200,132,78381,1,2,0:0:0:0:
368,132,78568,1,0,0:0:0:0:
464,132,78756,2,0,L|376:132,1,80,2|0,0:0|0:0,0:0:0:0:
208,44,79131,2,0,L|128:44,1,80,2|8,0:0|0:0,0:0:0:0:
304,132,79506,6,0,L|400:132,2,80,2|0|2,0:0|0:0|0:0,0:0:0:0:
144,132,80068,2,0,P|52:184|36:272,1,200,8|8,0:0|0:0,0:0:0:0:
132,268,80631,2,0,L|220:268,1,80,2|0,0:0|0:0,0:0:0:0:
52,192,81006,5,4,0:0:0:0:
156,192,81193,2,0,L|236:192,1,80,8|2,0:0|0:0,0:0:0:0:
424,192,81568,1,8,0:0:0:0:
260,192,81943,1,8,0:0:0:0:
80,192,82131,2,0,L|4:216,1,80,10|0,0:0|0:0,0:0:0:0:
256,288,82506,5,4,0:0:0:0:
352,288,82693,1,10,3:1:0:0:
240,288,82881,1,4,3:1:0:0:
48,288,83068,1,10,0:0:0:0:
492,192,83443,2,0,P|500:96|384:44,1,240.000009155274,4|8,1:1|0:0,0:0:0:0:
128,44,84006,6,0,P|80:60|136:156,1,200,4|8,0:0|0:0,0:0:0:0:
312,152,84568,2,0,P|232:192|132:156,1,200,4|8,0:0|0:0,0:0:0:0:
312,72,85131,2,0,P|368:96|392:148,1,100,4|8,0:0|0:0,0:0:0:0:
208,272,85506,6,0,P|148:262|99:231,1,100,2|2,0:0|0:0,0:0:0:0:
296,220,85881,1,2,0:0:0:0:
352,220,85974,1,0,0:0:0:0:
296,220,86068,2,0,L|184:220,1,100,6|0,0:0|0:0,0:0:0:0:
136,296,86349,2,0,L|252:296,1,100,2|0,0:0|0:0,0:0:0:0:
296,372,86631,2,0,L|196:372,1,100,6|8,0:0|0:0,0:0:0:0:
376,296,87006,6,0,L|472:252,2,100,4|0|8,0:0|0:0|0:0,0:0:0:0:
196,296,87568,2,0,P|140:228|217:174,1,200,4|8,0:0|0:0,0:0:0:0:
400,176,88131,2,0,L|303:120,1,100,4|8,0:0|0:0,0:0:0:0:
136,124,88506,6,0,P|120:180|148:288,1,160,2|2,0:0|0:0,0:0:0:0:
236,280,89068,1,14,0:0:0:0:
52,276,89256,1,0,0:0:0:0:
316,280,89631,2,0,L|400:280,1,80,6|0,0:0|0:0,0:0:0:0:
116,184,90006,5,12,0:0:0:0:
16,184,90193,1,8,0:0:0:0:
136,184,90381,1,8,0:0:0:0:
316,184,90568,2,0,P|404:144|436:48,1,200,6|8,0:0|0:0,0:0:0:0:
256,52,91131,1,4,0:0:0:0:
376,52,91318,1,8,0:0:0:0:
196,56,91506,6,0,P|148:112|224:184,1,200,2|2,0:0|0:0,0:0:0:0:
404,184,92068,2,0,P|416:236|312:324,1,200,4|8,0:0|0:0,0:0:0:0:
136,324,92631,2,0,L|28:324,1,100,4|8,0:0|0:0,0:0:0:0:
224,183,93006,6,0,L|116:183,2,100,2|2|2,0:0|0:0|0:0,0:0:0:0:
24,184,93568,2,0,P|48:92|144:48,1,200,4|8,0:0|0:0,0:0:0:0:
256,48,94131,2,0,L|160:84,1,100,4|8,0:0|0:0,0:0:0:0:
416,148,94506,6,0,P|404:100|364:68,1,100,12|2,0:0|0:0,0:0:0:0:
76,144,94881,2,0,L|164:192,1,100,12|6,0:0|0:0,0:0:0:0:
336,192,95256,1,4,0:0:0:0:
224,192,95443,1,2,0:0:0:0:
344,192,95631,1,2,0:0:0:0:
232,192,95818,1,2,0:0:0:0:
488,192,96006,6,0,P|456:288|368:320,1,200,4|8,0:0|0:0,0:0:0:0:
172,192,96568,2,0,P|236:128|300:192,1,200,4|8,0:0|0:0,0:0:0:0:
120,272,97131,2,0,L|12:272,1,100,4|8,0:0|0:0,0:0:0:0:
205,156,97506,6,0,L|298:190,1,100,2|2,0:0|0:0,0:0:0:0:
440,188,97881,1,2,0:0:0:0:
424,136,97974,1,0,0:0:0:0:
380,116,98068,2,0,L|268:116,1,100,6|0,0:0|0:0,0:0:0:0:
220,192,98349,2,0,L|336:192,1,100,2|0,0:0|0:0,0:0:0:0:
380,268,98631,2,0,L|280:268,1,100,6|8,0:0|0:0,0:0:0:0:
100,268,99006,6,0,L|4:224,2,100,4|0|8,0:0|0:0|0:0,0:0:0:0:
280,268,99568,2,0,L|92:180,1,200,4|8,0:0|0:0,0:0:0:0:
280,184,100131,2,0,L|396:184,1,100,4|8,0:0|0:0,0:0:0:0:
180,84,100506,6,0,L|80:84,2,100,2|0|2,0:0|0:0|0:0,0:0:0:0:
452,88,101068,2,0,P|448:172|352:220,1,200,14|10,0:0|3:0,0:0:0:0:
152,220,101631,2,0,L|56:192,1,100,6|0,0:0|0:0,0:0:0:0:
376,192,102006,5,12,0:0:0:0:
484,192,102193,1,8,0:0:0:0:
356,192,102381,1,8,0:0:0:0:
176,192,102568,2,0,P|216:280|312:312,1,200,6|8,0:0|0:0,0:0:0:0:
124,312,103131,1,4,0:0:0:0:
244,312,103318,1,8,0:0:0:0:
436,316,103506,6,0,P|454:249|356:192,1,200,2|2,0:0|0:0,0:0:0:0:
176,192,104068,2,0,P|128:136|204:64,1,200,4|8,0:0|0:0,0:0:0:0:
384,64,104631,2,0,L|492:64,1,100,4|8,0:0|0:0,0:0:0:0:
284,152,105006,5,2,0:0:0:0:
164,152,105193,1,2,0:0:0:0:
44,152,105381,1,2,0:0:0:0:
232,152,105568,2,0,P|324:184|368:276,1,200,4|8,0:0|0:0,0:0:0:0:
176,308,106131,2,0,L|85:256,1,100,4|8,0:0|0:0,0:0:0:0:
367,271,106506,5,12,0:0:0:0:
488,272,106693,1,2,0:0:0:0:
288,272,106881,2,0,L|200:224,1,100,12|6,0:0|0:0,0:0:0:0:
392,192,107256,1,4,0:0:0:0:
280,192,107443,1,8,0:0:0:0:
24,192,107631,2,0,L|52:92,1,100,12|8,0:0|0:0,0:0:0:0:
112,96,107912,1,0,0:0:0:0:
172,96,108006,6,0,L|332:96,1,160,6|8,0:0|0:0,0:0:0:0:
428,192,108568,1,0,0:0:0:0:
376,192,108662,1,0,0:0:0:0:
324,192,108756,2,0,L|256:236,1,80,2|0,0:0|0:0,0:0:0:0:
368,272,109131,2,0,L|440:312,1,80,8|0,0:0|0:0,0:0:0:0:
260,312,109506,6,0,L|164:312,1,80,2|0,0:0|0:0,0:0:0:0:
296,224,109881,1,8,0:0:0:0:
396,224,110068,1,8,0:0:0:0:
296,224,110256,2,0,P|220:188|192:120,1,160,2|8,0:0|0:0,0:0:0:0:
304,112,110818,1,0,0:0:0:0:
356,112,110912,1,0,0:0:0:0:
408,112,111006,6,0,P|400:168|296:224,1,160,2|8,0:0|0:0,0:0:0:0:
208,224,111568,1,0,0:0:0:0:
32,312,111756,2,0,L|116:312,1,80,2|0,0:0|0:0,0:0:0:0:
224,312,112131,2,0,L|128:312,1,80,8|0,0:0|0:0,0:0:0:0:
336,260,112506,6,0,B|336:180|336:180|263:149,1,160,2|8,0:0|0:0,0:0:0:0:
160,148,113068,1,0,0:0:0:0:
340,152,113256,1,2,0:0:0:0:
100,148,113631,1,8,0:0:0:0:
308,152,114006,6,0,P|356:208|316:272,1,160,6|8,0:0|0:0,0:0:0:0:
204,272,114568,2,0,L|152:272,2,40,0|0|2,0:0|0:0|0:0,0:0:0:0:
308,352,114943,2,0,L|360:352,2,40,0|0|8,0:0|0:0|0:0,0:0:0:0:
204,352,115318,1,0,0:0:0:0:
256,352,115412,1,0,0:0:0:0:
308,352,115506,6,0,P|380:328|412:252,1,160,2|8,0:0|0:0,0:0:0:0:
316,256,116068,1,8,0:0:0:0:
220,256,116256,2,0,P|160:232|128:144,1,160,2|8,0:0|0:0,0:0:0:0:
304,148,116818,1,0,0:0:0:0:
360,148,116912,1,0,0:0:0:0:
416,148,117006,5,6,0:0:0:0:
224,152,117381,2,0,L|212:64,1,80,2|0,0:0|0:0,0:0:0:0:
324,76,117756,2,0,L|428:76,1,80,2|0,0:0|0:0,0:0:0:0:
452,76,118037,1,0,0:0:0:0:
404,76,118131,2,0,L|320:76,1,80,8|0,0:0|0:0,0:0:0:0:
148,76,118506,5,4,0:0:0:0:
244,76,118693,2,0,L|272:104,1,40,8|0,0:0|0:0,0:0:0:0:
208,168,118881,2,0,L|160:168,2,40,4|0|8,0:0|0:0|0:0,0:0:0:0:
460,168,119256,5,14,0:0:0:0:
