osu file format v14

[General]
AudioFilename: audio.mp3
AudioLeadIn: 0
PreviewTime: 37318
Countdown: 0
SampleSet: Normal
StackLeniency: 0.7
Mode: 1
LetterboxInBreaks: 0
WidescreenStoryboard: 0

[Editor]
Bookmarks: 15006,25506,72006,119256
DistanceSpacing: 1.9
BeatDivisor: 2
GridSize: 8
TimelineZoom: 1.5

[Metadata]
Title:A Bella! (feat. Lucy)
TitleUnicode:A Bella! (feat. Lucy)
Artist:M2U
ArtistUnicode:M2U
Creator:ZiRoX
Version:Futsuu
Source:하이파이브
Tags:PNIX Games HIGH5 Drugstep drug step square musiq original soundtrack JBHyperion Deif Chromoxx
BeatmapID:1181222
BeatmapSetID:541101

[Difficulty]
HPDrainRate:7
CircleSize:2.5
OverallDifficulty:4
ApproachRate:6
SliderMultiplier:1.4
SliderTickRate:1

[Events]
//Background and Video events
0,0,"bg.png",0,-100
//Break Periods
//Storyboard Layer 0 (Background)
//Storyboard Layer 1 (Fail)
//Storyboard Layer 2 (Pass)
//Storyboard Layer 3 (Foreground)
//Storyboard Sound Samples

[TimingPoints]
3006,375,4,1,0,90,1,0
37506,-100,4,1,0,90,0,1
48756,-100,4,1,0,90,0,0
49506,-100,4,1,0,90,0,1
61506,-100,4,1,0,90,0,0
84006,-100,4,1,0,90,0,1
88506,-100,4,1,0,90,0,0
90006,-100,4,1,0,90,0,1
95256,-100,4,1,0,90,0,0
96006,-100,4,1,0,90,0,1
108006,-100,4,1,0,90,0,0

[HitObjects]
256,192,3006,5,6,0:0:0:0:
256,192,3568,1,2,0:0:0:0:
256,192,4131,1,0,0:0:0:0:
256,192,4506,1,0,0:0:0:0:
256,192,5068,1,0,0:0:0:0:
256,192,5631,1,0,0:0:0:0:
256,192,6006,1,2,0:0:0:0:
256,192,6568,1,0,0:0:0:0:
256,192,7131,1,0,0:0:0:0:
256,192,7506,1,2,0:0:0:0:
256,192,7881,1,0,0:0:0:0:
256,192,8068,1,0,0:0:0:0:
256,192,8256,1,2,0:0:0:0:
256,192,8631,1,0,0:0:0:0:
256,192,9006,1,6,0:0:0:0:
256,192,9568,1,2,0:0:0:0:
256,192,10131,1,0,0:0:0:0:
256,192,10506,1,2,0:0:0:0:
256,192,11068,1,2,0:0:0:0:
256,192,11631,1,2,0:0:0:0:
256,192,12006,1,0,0:0:0:0:
256,192,12568,1,0,0:0:0:0:
256,192,13131,1,0,0:0:0:0:
256,192,13506,1,2,0:0:0:0:
256,192,13693,1,2,0:0:0:0:
256,192,13881,1,2,0:0:0:0:
256,192,14256,1,0,0:0:0:0:
256,192,15006,1,6,0:0:0:0:
256,192,15568,1,0,0:0:0:0:
256,192,16506,1,0,0:0:0:0:
256,192,17068,1,0,0:0:0:0:
256,192,17631,1,0,0:0:0:0:
256,192,18006,1,2,0:0:0:0:
256,192,18568,1,2,0:0:0:0:
256,192,19131,1,0,0:0:0:0:
256,192,19506,1,2,0:0:0:0:
256,192,19881,1,0,0:0:0:0:
256,192,20256,1,2,0:0:0:0:
256,192,20631,1,0,0:0:0:0:
256,192,21006,1,2,0:0:0:0:
256,192,21568,1,2,0:0:0:0:
256,192,22506,1,0,0:0:0:0:
256,192,23068,1,2,0:0:0:0:
256,192,23631,1,0,0:0:0:0:
256,192,24006,1,0,0:0:0:0:
256,192,24568,1,2,0:0:0:0:
256,192,25131,1,2,0:0:0:0:
256,192,25506,1,4,0:0:0:0:
256,192,26068,1,2,0:0:0:0:
256,192,26631,1,2,0:0:0:0:
256,192,27006,1,0,0:0:0:0:
256,192,27381,1,2,0:0:0:0:
256,192,27756,1,0,0:0:0:0:
256,192,28131,1,2,0:0:0:0:
256,192,28506,1,0,0:0:0:0:
256,192,29068,1,0,0:0:0:0:
256,192,29631,1,0,0:0:0:0:
256,192,30006,1,2,0:0:0:0:
256,192,30568,1,0,0:0:0:0:
256,192,31506,1,6,0:0:0:0:
256,192,32068,1,2,0:0:0:0:
256,192,32631,1,0,0:0:0:0:
256,192,33006,1,2,0:0:0:0:
256,192,33568,1,0,0:0:0:0:
256,192,34131,1,0,0:0:0:0:
256,192,34506,1,0,0:0:0:0:
256,192,35068,1,2,0:0:0:0:
256,192,35631,1,2,0:0:0:0:
256,192,36006,1,2,0:0:0:0:
256,192,36568,1,0,0:0:0:0:
256,192,36943,1,4,0:0:0:0:
256,192,37506,1,6,0:0:0:0:
256,192,37881,1,2,0:0:0:0:
256,192,38068,1,0,0:0:0:0:
256,192,38631,1,0,0:0:0:0:
256,192,39006,1,2,0:0:0:0:
256,192,39193,1,0,0:0:0:0:
256,192,39568,1,0,0:0:0:0:
256,192,39943,1,2,0:0:0:0:
256,192,40131,1,0,0:0:0:0:
256,192,40506,1,0,0:0:0:0:
256,192,40881,1,0,0:0:0:0:
256,192,41068,1,2,0:0:0:0:
256,192,41631,1,0,0:0:0:0:
256,192,42006,1,2,0:0:0:0:
256,192,42193,1,0,0:0:0:0:
256,192,42381,1,2,0:0:0:0:
256,192,42756,1,0,0:0:0:0:
256,192,43131,1,0,0:0:0:0:
256,192,43506,1,2,0:0:0:0:
256,192,43881,1,2,0:0:0:0:
256,192,44068,1,0,0:0:0:0:
256,192,44631,1,2,0:0:0:0:
256,192,45006,1,0,0:0:0:0:
256,192,45381,1,2,0:0:0:0:
256,192,45568,1,0,0:0:0:0:
256,192,46131,1,0,0:0:0:0:
256,192,46506,1,0,0:0:0:0:
256,192,46881,1,2,0:0:0:0:
256,192,47068,1,2,0:0:0:0:
256,192,47631,1,0,0:0:0:0:
256,192,48006,1,2,0:0:0:0:
256,192,48193,1,2,0:0:0:0:
256,192,48381,1,0,0:0:0:0:
256,192,48756,1,2,0:0:0:0:
256,192,49506,1,6,0:0:0:0:
256,192,49881,1,0,0:0:0:0:
256,192,50068,1,2,0:0:0:0:
256,192,50631,1,0,0:0:0:0:
256,192,51006,1,0,0:0:0:0:
256,192,51193,1,2,0:0:0:0:
256,192,51568,1,2,0:0:0:0:
256,192,51943,1,0,0:0:0:0:
256,192,52131,1,2,0:0:0:0:
256,192,52506,1,0,0:0:0:0:
256,192,52881,1,0,0:0:0:0:
256,192,53068,1,2,0:0:0:0:
256,192,53631,1,2,0:0:0:0:
256,192,54006,1,0,0:0:0:0:
256,192,54193,1,0,0:0:0:0:
256,192,54381,1,2,0:0:0:0:
256,192,54568,1,2,0:0:0:0:
256,192,55131,1,0,0:0:0:0:
256,192,55506,1,2,0:0:0:0:
256,192,55881,1,2,0:0:0:0:
256,192,56068,1,0,0:0:0:0:
256,192,56631,1,2,0:0:0:0:
256,192,57006,1,0,0:0:0:0:
256,192,57381,1,2,0:0:0:0:
256,192,57568,1,0,0:0:0:0:
256,192,58131,1,0,0:0:0:0:
256,192,58506,1,2,0:0:0:0:
256,192,58881,1,2,0:0:0:0:
256,192,59068,1,0,0:0:0:0:
256,192,59443,1,2,0:0:0:0:
256,192,59630,1,0,0:0:0:0:
256,192,60006,1,2,0:0:0:0:
256,192,60193,1,2,0:0:0:0:
256,192,60381,1,2,0:0:0:0:
256,192,60756,1,0,0:0:0:0:
256,192,61506,1,2,0:0:0:0:
256,192,62068,1,0,0:0:0:0:
256,192,63006,1,0,0:0:0:0:
256,192,63568,1,2,0:0:0:0:
256,192,64506,1,2,0:0:0:0:
256,192,65068,1,0,0:0:0:0:
256,192,65443,1,0,0:0:0:0:
256,192,65631,1,0,0:0:0:0:
256,192,66006,1,0,0:0:0:0:
256,192,66568,1,2,0:0:0:0:
256,192,66943,1,0,0:0:0:0:
256,192,67131,1,2,0:0:0:0:
256,192,67506,1,6,0:0:0:0:
256,192,67881,1,0,0:0:0:0:
256,192,68068,1,2,0:0:0:0:
256,192,68631,1,2,0:0:0:0:
256,192,69006,1,0,0:0:0:0:
256,192,69381,1,0,0:0:0:0:
256,192,69568,1,0,0:0:0:0:
256,192,70131,1,0,0:0:0:0:
256,192,70506,1,2,0:0:0:0:
256,192,71256,1,0,0:0:0:0:
256,192,71631,1,0,0:0:0:0:
256,192,72006,1,6,0:0:0:0:
256,192,72568,1,2,0:0:0:0:
256,192,73131,1,0,0:0:0:0:
256,192,73506,1,2,0:0:0:0:
256,192,74068,1,2,0:0:0:0:
256,192,74631,1,0,0:0:0:0:
256,192,75006,1,2,0:0:0:0:
256,192,75568,1,0,0:0:0:0:
256,192,76131,1,0,0:0:0:0:
256,192,76506,1,2,0:0:0:0:
256,192,77068,1,0,0:0:0:0:
256,192,77631,1,0,0:0:0:0:
256,192,78006,1,6,0:0:0:0:
256,192,78568,1,2,0:0:0:0:
256,192,79131,1,0,0:0:0:0:
256,192,79506,1,2,0:0:0:0:
256,192,80068,1,2,0:0:0:0:
256,192,80631,1,2,0:0:0:0:
256,192,81006,1,0,0:0:0:0:
256,192,81568,1,0,0:0:0:0:
256,192,81943,1,0,0:0:0:0:
256,192,82131,1,2,0:0:0:0:
256,192,82506,1,2,0:0:0:0:
256,192,83068,1,0,0:0:0:0:
256,192,83443,1,4,0:0:0:0:
256,192,84006,1,6,0:0:0:0:
256,192,84381,1,2,0:0:0:0:
256,192,84568,1,0,0:0:0:0:
256,192,85131,1,0,0:0:0:0:
256,192,85506,1,2,0:0:0:0:
256,192,85693,1,0,0:0:0:0:
256,192,86068,1,2,0:0:0:0:
256,192,86443,1,0,0:0:0:0:
256,192,86631,1,2,0:0:0:0:
256,192,87006,1,0,0:0:0:0:
256,192,87381,1,0,0:0:0:0:
256,192,87568,1,2,0:0:0:0:
256,192,87943,1,0,0:0:0:0:
256,192,88130,1,2,0:0:0:0:
256,192,88506,1,2,0:0:0:0:
256,192,88881,1,2,0:0:0:0:
256,192,89068,1,2,0:0:0:0:
256,192,89256,1,0,0:0:0:0:
256,192,89631,1,4,0:0:0:0:
256,192,90006,1,6,0:0:0:0:
256,192,90381,1,0,0:0:0:0:
256,192,90568,1,2,0:0:0:0:
256,192,91131,1,0,0:0:0:0:
256,192,91506,1,0,0:0:0:0:
256,192,91881,1,2,0:0:0:0:
256,192,92068,1,0,0:0:0:0:
256,192,92631,1,0,0:0:0:0:
256,192,93006,1,0,0:0:0:0:
256,192,93381,1,2,0:0:0:0:
256,192,93568,1,2,0:0:0:0:
256,192,93943,1,0,0:0:0:0:
256,192,94131,1,0,0:0:0:0:
256,192,94506,1,2,0:0:0:0:
256,192,94693,1,2,0:0:0:0:
256,192,94881,1,0,0:0:0:0:
256,192,95256,1,0,0:0:0:0:
256,192,95443,1,0,0:0:0:0:
256,192,95631,1,0,0:0:0:0:
256,192,95818,1,0,0:0:0:0:
256,192,96006,1,6,0:0:0:0:
256,192,96381,1,0,0:0:0:0:
256,192,96568,1,2,0:0:0:0:
256,192,97131,1,2,0:0:0:0:
256,192,97506,1,0,0:0:0:0:
256,192,97693,1,2,0:0:0:0:
256,192,98068,1,2,0:0:0:0:
256,192,98443,1,2,0:0:0:0:
256,192,98631,1,0,0:0:0:0:
256,192,99006,1,0,0:0:0:0:
256,192,99381,1,0,0:0:0:0:
256,192,99568,1,2,0:0:0:0:
256,192,100131,1,2,0:0:0:0:
256,192,100506,1,0,0:0:0:0:
256,192,100693,1,0,0:0:0:0:
256,192,100881,1,2,0:0:0:0:
256,192,101068,1,6,0:0:0:0:
256,192,101631,1,4,0:0:0:0:
256,192,102006,1,6,0:0:0:0:
256,192,102381,1,2,0:0:0:0:
256,192,102568,1,0,0:0:0:0:
256,192,103131,1,2,0:0:0:0:
256,192,103506,1,0,0:0:0:0:
256,192,103881,1,2,0:0:0:0:
256,192,104068,1,0,0:0:0:0:
256,192,104631,1,0,0:0:0:0:
256,192,105006,1,2,0:0:0:0:
256,192,105381,1,2,0:0:0:0:
256,192,105568,1,0,0:0:0:0:
256,192,105943,1,2,0:0:0:0:
256,192,106130,1,0,0:0:0:0:
256,192,106506,1,2,0:0:0:0:
256,192,106693,1,2,0:0:0:0:
256,192,106881,1,2,0:0:0:0:
256,192,107256,1,0,0:0:0:0:
256,192,107631,1,0,0:0:0:0:
256,192,108006,1,6,0:0:0:0:
256,192,108756,1,0,0:0:0:0:
256,192,109506,1,2,0:0:0:0:
256,192,109881,1,2,0:0:0:0:
256,192,110256,1,0,0:0:0:0:
256,192,110631,1,2,0:0:0:0:
256,192,111006,1,0,0:0:0:0:
256,192,111756,1,2,0:0:0:0:
256,192,112506,1,0,0:0:0:0:
256,192,112881,1,0,0:0:0:0:
256,192,113256,1,2,0:0:0:0:
256,192,113631,1,0,0:0:0:0:
256,192,114006,1,2,0:0:0:0:
256,192,114756,1,0,0:0:0:0:
256,192,115506,1,0,0:0:0:0:
256,192,116256,1,2,0:0:0:0:
256,192,117006,1,6,0:0:0:0:
256,192,117381,1,0,0:0:0:0:
256,192,117756,1,0,0:0:0:0:
256,192,118131,1,0,0:0:0:0:
256,192,118506,1,6,0:0:0:0:
256,192,118881,1,0,0:0:0:0:
256,192,119256,1,6,0:0:0:0:
