osu file format v14

[General]
AudioFilename: audio.mp3
AudioLeadIn: 0
PreviewTime: 37318
Countdown: 0
SampleSet: Normal
StackLeniency: 0.7
Mode: 2
LetterboxInBreaks: 0
WidescreenStoryboard: 0

[Editor]
DistanceSpacing: 1.9
BeatDivisor: 4
GridSize: 16
TimelineZoom: 1.9

[Metadata]
Title:A Bella! (feat. Lucy)
TitleUnicode:A Bella! (feat. Lucy)
Artist:M2U
ArtistUnicode:M2U
Creator:ZiRoX
Version:Deif's Overdose
Source:하이파이브
Tags:PNIX Games HIGH5 Drugstep drug step square musiq original soundtrack JBHyperion Deif Chromoxx
BeatmapID:1147348
BeatmapSetID:541101

[Difficulty]
HPDrainRate:7
CircleSize:4.2
OverallDifficulty:9.1
ApproachRate:9.1
SliderMultiplier:2.5
SliderTickRate:1

[Events]
//Background and Video events
0,0,"bg.png",0,0
//Break Periods
//Storyboard Layer 0 (Background)
//Storyboard Layer 1 (Fail)
//Storyboard Layer 2 (Pass)
//Storyboard Layer 3 (Foreground)
//Storyboard Sound Samples

[TimingPoints]
3006,375,4,1,1,40,1,0
15006,-133.333333333333,4,1,1,30,0,0
24193,-50,4,1,1,30,0,0
24568,-66.6666666666667,4,1,1,40,0,0
25131,-133.333333333333,4,1,1,30,0,0
25506,-100,4,1,1,40,0,0
37506,-80,4,1,2,50,0,1
48756,-133.333333333333,4,3,0,40,0,0
49506,-80,4,1,2,50,0,1
54568,-55.5555555555556,4,1,2,60,0,1
55131,-80,4,1,2,50,0,1
60756,-100,4,3,0,40,0,1
61131,-50,4,1,2,50,0,1
61506,-133.333333333333,4,2,0,45,0,0
65443,-133.333333333333,4,3,0,30,0,0
66568,-100,4,1,1,40,0,0
82131,-50,4,1,1,50,0,0
82506,-100,4,1,1,60,0,0
83068,-50,4,1,1,50,0,0
83443,-100,4,1,1,50,0,0
84006,-80,4,1,2,50,0,1
88506,-100,4,1,2,40,0,0
89068,-100,4,1,2,40,0,0
89631,-50,4,1,2,60,0,0
90006,-80,4,1,2,50,0,1
95256,-133.333333333333,4,3,0,40,0,0
96006,-80,4,1,2,50,0,1
101068,-80,4,1,2,40,0,1
101631,-80,4,1,2,50,0,1
107256,-100,4,3,0,40,0,1
107631,-40,4,1,2,50,0,1
108006,-133.333333333333,4,2,0,40,0,0
118506,-66.6666666666667,4,1,1,50,0,0

[Colours]
Combo1 : 220,213,114
Combo2 : 149,76,79
Combo3 : 242,104,129
Combo4 : 106,96,154

[HitObjects]
112,192,3006,6,0,L|176:80,1,125,4|0,0:0|0:0,0:0:0:0:
320,80,3381,1,2,0:0:0:0:
64,304,3568,2,0,P|16:192|64:80,1,250,8|0,0:0|0:0,0:0:0:0:
320,192,4131,1,2,0:0:0:0:
176,192,4318,1,8,0:0:0:0:
432,192,4506,6,0,L|352:96,1,125,4|0,0:0|0:0,0:0:0:0:
208,96,4881,1,2,0:0:0:0:
464,192,5068,2,0,P|416:320|320:320,1,250,8|0,0:0|0:0,0:0:0:0:
64,320,5631,2,0,L|192:320,1,125,2|8,0:0|0:0,0:0:0:0:
448,192,6006,6,0,L|320:192,2,125,4|0|2,0:0|0:0|0:0,0:0:0:0:
192,112,6568,2,0,P|112:192|192:272,1,250,8|0,0:0|0:0,0:0:0:0:
448,192,7131,2,0,P|432:256|384:288,1,125,2|8,0:0|0:0,0:0:0:0:
320,288,7412,1,0,0:0:0:0:
112,192,7506,5,4,0:0:0:0:
240,192,7693,2,0,L|304:192,1,62.5
80,192,7881,1,2,0:0:0:0:
48,144,7974,1,0,0:0:0:0:
80,96,8068,2,0,P|128:64|208:64,1,125,8|2,0:0|0:0,0:0:0:0:
368,96,8443,2,0,L|432:96,1,62.5,8|0,0:0|0:0,0:0:0:0:
205,192,8631,2,0,L|77:192,1,125,2|0,0:0|0:0,0:0:0:0:
400,192,9006,6,0,L|336:304,1,125,4|0,0:0|0:0,0:0:0:0:
192,304,9381,1,2,0:0:0:0:
448,80,9568,2,0,P|496:192|448:304,1,250,8|0,0:0|0:0,0:0:0:0:
192,192,10131,1,2,0:0:0:0:
336,192,10318,1,8,0:0:0:0:
80,192,10506,6,0,L|160:288,1,125,4|0,0:0|0:0,0:0:0:0:
448,192,10881,1,2,0:0:0:0:
192,64,11068,2,0,P|112:160|192:208,1,250,8|8,0:0|0:0,0:0:0:0:
448,64,11631,2,0,L|320:64,1,125,2|8,0:0|0:0,0:0:0:0:
64,192,12006,6,0,L|192:192,2,125,4|0|2,0:0|0:0|0:0,0:0:0:0:
320,272,12568,2,0,P|400:192|320:112,1,250,8|0,0:0|0:0,0:0:0:0:
64,192,13131,2,0,P|80:128|128:96,1,125,2|8,0:0|0:0,0:0:0:0:
192,96,13412,1,0,0:0:0:0:
432,192,13506,6,0,L|336:112,1,125,4|0,0:0|0:0,0:0:0:0:
80,192,13881,2,0,L|176:272,1,125,2|2,0:0|0:0,0:0:0:0:
432,192,14256,1,2,0:0:0:0:
288,192,14443,2,0,L|224:192,1,62.5,8|0,0:0|0:0,0:0:0:0:
432,192,14631,2,0,P|464:224|432:288,1,125,2|0,0:0|0:0,0:0:0:0:
144,192,15006,6,0,P|112:128|192:64,1,187.500007152558,4|8,0:0|0:0,0:0:0:0:
352,64,15568,2,0,P|384:128|304:192,1,187.500007152558,2|8,0:0|0:0,0:0:0:0:
144,192,16131,2,0,L|48:192,1,93.7500035762788,2|0,0:0|0:0,0:0:0:0:
304,144,16506,6,0,L|208:144,1,93.7500035762788,4|0,0:0|0:0,0:0:0:0:
464,192,16881,1,8,0:0:0:0:
304,192,17068,2,0,B|256:224|256:224|304:288|368:224,1,187.500007152558,2|8,0:0|0:0,0:0:0:0:
112,320,17631,2,0,L|208:320,1,93.7500035762788,2|0,0:0|0:0,0:0:0:0:
464,192,18006,6,0,L|368:192,2,93.7500035762788,4|0|8,0:0|0:0|0:0,0:0:0:0:
304,192,18568,2,0,B|256:160|256:160|304:96|368:160,1,187.500007152558,2|8,0:0|0:0,0:0:0:0:
112,64,19131,2,0,L|16:64,1,93.7500035762788,2|0,0:0|0:0,0:0:0:0:
352,64,19506,6,0,L|448:64,1,93.7500035762788,4|8,0:0|0:0,0:0:0:0:
400,64,19787,1,0,0:0:0:0:
240,64,19881,2,0,L|144:64,1,93.7500035762788,2|8,0:0|0:0,0:0:0:0:
184,128,20115,1,0,3:0:0:0:
208,192,20162,1,0,3:0:0:0:
184,256,20209,1,0,3:0:0:0:
144,320,20256,2,0,L|96:320,2,46.8750017881394,2|0|0,0:0|0:0|0:0,0:0:0:0:
304,192,20631,1,2,0:0:0:0:
32,192,20818,1,8,0:0:0:0:
368,192,21006,6,0,P|400:256|320:320,1,187.500007152558,4|8,0:0|0:0,0:0:0:0:
160,320,21568,2,0,P|128:256|208:192,1,187.500007152558,2|8,0:0|0:0,0:0:0:0:
368,192,22131,2,0,L|464:192,1,93.7500035762788,2|0,0:0|0:0,0:0:0:0:
208,240,22506,6,0,L|304:240,1,93.7500035762788,4|0,0:0|0:0,0:0:0:0:
48,192,22881,1,8,0:0:0:0:
384,192,23068,2,0,P|400:104|320:64,1,187.500007152558,2|8,0:0|0:0,0:0:0:0:
160,192,23631,2,0,L|256:192,1,93.7500035762788,2|0,0:0|0:0,0:0:0:0:
96,192,24006,5,4,0:0:0:0:
346,192,24193,2,0,L|96:192,1,250,4|0,0:0|0:0,0:0:0:0:
416,192,24568,2,0,B|256:92|256:92|416:192,1,375.000014305115,6|0,0:0|0:0,0:0:0:0:
96,192,25131,1,4,1:1:0:0:
346,192,25318,1,8,0:0:0:0:
96,192,25506,6,0,L|160:80,1,125,4|0,0:0|0:0,0:0:0:0:
336,192,25881,2,0,L|336:320,1,125,2|0,0:0|0:0,0:0:0:0:
144,192,26256,2,0,L|208:304,1,125,2|0,0:0|0:0,0:0:0:0:
384,192,26631,2,0,L|384:64,1,125,2|8,0:0|0:0,0:0:0:0:
80,192,27006,5,4,0:0:0:0:
176,192,27193,1,0,0:0:0:0:
48,192,27381,1,2,0:0:0:0:
208,192,27568,2,0,L|320:128,1,125,8|2,0:0|0:0,0:0:0:0:
144,192,27943,1,8,0:0:0:0:
316,254,28131,2,0,L|208:192,1,125,2|8,0:0|0:0,0:0:0:0:
464,192,28506,5,4,0:0:0:0:
336,192,28693,1,2,0:0:0:0:
480,144,28881,1,2,0:0:0:0:
352,144,29068,2,0,P|256:160|272:288,1,250,8|8,0:0|0:0,0:0:0:0:
432,272,29631,2,0,L|368:160,1,125,2|0,0:0|0:0,0:0:0:0:
112,192,30006,6,0,L|80:192,1,31.25,8|0,0:0|0:0,0:0:0:0:
320,128,30193,2,0,L|368:128,1,31.25,8|0,0:0|0:0,0:0:0:0:
128,128,30381,2,0,L|80:128,1,31.25,8|0,0:0|0:0,0:0:0:0:
336,192,30568,2,0,P|448:208|464:336,1,250,2|0,0:0|0:0,0:0:0:0:
208,304,31131,2,0,L|80:304,1,125,4|8,0:0|0:0,0:0:0:0:
144,304,31412,1,0,0:0:0:0:
336,192,31506,6,0,L|448:128,1,125,4|0,0:0|0:0,0:0:0:0:
256,112,31881,2,0,L|368:48,1,125,2|0,0:0|0:0,0:0:0:0:
176,192,32256,2,0,L|64:256,1,125,2|0,0:0|0:0,0:0:0:0:
256,272,32631,2,0,L|144:336,1,125,2|8,0:0|0:0,0:0:0:0:
460,193,33006,6,0,L|352:256,1,125,2|0,0:0|0:0,0:0:0:0:
176,192,33381,1,2,0:0:0:0:
352,128,33568,2,0,L|464:192,1,125,8|2,0:0|0:0,0:0:0:0:
272,192,33943,1,8,0:0:0:0:
460,193,34131,2,0,L|352:256,1,125,2|0,0:0|0:0,0:0:0:0:
64,192,34506,5,4,0:0:0:0:
224,192,34693,2,0,L|112:128,1,125,8|2,0:0|0:0,0:0:0:0:
288,192,35068,2,0,P|400:176|464:64,1,250,8|8,0:0|0:0,0:0:0:0:
112,112,35631,2,0,L|96:240,1,125,2|0,0:0|0:0,0:0:0:0:
448,192,36006,5,4,0:0:0:0:
128,192,36193,1,10,3:1:0:0:
448,192,36381,1,4,3:1:0:0:
160,176,36568,2,0,P|92:192|160:208,1,187.5,10|0,0:0|0:0,0:0:0:0:
432,304,36943,2,0,P|480:192|432:80,1,250,4|8,1:1|0:0,0:0:0:0:
368,32,37412,1,0,0:0:0:0:
48,192,37506,6,0,P|128:96|304:96,1,312.5,4|8,0:0|0:0,0:0:0:0:
48,192,38068,2,0,P|128:288|304:288,1,312.5,4|8,0:0|0:0,0:0:0:0:
48,192,38631,2,0,L|208:192,1,156.25,4|8,0:0|0:0,0:0:0:0:
464,192,39006,5,2,0:0:0:0:
304,192,39193,1,2,0:0:0:0:
464,192,39381,1,2,0:0:0:0:
304,192,39474,1,0,0:0:0:0:
144,192,39568,2,0,L|128:32,1,156.25,6|0,0:0|0:0,0:0:0:0:
304,192,39849,2,0,L|288:32,1,156.25,2|0,0:0|0:0,0:0:0:0:
464,192,40131,2,0,L|448:32,1,156.25,6|8,0:0|0:0,0:0:0:0:
128,192,40506,6,0,P|208:288|384:288,1,312.5,4|8,0:0|0:0,0:0:0:0:
128,288,41068,2,0,P|24:192|128:96,1,312.5,4|8,0:0|0:0,0:0:0:0:
384,96,41631,2,0,L|224:96,1,156.25,4|8,0:0|0:0,0:0:0:0:
480,192,42006,6,0,P|464:272|400:304,1,156.25,2|0,0:0|0:0,0:0:0:0:
144,304,42381,2,0,P|78:266|66:192,1,156.25,2|0,0:0|0:0,0:0:0:0:
104,192,42615,1,0,0:0:0:0:
144,192,42662,1,0,0:0:0:0:
368,192,42756,2,0,L|416:192,2,39.0625,6|0|0,0:0|0:0|0:0,0:0:0:0:
144,192,42943,2,0,L|80:144,1,78.125
368,192,43131,2,0,P|448:160|464:96,1,156.25,6|8,0:0|0:0,0:0:0:0:
64,96,43506,6,0,L|96:128,1,39.0625,12|0,0:0|0:0,0:0:0:0:
384,96,43693,2,0,L|416:128,1,39.0625,8|0,0:0|0:0,0:0:0:0:
112,192,43881,2,0,L|80:224,1,39.0625,8|0,0:0|0:0,0:0:0:0:
367,192,44068,2,0,P|486:261|399:368,1,312.5,6|8,0:0|0:0,0:0:0:0:
256,272,44631,1,4,0:0:0:0:
416,272,44818,1,8,0:0:0:0:
160,272,45006,6,0,P|192:192|256:176,1,156.25,2|0,0:0|0:0,0:0:0:0:
416,176,45381,1,2,0:0:0:0:
144,192,45568,2,0,P|32:240|112:368,1,312.5,4|8,0:0|0:0,0:0:0:0:
256,272,46131,1,4,0:0:0:0:
96,272,46318,1,8,0:0:0:0:
352,240,46506,5,2,0:0:0:0:
192,240,46693,1,2,0:0:0:0:
464,192,46881,1,2,0:0:0:0:
160,192,47068,2,0,P|32:144|80:0,1,312.5,4|8,0:0|0:0,0:0:0:0:
368,192,47631,2,0,P|439:167|462:95,1,156.25,4|8,0:0|0:0,0:0:0:0:
144,96,48006,5,12,0:0:0:0:
464,192,48193,1,2,0:0:0:0:
144,288,48381,1,12,0:0:0:0:
288,192,48568,1,6,0:0:0:0:
32,192,48756,5,4,0:0:0:0:
160,192,48943,2,0,L|256:192,2,93.7500035762788,2|2|2,0:0|0:0|0:0,0:0:0:0:
464,192,49506,6,0,P|384:288|208:288,1,312.5,4|8,0:0|0:0,0:0:0:0:
464,192,50068,2,0,P|384:96|208:96,1,312.5,4|8,0:0|0:0,0:0:0:0:
464,192,50631,2,0,L|304:192,1,156.25,4|8,0:0|0:0,0:0:0:0:
48,192,51006,5,2,0:0:0:0:
208,192,51193,1,2,0:0:0:0:
48,192,51381,1,2,0:0:0:0:
208,192,51474,1,0,0:0:0:0:
368,192,51568,2,0,L|384:352,1,156.25,6|0,0:0|0:0,0:0:0:0:
208,192,51849,2,0,L|224:352,1,156.25,2|0,0:0|0:0,0:0:0:0:
48,192,52131,2,0,L|64:352,1,156.25,6|8,0:0|0:0,0:0:0:0:
384,192,52506,6,0,P|304:96|128:96,1,312.5,4|8,0:0|0:0,0:0:0:0:
384,96,53068,2,0,P|488:192|384:288,1,312.5,4|8,0:0|0:0,0:0:0:0:
128,288,53631,2,0,L|288:288,1,156.25,4|8,0:0|0:0,0:0:0:0:
32,192,54006,6,0,P|48:112|112:80,1,156.25,2|0,0:0|0:0,0:0:0:0:
368,80,54381,1,2,0:0:0:0:
32,192,54568,2,0,L|496:192,1,449.99998626709,14|8,0:0|0:0,0:0:0:0:
144,192,55131,2,0,P|64:224|48:288,1,156.25,6|8,0:0|0:0,0:0:0:0:
448,288,55506,6,0,L|416:256,1,39.0625,12|0,0:0|0:0,0:0:0:0:
128,288,55693,2,0,L|96:256,1,39.0625,8|0,0:0|0:0,0:0:0:0:
400,192,55881,2,0,L|432:160,1,39.0625,8|0,0:0|0:0,0:0:0:0:
144,192,56068,2,0,P|32:144|112:16,1,312.5,6|8,0:0|0:0,0:0:0:0:
256,112,56631,1,4,0:0:0:0:
96,112,56818,1,8,0:0:0:0:
352,112,57006,6,0,P|320:192|256:208,1,156.25,2|0,0:0|0:0,0:0:0:0:
96,208,57381,1,2,0:0:0:0:
368,192,57568,2,0,P|480:144|400:16,1,312.5,4|8,0:0|0:0,0:0:0:0:
256,112,58131,1,4,0:0:0:0:
416,112,58318,1,8,0:0:0:0:
160,144,58506,5,2,0:0:0:0:
320,144,58693,1,2,0:0:0:0:
48,192,58881,1,2,0:0:0:0:
352,192,59068,2,0,P|480:240|432:384,1,312.5,4|8,0:0|0:0,0:0:0:0:
144,192,59631,2,0,P|73:217|50:289,1,156.25,4|8,0:0|0:0,0:0:0:0:
368,288,60006,5,12,0:0:0:0:
48,192,60193,1,2,0:0:0:0:
368,96,60381,1,12,0:0:0:0:
224,192,60568,1,6,0:0:0:0:
480,192,60756,6,0,L|352:192,1,125,4|8,0:0|0:0,0:0:0:0:
32,192,61131,2,0,L|288:192,1,250,12|8,0:0|0:0,0:0:0:0:
32,192,61506,6,0,L|144:192,2,93.7500035762788,2|0|2,0:0|0:0|0:0,0:0:0:0:
160,192,62068,2,0,L|224:192,1,46.8750017881394,2|0,0:0|0:0,0:0:0:0:
125,192,62256,2,0,L|32:192,1,93.7500035762788,2|0,0:0|0:0,0:0:0:0:
176,144,62631,1,2,0:0:0:0:
64,144,62818,1,2,0:0:0:0:
320,144,63006,6,0,L|413:144,1,93.7500035762788,2|2,0:0|0:0,0:0:0:0:
464,192,63287,1,0,0:0:0:0:
368,192,63381,2,0,L|416:192,1,46.8750017881394,2|0,0:0|0:0,0:0:0:0:
320,192,63568,2,0,P|272:208|320:304,1,187.500007152558,2|2,0:0|0:0,0:0:0:0:
64,304,64131,2,0,P|32:240|32:160,1,140.625005364418,2|0,0:0|0:0,0:0:0:0:
192,192,64506,6,0,L|96:192,2,93.7500035762788,2|0|2,0:0|0:0|0:0,0:0:0:0:
448,112,65068,2,0,P|480:144|448:272,1,187.500007152558,2|4,0:0|0:0,0:0:0:0:
451,269,65466,1,0,0:0:0:0:
304,192,65631,1,4,0:0:0:0:
304,192,65654,1,0,0:0:0:0:
400,192,65818,1,4,0:0:0:0:
400,192,65841,1,0,0:0:0:0:
144,272,66006,5,4,0:0:0:0:
144,272,66029,2,0,P|176:224|144:112,1,175.781256705523,0|8,0:0|0:0,0:0:0:0:
96,96,66474,1,0,0:0:0:0:
336,96,66568,2,0,L|464:96,1,125,4|2,0:0|0:0,0:0:0:0:
480,144,66802,1,0,3:0:0:0:
464,192,66849,1,0,3:0:0:0:
432,224,66896,1,0,3:0:0:0:
384,224,66943,1,8,0:0:0:0:
144,192,67131,1,4,0:0:0:0:
304,192,67318,1,8,0:0:0:0:
48,288,67506,6,0,L|176:288,1,125,4|0,0:0|0:0,0:0:0:0:
16,240,67881,1,8,0:0:0:0:
304,240,68068,2,0,L|368:208,1,62.5,2|0,0:0|0:0,0:0:0:0:
272,240,68256,2,0,L|144:240,1,125,8|0,0:0|0:0,0:0:0:0:
432,240,68631,2,0,L|496:208,1,62.5,2|0,0:0|0:0,0:0:0:0:
304,192,68818,2,0,L|240:160,1,62.5,8|0,0:0|0:0,0:0:0:0:
432,192,69006,6,0,P|464:128|432:96,1,125,4|8,0:0|0:0,0:0:0:0:
368,96,69287,1,0,0:0:0:0:
176,96,69381,2,0,L|112:96,1,62.5,8|0,0:0|0:0,0:0:0:0:
304,96,69568,2,0,P|384:112|384:256,1,250,2|8,0:0|0:0,0:0:0:0:
64,256,70131,2,0,L|32:128,1,125,2|8,0:0|0:0,0:0:0:0:
352,192,70506,6,0,L|480:192,1,125,4|8,0:0|0:0,0:0:0:0:
288,192,70787,1,0,0:0:0:0:
96,192,70881,1,8,0:0:0:0:
42,163,70974,1,0,0:0:0:0:
28,104,71068,1,8,0:0:0:0:
63,54,71162,1,0,0:0:0:0:
288,48,71256,2,0,L|416:48,1,125,6|0,0:0|0:0,0:0:0:0:
352,48,71537,1,0,0:0:0:0:
160,320,71631,1,6,0:0:0:0:
125,270,71725,1,0,0:0:0:0:
139,211,71819,1,8,0:0:0:0:
193,183,71912,1,0,0:0:0:0:
416,192,72006,6,0,L|352:304,1,125,4|0,0:0|0:0,0:0:0:0:
176,192,72381,2,0,L|176:64,1,125,2|0,0:0|0:0,0:0:0:0:
368,192,72756,2,0,L|304:80,1,125,2|0,0:0|0:0,0:0:0:0:
128,192,73131,2,0,L|128:320,1,125,2|8,0:0|0:0,0:0:0:0:
432,192,73506,5,4,0:0:0:0:
336,192,73693,1,0,0:0:0:0:
464,192,73881,1,2,0:0:0:0:
304,192,74068,2,0,L|192:256,1,125,8|2,0:0|0:0,0:0:0:0:
368,192,74443,1,8,0:0:0:0:
196,130,74631,2,0,L|304:192,1,125,2|8,0:0|0:0,0:0:0:0:
48,192,75006,5,4,0:0:0:0:
176,192,75193,1,2,0:0:0:0:
32,240,75381,1,2,0:0:0:0:
160,240,75568,2,0,P|256:224|240:96,1,250,8|8,0:0|0:0,0:0:0:0:
80,112,76131,2,0,L|144:224,1,125,2|0,0:0|0:0,0:0:0:0:
400,192,76506,6,0,L|432:192,1,31.25,8|0,0:0|0:0,0:0:0:0:
192,256,76693,2,0,L|144:256,1,31.25,8|0,0:0|0:0,0:0:0:0:
384,256,76881,2,0,L|432:256,1,31.25,8|0,0:0|0:0,0:0:0:0:
176,192,77068,2,0,P|64:176|48:48,1,250,2|0,0:0|0:0,0:0:0:0:
304,80,77631,2,0,L|432:80,1,125,4|8,0:0|0:0,0:0:0:0:
368,80,77912,1,0,0:0:0:0:
176,192,78006,6,0,L|64:256,1,125,4|0,0:0|0:0,0:0:0:0:
256,272,78381,2,0,L|144:336,1,125,2|0,0:0|0:0,0:0:0:0:
336,192,78756,2,0,L|448:128,1,125,2|0,0:0|0:0,0:0:0:0:
256,112,79131,2,0,L|368:48,1,125,2|8,0:0|0:0,0:0:0:0:
52,191,79506,6,0,L|160:128,1,125,2|0,0:0|0:0,0:0:0:0:
336,192,79881,1,2,0:0:0:0:
160,256,80068,2,0,L|48:192,1,125,8|2,0:0|0:0,0:0:0:0:
240,192,80443,1,8,0:0:0:0:
52,191,80631,2,0,L|160:128,1,125,2|0,0:0|0:0,0:0:0:0:
448,192,81006,5,4,0:0:0:0:
288,192,81193,2,0,L|400:256,1,125,8|2,0:0|0:0,0:0:0:0:
224,192,81568,2,0,P|112:208|48:320,1,250,8|8,0:0|0:0,0:0:0:0:
400,272,82131,2,0,P|432:176|336:80,1,250,10|0,0:0|0:0,0:0:0:0:
64,192,82506,5,4,0:0:0:0:
432,192,82693,1,10,3:1:0:0:
64,192,82881,1,4,3:1:0:0:
320,256,83068,2,0,P|464:224|464:16,1,375,10|0,0:0|0:0,0:0:0:0:
112,96,83443,2,0,P|48:224|112:288,1,250,4|8,1:1|0:0,0:0:0:0:
176,352,83912,1,0,0:0:0:0:
496,192,84006,6,0,P|464:304|288:320,1,312.5,4|8,0:0|0:0,0:0:0:0:
16,192,84568,2,0,P|48:304|224:320,1,312.5,4|8,0:0|0:0,0:0:0:0:
496,192,85131,2,0,P|496:112|448:48,1,156.25,4|8,0:0|0:0,0:0:0:0:
176,192,85506,5,2,0:0:0:0:
336,192,85693,1,2,0:0:0:0:
176,192,85881,2,0,L|96:192,1,78.125,2|0,0:0|0:0,0:0:0:0:
256,192,86068,2,0,L|256:352,1,156.25,6|0,0:0|0:0,0:0:0:0:
96,192,86349,2,0,L|96:352,1,156.25,2|0,0:0|0:0,0:0:0:0:
256,192,86631,1,6,0:0:0:0:
96,192,86818,1,8,0:0:0:0:
496,192,87006,6,0,P|464:80|288:64,1,312.5,4|8,0:0|0:0,0:0:0:0:
16,192,87568,2,0,P|48:80|224:64,1,312.5,4|8,0:0|0:0,0:0:0:0:
496,192,88131,2,0,P|496:272|448:336,1,156.25,4|8,0:0|0:0,0:0:0:0:
256,192,88506,6,0,L|128:192,1,125,2|0,0:0|0:0,0:0:0:0:
304,248,88881,2,0,P|320:232|304:136,1,125,2|14,0:0|0:0,0:0:0:0:
232,128,89162,1,0,0:0:0:0:
158,271,89256,2,0,P|96:240|128:144,1,187.5,0|0,0:0|0:0,0:0:0:0:
448,320,89631,2,0,L|64:320,1,375,6|0,0:0|0:0,0:0:0:0:
368,192,90006,6,0,L|400:160,1,39.0625,12|0,0:0|0:0,0:0:0:0:
144,144,90193,2,0,L|112:112,1,39.0625,8|0,0:0|0:0,0:0:0:0:
368,128,90381,2,0,L|395:100,1,39.0625,8|0,0:0|0:0,0:0:0:0:
112,192,90568,2,0,P|32:224|144:336,1,312.5,6|8,0:0|0:0,0:0:0:0:
336,192,91131,1,4,0:0:0:0:
176,192,91318,1,8,0:0:0:0:
448,192,91506,6,0,P|416:256|336:256,1,156.25,2|0,0:0|0:0,0:0:0:0:
176,192,91881,1,2,0:0:0:0:
448,192,92068,2,0,P|480:224|336:336,1,312.5,4|8,0:0|0:0,0:0:0:0:
64,192,92631,2,0,P|80:96|128:64,1,156.25,4|8,0:0|0:0,0:0:0:0:
448,192,93006,5,2,0:0:0:0:
288,192,93193,1,2,0:0:0:0:
448,192,93381,1,2,0:0:0:0:
128,288,93568,2,0,P|48:144|144:80,1,312.5,4|8,0:0|0:0,0:0:0:0:
416,128,94131,2,0,P|448:192|416:272,1,156.25,4|8,0:0|0:0,0:0:0:0:
320,336,94412,1,0,0:0:0:0:
144,192,94506,5,12,0:0:0:0:
480,192,94693,1,2,0:0:0:0:
144,192,94881,1,12,0:0:0:0:
304,192,95068,1,6,0:0:0:0:
48,192,95256,5,4,0:0:0:0:
176,192,95443,1,2,0:0:0:0:
48,192,95631,2,0,L|80:144,1,46.8750017881394,2|0,0:0|0:0,0:0:0:0:
304,192,95818,2,0,L|336:144,1,46.8750017881394,2|0,0:0|0:0,0:0:0:0:
16,192,96006,6,0,P|48:80|224:64,1,312.5,4|8,0:0|0:0,0:0:0:0:
496,192,96568,2,0,P|464:80|288:64,1,312.5,4|8,0:0|0:0,0:0:0:0:
16,192,97131,2,0,P|16:272|64:336,1,156.25,4|8,0:0|0:0,0:0:0:0:
336,192,97506,5,2,0:0:0:0:
176,192,97693,1,2,0:0:0:0:
336,192,97881,2,0,L|416:192,1,78.125,2|0,0:0|0:0,0:0:0:0:
256,192,98068,2,0,L|256:32,1,156.25,6|0,0:0|0:0,0:0:0:0:
416,192,98349,2,0,L|416:32,1,156.25,2|0,0:0|0:0,0:0:0:0:
256,192,98631,1,6,0:0:0:0:
416,192,98818,1,8,0:0:0:0:
16,192,99006,6,0,P|48:304|224:320,1,312.5,4|8,0:0|0:0,0:0:0:0:
496,192,99568,2,0,P|464:304|288:320,1,312.5,4|8,0:0|0:0,0:0:0:0:
16,192,100131,2,0,P|16:112|64:48,1,156.25,4|8,0:0|0:0,0:0:0:0:
336,48,100506,6,0,L|496:48,1,156.25,2|0,0:0|0:0,0:0:0:0:
208,192,100881,1,2,0:0:0:0:
492,48,101068,1,14,0:0:0:0:
489,86,101115,1,0,3:0:0:0:
482,125,101162,1,0,3:0:0:0:
470,161,101209,1,0,3:0:0:0:
453,197,101256,1,0,3:0:0:0:
430,229,101302,1,0,3:0:0:0:
404,257,101349,1,0,3:0:0:0:
375,282,101396,1,0,3:0:0:0:
224,192,101443,2,0,L|144:192,1,78.125,10|0,0:0|0:0,0:0:0:0:
448,192,101631,2,0,P|432:64|336:48,1,234.375,6|0,0:0|0:0,0:0:0:0:
112,192,102006,6,0,L|80:224,1,39.0625,12|0,0:0|0:0,0:0:0:0:
336,240,102193,2,0,L|368:272,1,39.0625,8|0,0:0|0:0,0:0:0:0:
117,284,102381,2,0,L|144:256,1,39.0625,8|0,0:0|0:0,0:0:0:0:
400,192,102568,2,0,P|480:160|368:48,1,312.5,6|8,0:0|0:0,0:0:0:0:
176,192,103131,1,4,0:0:0:0:
336,192,103318,1,8,0:0:0:0:
64,192,103506,6,0,P|96:128|176:128,1,156.25,2|0,0:0|0:0,0:0:0:0:
336,192,103881,1,2,0:0:0:0:
64,192,104068,2,0,P|32:160|176:48,1,312.5,4|8,0:0|0:0,0:0:0:0:
448,192,104631,2,0,P|432:288|384:320,1,156.25,4|8,0:0|0:0,0:0:0:0:
64,192,105006,5,2,0:0:0:0:
224,192,105193,1,2,0:0:0:0:
64,192,105381,1,2,0:0:0:0:
384,96,105568,2,0,P|464:240|368:304,1,312.5,4|8,0:0|0:0,0:0:0:0:
96,256,106131,2,0,P|64:192|96:112,1,156.25,4|8,0:0|0:0,0:0:0:0:
176,48,106412,1,0,0:0:0:0:
368,192,106506,5,12,0:0:0:0:
32,192,106693,1,2,0:0:0:0:
368,192,106881,1,12,0:0:0:0:
208,192,107068,1,6,0:0:0:0:
464,192,107256,5,4,0:0:0:0:
339,192,107443,1,8,0:0:0:0:
32,192,107631,2,0,L|192:192,1,156.25,12|0,0:0|0:0,0:0:0:0:
339,192,107818,2,0,L|496:192,1,156.25,8|0,0:0|0:0,0:0:0:0:
176,112,108006,6,0,P|120:184|176:192,1,187.500007152558,6|8,0:0|0:0,0:0:0:0:
384,192,108568,2,0,L|432:192,1,46.8750017881394
304,192,108756,2,0,L|208:192,1,93.7500035762788,2|0,0:0|0:0,0:0:0:0:
384,96,109131,2,0,L|288:96,1,93.7500035762788,8|0,0:0|0:0,0:0:0:0:
128,96,109506,6,0,L|224:96,1,93.7500035762788,2|0,0:0|0:0,0:0:0:0:
48,192,109881,1,8,0:0:0:0:
224,192,110068,1,8,0:0:0:0:
128,192,110256,2,0,P|144:288|224:304,1,187.500007152558,2|8,0:0|0:0,0:0:0:0:
400,304,110818,2,0,L|448:304,1,46.8750017881394
352,304,111006,6,0,P|304:304|256:192,1,187.500007152558,2|8,0:0|0:0,0:0:0:0:
416,192,111568,1,0,0:0:0:0:
144,192,111756,2,0,L|48:192,1,93.7500035762788,2|0,0:0|0:0,0:0:0:0:
210,112,112131,2,0,L|304:112,1,93.7500035762788,8|0,0:0|0:0,0:0:0:0:
462,192,112506,6,0,P|478:288|414:336,1,187.500007152558,2|8,0:0|0:0,0:0:0:0:
256,336,113068,1,0,0:0:0:0:
464,192,113256,2,0,B|448:96|448:96|416:64,1,140.625005364418,2|0,0:0|0:0,0:0:0:0:
302,318,113631,2,0,B|272:288|272:288|256:192,1,140.625005364418,8|0,0:0|0:0,0:0:0:0:
464,192,114006,6,0,B|448:288|448:288|416:320,1,140.625005364418,6|0,0:0|0:0,0:0:0:0:
256,192,114381,2,0,L|160:192,1,93.7500035762788,8|0,0:0|0:0,0:0:0:0:
192,144,114662,1,0,0:0:0:0:
304,144,114756,2,0,L|400:144,1,93.7500035762788,2|0,0:0|0:0,0:0:0:0:
368,96,115037,1,0,0:0:0:0:
208,144,115131,2,0,L|112:144,1,93.7500035762788,8|0,0:0|0:0,0:0:0:0:
144,96,115412,1,0,0:0:0:0:
256,96,115506,6,0,P|336:128|336:224,1,187.500007152558,2|8,0:0|0:0,0:0:0:0:
48,192,116068,1,0,0:0:0:0:
192,272,116256,2,0,P|208:192|144:112,1,187.500007152558,2|8,0:0|0:0,0:0:0:0:
320,112,116818,2,0,L|368:112,1,46.8750017881394,0|0,0:0|0:0,0:0:0:0:
144,192,117006,5,6,0:0:0:0:
368,192,117381,2,0,L|464:192,1,93.7500035762788,2|0,0:0|0:0,0:0:0:0:
288,128,117756,2,0,L|384:128,1,93.7500035762788,2|0,0:0|0:0,0:0:0:0:
336,80,118037,1,0,0:0:0:0:
224,128,118131,2,0,L|128:128,1,93.7500035762788,8|0,0:0|0:0,0:0:0:0:
176,80,118412,1,0,0:0:0:0:
416,80,118506,6,0,P|448:96|416:224,1,187.500007152558,4|8,0:0|0:0,0:0:0:0:
352,240,118787,1,0,0:0:0:0:
128,192,118881,2,0,L|32:192,1,93.7500035762788,4|0,0:0|0:0,0:0:0:0:
384,192,119068,2,0,L|480:192,1,93.7500035762788,8|0,0:0|0:0,0:0:0:0:
96,144,119256,1,14,0:0:0:0:
