osu file format v14

[General]
AudioFilename: audio.mp3
AudioLeadIn: 0
PreviewTime: 37318
Countdown: 0
SampleSet: Normal
StackLeniency: 0.7
Mode: 2
LetterboxInBreaks: 0
WidescreenStoryboard: 0

[Editor]
Bookmarks: 15006,25506,72006,119256
DistanceSpacing: 1.9
BeatDivisor: 2
GridSize: 8
TimelineZoom: 1

[Metadata]
Title:A Bella! (feat. Lucy)
TitleUnicode:A Bella! (feat. Lucy)
Artist:M2U
ArtistUnicode:M2U
Creator:ZiRoX
Version:Cup
Source:하이파이브
Tags:PNIX Games HIGH5 Drugstep drug step square musiq original soundtrack JBHyperion Deif Chromoxx
BeatmapID:1147347
BeatmapSetID:541101

[Difficulty]
HPDrainRate:4
CircleSize:2.5
OverallDifficulty:6
ApproachRate:6
SliderMultiplier:1.3
SliderTickRate:1

[Events]
//Background and Video events
0,0,"bg.png",0,0
//Break Periods
//Storyboard Layer 0 (Background)
//Storyboard Layer 1 (Fail)
//Storyboard Layer 2 (Pass)
//Storyboard Layer 3 (Foreground)
//Storyboard Sound Samples

[TimingPoints]
3006,375,4,1,1,40,1,0
15006,-133.333333333333,4,1,1,30,0,0
24568,-133.333333333333,4,1,1,40,0,0
25131,-133.333333333333,4,1,1,30,0,0
25506,-133.333333333333,4,1,1,40,0,0
37506,-100,4,1,2,50,0,1
48756,-100,4,3,0,40,0,0
49506,-100,4,1,2,50,0,1
54568,-100,4,1,2,60,0,1
55131,-100,4,1,2,50,0,1
60756,-100,4,3,0,40,0,1
61131,-100,4,1,2,50,0,1
61506,-166.666666666667,4,2,0,45,0,0
65443,-166.666666666667,4,3,0,30,0,0
66006,-90.9090909090909,4,3,0,30,0,0
66568,-166.666666666667,4,1,1,40,0,0
67506,-133.333333333333,4,1,1,40,0,0
72006,-133.333333333333,4,1,1,40,0,0
82131,-133.333333333333,4,1,1,50,0,0
82506,-133.333333333333,4,1,1,60,0,0
83068,-133.333333333333,4,1,1,50,0,0
84006,-100,4,1,2,50,0,1
88506,-100,4,1,2,40,0,0
89631,-100,4,1,2,60,0,0
90006,-100,4,1,2,50,0,1
95256,-100,4,3,0,40,0,0
96006,-100,4,1,2,50,0,1
101068,-100,4,1,2,40,0,1
101631,-100,4,1,2,50,0,1
107256,-100,4,3,0,40,0,1
107631,-100,4,1,2,50,0,1
108006,-133.333333333333,4,2,0,40,0,0
118506,-133.333333333333,4,1,1,50,0,0

[Colours]
Combo1 : 220,213,114
Combo2 : 149,76,79
Combo3 : 242,104,129
Combo4 : 106,96,154

[HitObjects]
168,288,3006,6,0,P|92:248|100:144,1,195,4|8,0:0|0:0,0:0:0:0:
232,128,4131,1,2,0:0:0:0:
368,128,4506,6,0,P|386:243|304:270,1,195,4|8,0:0|0:0,0:0:0:0:
192,272,5631,1,2,0:0:0:0:
320,272,6006,6,0,P|400:224|424:112,2,195,4|8|2,0:0|0:0|0:0,0:0:0:0:
208,272,7506,5,4,0:0:0:0:
104,248,7881,2,0,L|64:168,1,65,2|8,0:0|0:0,0:0:0:0:
176,176,8443,2,0,L|216:96,1,65,8|2,0:0|0:0,0:0:0:0:
328,120,9006,6,0,P|384:160|416:280,2,195,4|8|2,0:0|0:0|0:0,0:0:0:0:
184,112,10506,6,0,P|160:200|256:264,1,195,4|8,0:0|0:0,0:0:0:0:
360,296,11631,1,2,0:0:0:0:
232,280,12006,6,0,P|156:240|164:136,1,195,4|8,0:0|0:0,0:0:0:0:
288,120,13131,1,2,0:0:0:0:
416,120,13506,6,0,P|480:176|480:240,1,130,4|2,0:0|0:0,0:0:0:0:
456,272,14068,1,2,0:0:0:0:
416,288,14256,1,2,0:0:0:0:
304,304,14631,1,2,0:0:0:0:
192,304,15006,6,0,P|144:256|144:176,1,146.250005578995,4|2,0:0|0:0,0:0:0:0:
280,144,15943,2,0,L|304:88,1,48.750001859665,8|2,0:0|0:0,0:0:0:0:
184,80,16506,5,4,0:0:0:0:
51,140,17068,1,2,0:0:0:0:
144,232,17443,2,0,L|163:276,1,48.750001859665,8|2,0:0|0:0,0:0:0:0:
288,272,18006,6,0,L|432:216,1,146.250005578995,4|2,0:0|0:0,0:0:0:0:
320,120,18943,2,0,L|296:64,1,48.750001859665,8|2,0:0|0:0,0:0:0:0:
192,80,19506,6,0,L|72:112,1,97.50000371933,4|2,0:0|0:0,0:0:0:0:
56,176,20068,2,0,L|150:150,1,97.50000371933,8|0,0:0|0:0,0:0:0:0:
192,136,20631,1,2,0:0:0:0:
344,152,21006,6,0,P|392:200|384:288,1,146.250005578995,4|2,0:0|0:0,0:0:0:0:
264,272,21943,2,0,L|240:216,1,48.750001859665,8|2,0:0|0:0,0:0:0:0:
376,208,22506,5,4,0:0:0:0:
504,136,23068,1,2,0:0:0:0:
384,56,23443,2,0,L|364:100,1,48.750001859665,8|2,0:0|0:0,0:0:0:0:
240,56,24006,6,0,L|216:112,1,48.750001859665,4|4,0:0|0:0,0:0:0:0:
344,104,24568,2,0,L|464:104,1,97.50000371933,6|0,0:0|0:0,0:0:0:0:
488,104,25131,1,4,1:1:0:0:
336,96,25506,6,0,P|240:104|208:160,2,146.250005578995,4|0|2,0:0|0:0|0:0,0:0:0:0:
464,104,27006,6,0,L|488:232,1,97.50000371933,4|2,0:0|0:0,0:0:0:0:
424,200,27568,2,0,L|304:200,1,97.50000371933,8|8,0:0|0:0,0:0:0:0:
272,200,28131,1,2,0:0:0:0:
160,200,28506,6,0,L|111:200,1,48.750001859665,4|2,0:0|0:0,0:0:0:0:
224,128,29068,2,0,L|376:128,1,146.250005578995,8|2,0:0|0:0,0:0:0:0:
224,176,30006,6,0,L|160:176,2,48.750001859665,8|8|8,0:0|0:0|0:0,0:0:0:0:
288,176,30568,2,0,L|400:176,1,97.50000371933,2|0,0:0|0:0,0:0:0:0:
320,176,31131,1,4,0:0:0:0:
176,96,31506,6,0,P|272:104|304:160,2,146.250005578995,4|0|2,0:0|0:0|0:0,0:0:0:0:
48,104,33006,6,0,L|24:232,1,97.50000371933,2|2,0:0|0:0,0:0:0:0:
88,200,33568,2,0,L|208:200,1,97.50000371933,8|8,0:0|0:0,0:0:0:0:
240,200,34131,1,2,0:0:0:0:
352,200,34506,6,0,L|400:200,1,48.750001859665,4|8,0:0|0:0,0:0:0:0:
288,128,35068,2,0,L|136:128,1,146.250005578995,8|2,0:0|0:0,0:0:0:0:
288,176,36006,6,0,L|352:176,2,48.750001859665,4|10|4,0:0|3:1|3:1,0:0:0:0:
224,176,36568,1,10,0:0:0:0:
104,176,36943,1,4,0:1:0:0:
368,176,37506,6,0,L|224:176,1,130,4|8,0:0|0:0,0:0:0:0:
176,176,38068,2,0,L|176:312,1,130,4|8,0:0|0:0,0:0:0:0:
240,304,38631,1,4,0:0:0:0:
376,304,39006,6,0,L|432:272,2,65,2|2|2,0:0|0:0|0:0,0:0:0:0:
312,312,39568,2,0,L|176:312,1,130,6|0,0:0|0:0,0:0:0:0:
120,312,40131,1,6,0:0:0:0:
248,312,40506,6,0,L|376:288,1,130,4|8,0:0|0:0,0:0:0:0:
424,224,41068,2,0,L|288:248,1,130,4|8,0:0|0:0,0:0:0:0:
248,256,41631,1,4,0:0:0:0:
112,264,42006,6,0,L|40:264,2,65,2|0|2,0:0|0:0|0:0,0:0:0:0:
176,264,42568,2,0,L|312:264,1,130,0|0,0:0|0:0,0:0:0:0:
368,264,43131,1,6,0:0:0:0:
232,240,43506,6,0,L|96:240,1,130,12|8,0:0|0:0,0:0:0:0:
40,240,44068,1,6,0:0:0:0:
144,240,44443,2,0,L|208:240,1,65,8|4,0:0|0:0,0:0:0:0:
352,240,45006,5,2,0:0:0:0:
480,128,45381,2,0,L|416:128,1,65,2|4,0:0|0:0,0:0:0:0:
280,128,45943,2,0,L|216:128,1,65,8|4,0:0|0:0,0:0:0:0:
320,240,46506,6,0,L|463:240,1,130,2|2,0:0|0:0,0:0:0:0:
512,240,47068,1,4,0:0:0:0:
384,240,47443,2,0,L|320:240,1,65,8|4,0:0|0:0,0:0:0:0:
192,240,48006,6,0,L|104:240,2,65,12|2|12,0:0|0:0|0:0,0:0:0:0:
312,240,48756,2,0,L|312:96,1,130,4|2,0:0|0:0,0:0:0:0:
128,176,49506,6,0,L|280:176,1,130,4|8,0:0|0:0,0:0:0:0:
320,176,50068,1,4,0:0:0:0:
440,176,50443,2,0,L|496:144,1,65,8|4,0:0|0:0,0:0:0:0:
352,176,51006,6,0,L|296:144,2,65,2|2|2,0:0|0:0|0:0,0:0:0:0:
400,224,51568,2,0,L|264:224,1,130,6|0,0:0|0:0,0:0:0:0:
208,224,52131,1,6,0:0:0:0:
384,176,52506,6,0,L|232:176,1,130,4|8,0:0|0:0,0:0:0:0:
192,176,53068,1,4,0:0:0:0:
72,176,53443,2,0,L|16:144,1,65,8|4,0:0|0:0,0:0:0:0:
160,176,54006,6,0,L|216:144,2,65,2|0|2,0:0|0:0|0:0,0:0:0:0:
120,224,54568,2,0,L|256:224,1,130,14|8,0:0|0:0,0:0:0:0:
320,224,55131,1,6,0:0:0:0:
472,224,55506,5,12,0:0:0:0:
339,224,55881,2,0,L|304:160,1,65,8|6,0:0|0:0,0:0:0:0:
440,224,56443,2,0,L|475:160,1,65,8|4,0:0|0:0,0:0:0:0:
320,224,57006,5,2,0:0:0:0:
192,224,57381,2,0,L|157:160,1,65,2|4,0:0|0:0,0:0:0:0:
293,224,57943,2,0,L|328:160,1,65,8|4,0:0|0:0,0:0:0:0:
192,224,58506,6,0,L|49:224,1,130,2|2,0:0|0:0,0:0:0:0:
8,224,59068,1,4,0:0:0:0:
136,224,59443,2,0,L|200:224,1,65,8|4,0:0|0:0,0:0:0:0:
320,240,60006,6,0,L|408:240,2,65,12|2|12,0:0|0:0|0:0,0:0:0:0:
200,240,60756,2,0,L|200:96,1,130,4|12,0:0|0:0,0:0:0:0:
360,112,61506,6,0,L|224:112,1,116.999996429443,2|2,0:0|0:0,0:0:0:0:
104,112,62631,1,2,0:0:0:0:
192,112,63006,6,0,L|328:112,1,116.999996429443,2|2,0:0|0:0,0:0:0:0:
408,112,63943,2,2,L|480:112,1,38.9999988098145
360,112,64506,6,0,L|216:112,1,116.999996429443,2|2,0:0|0:0,0:0:0:0:
152,112,65443,2,0,L|112:112,2,38.9999988098145,4|4|4,0:0|0:0|0:0,0:0:0:0:
216,112,66006,6,0,P|296:152|208:192,1,214.500006546021,4|4,0:0|0:0,0:0:0:0:
104,192,66943,2,0,L|80:232,1,38.9999988098145,8|4,0:0|0:0,0:0:0:0:
240,184,67506,6,0,L|432:184,1,146.250005578995,4|2,0:0|0:0,0:0:0:0:
288,264,68443,2,0,L|248:224,1,48.750001859665,0|2,0:0|0:0,0:0:0:0:
418,264,69006,6,0,L|226:264,1,146.250005578995,4|2,0:0|0:0,0:0:0:0:
176,264,69943,2,0,L|136:224,1,48.750001859665,8|2,0:0|0:0,0:0:0:0:
264,264,70506,6,0,L|312:264,1,48.750001859665,4|8,0:0|0:0,0:0:0:0:
432,264,71068,2,0,L|376:264,1,48.750001859665,8|6,0:0|0:0,0:0:0:0:
272,264,71631,1,6,0:0:0:0:
168,264,72006,6,0,L|16:264,2,146.250005578995,4|0|2,0:0|0:0|0:0,0:0:0:0:
48,264,73506,6,0,P|56:328|96:344,1,97.50000371933,4|2,0:0|0:0,0:0:0:0:
136,344,74068,2,0,L|233:312,1,97.50000371933,8|8,0:0|0:0,0:0:0:0:
288,296,74631,1,2,0:0:0:0:
400,176,75006,6,0,L|336:176,1,48.750001859665,4|2,0:0|0:0,0:0:0:0:
240,176,75568,2,0,L|392:176,1,146.250005578995,8|2,0:0|0:0,0:0:0:0:
272,176,76506,6,0,L|208:176,2,48.750001859665,8|8|8,0:0|0:0|0:0,0:0:0:0:
328,176,77068,2,0,L|440:176,1,97.50000371933,2|0,0:0|0:0,0:0:0:0:
480,176,77631,1,4,0:0:0:0:
336,80,78006,6,0,L|190:80,2,146.250005578995,4|0|2,0:0|0:0|0:0,0:0:0:0:
464,256,79506,6,0,P|456:320|416:336,1,97.50000371933,2|2,0:0|0:0,0:0:0:0:
376,336,80068,2,0,L|279:304,1,97.50000371933,8|8,0:0|0:0,0:0:0:0:
224,288,80631,1,2,0:0:0:0:
96,176,81006,6,0,L|144:176,1,48.750001859665,4|8,0:0|0:0,0:0:0:0:
256,176,81568,2,0,L|368:176,1,97.50000371933,8|8,0:0|0:0,0:0:0:0:
416,176,82131,1,10,0:0:0:0:
304,176,82506,6,0,L|240:176,2,48.750001859665,4|10|4,0:0|3:1|3:1,0:0:0:0:
360,176,83068,2,0,L|432:96,1,97.50000371933,10|4,0:0|1:1,0:0:0:0:
176,176,84006,6,0,L|320:176,1,130,4|8,0:0|0:0,0:0:0:0:
368,176,84568,2,0,L|368:312,1,130,4|8,0:0|0:0,0:0:0:0:
304,304,85131,1,4,0:0:0:0:
160,304,85506,6,0,L|104:272,2,65,2|2|2,0:0|0:0|0:0,0:0:0:0:
224,312,86068,2,0,L|360:312,1,130,6|0,0:0|0:0,0:0:0:0:
416,312,86631,1,6,0:0:0:0:
264,312,87006,6,0,L|128:312,1,130,4|8,0:0|0:0,0:0:0:0:
72,256,87568,2,0,L|208:256,1,130,4|8,0:0|0:0,0:0:0:0:
264,256,88131,1,4,0:0:0:0:
408,256,88506,6,0,P|440:224|392:152,1,130,2|2,0:0|0:0,0:0:0:0:
344,152,89068,2,0,L|280:152,1,65,14|0,0:0|0:0,0:0:0:0:
144,264,89631,1,6,0:0:0:0:
280,240,90006,6,0,L|416:240,1,130,12|8,0:0|0:0,0:0:0:0:
472,240,90568,1,6,0:0:0:0:
352,240,90943,2,0,L|288:240,1,65,8|4,0:0|0:0,0:0:0:0:
160,240,91506,5,2,0:0:0:0:
32,128,91881,2,0,L|96:128,1,65,2|4,0:0|0:0,0:0:0:0:
232,128,92443,2,0,L|296:128,1,65,8|4,0:0|0:0,0:0:0:0:
192,240,93006,6,0,L|49:240,1,130,2|2,0:0|0:0,0:0:0:0:
0,240,93568,1,4,0:0:0:0:
128,240,93943,2,0,L|192:240,1,65,8|4,0:0|0:0,0:0:0:0:
320,240,94506,6,0,L|408:240,2,65,12|2|12,0:0|0:0|0:0,0:0:0:0:
200,240,95256,2,0,L|200:96,1,130,4|2,0:0|0:0,0:0:0:0:
384,176,96006,6,0,L|232:176,1,130,4|8,0:0|0:0,0:0:0:0:
192,176,96568,1,4,0:0:0:0:
72,176,96943,2,0,L|16:144,1,65,8|4,0:0|0:0,0:0:0:0:
160,176,97506,6,0,L|216:144,2,65,2|2|2,0:0|0:0|0:0,0:0:0:0:
112,224,98068,2,0,L|248:224,1,130,6|0,0:0|0:0,0:0:0:0:
304,224,98631,1,6,0:0:0:0:
128,176,99006,6,0,L|280:176,1,130,4|8,0:0|0:0,0:0:0:0:
320,176,99568,1,4,0:0:0:0:
440,176,99943,2,0,L|496:144,1,65,8|4,0:0|0:0,0:0:0:0:
352,176,100506,6,0,L|296:144,2,65,2|0|2,0:0|0:0|0:0,0:0:0:0:
392,224,101068,2,0,L|256:224,1,130,14|10,0:0|0:0,0:0:0:0:
192,224,101631,1,6,0:0:0:0:
56,224,102006,5,12,0:0:0:0:
189,224,102381,2,0,L|224:160,1,65,8|6,0:0|0:0,0:0:0:0:
88,224,102943,2,0,L|53:160,1,65,8|4,0:0|0:0,0:0:0:0:
192,224,103506,5,2,0:0:0:0:
320,224,103881,2,0,L|355:160,1,65,2|4,0:0|0:0,0:0:0:0:
219,224,104443,2,0,L|184:160,1,65,8|4,0:0|0:0,0:0:0:0:
320,224,105006,6,0,L|463:224,1,130,2|2,0:0|0:0,0:0:0:0:
504,224,105568,1,4,0:0:0:0:
376,224,105943,2,0,L|312:224,1,65,8|4,0:0|0:0,0:0:0:0:
192,240,106506,6,0,L|104:240,2,65,12|2|12,0:0|0:0|0:0,0:0:0:0:
312,240,107256,2,0,L|312:96,1,130,4|12,0:0|0:0,0:0:0:0:
144,112,108006,6,0,L|264:112,1,97.50000371933,6|8,0:0|0:0,0:0:0:0:
376,112,108756,2,0,L|248:112,1,97.50000371933,2|8,0:0|0:0,0:0:0:0:
432,192,109506,6,0,L|312:192,1,97.50000371933,2|8,0:0|0:0,0:0:0:0:
232,288,110256,2,0,L|336:288,1,97.50000371933,2|8,0:0|0:0,0:0:0:0:
216,272,111006,6,0,L|96:272,1,97.50000371933,2|8,0:0|0:0,0:0:0:0:
184,216,111568,1,0,0:0:0:0:
248,160,111756,2,0,L|128:160,1,97.50000371933,2|8,0:0|0:0,0:0:0:0:
320,152,112506,6,0,L|360:264,1,97.50000371933,2|8,0:0|0:0,0:0:0:0:
288,248,113068,1,0,0:0:0:0:
224,248,113256,2,0,L|264:352,1,97.50000371933,2|8,0:0|0:0,0:0:0:0:
112,336,114006,6,0,L|-8:336,1,97.50000371933,6|8,0:0|0:0,0:0:0:0:
152,232,114756,2,0,L|48:232,1,97.50000371933,2|8,0:0|0:0,0:0:0:0:
224,224,115506,6,0,L|344:224,1,97.50000371933,2|8,0:0|0:0,0:0:0:0:
456,120,116256,2,0,L|358:120,1,97.50000371933,2|8,0:0|0:0,0:0:0:0:
192,120,117006,6,0,L|144:240,1,97.50000371933,6|2,0:0|0:0,0:0:0:0:
208,216,117568,1,0,0:0:0:0:
272,216,117756,2,0,L|272:336,1,97.50000371933,2|8,0:0|0:0,0:0:0:0:
96,304,118506,6,0,L|216:304,1,97.50000371933,4|4,0:0|0:0,0:0:0:0:
392,304,119256,1,14,0:0:0:0:
