osu file format v14

[General]
AudioFilename: audio.mp3
AudioLeadIn: 0
PreviewTime: 37318
Countdown: 0
SampleSet: Normal
StackLeniency: 0.7
Mode: 1
LetterboxInBreaks: 0
WidescreenStoryboard: 0

[Editor]
Bookmarks: 15006,25506,72006,119256
DistanceSpacing: 1.9
BeatDivisor: 4
GridSize: 16
TimelineZoom: 1.9

[Metadata]
Title:A Bella! (feat. Lucy)
TitleUnicode:A Bella! (feat. Lucy)
Artist:M2U
ArtistUnicode:M2U
Creator:ZiRoX
Version:Chromoxx' Muzukashii
Source:하이파이브
Tags:PNIX Games HIGH5 Drugstep drug step square musiq original soundtrack JBHyperion Deif Chromoxx
BeatmapID:1184543
BeatmapSetID:541101

[Difficulty]
HPDrainRate:6
CircleSize:4.2
OverallDifficulty:5
ApproachRate:9.1
SliderMultiplier:1.4
SliderTickRate:1

[Events]
//Background and Video events
0,0,"bg.png",0,-100
//Break Periods
//Storyboard Layer 0 (Background)
//Storyboard Layer 1 (Fail)
//Storyboard Layer 2 (Pass)
//Storyboard Layer 3 (Foreground)
//Storyboard Sound Samples

[TimingPoints]
3006,375,4,1,0,90,1,0
37506,-100,4,1,0,90,0,1
48756,-100,4,1,0,90,0,0
49506,-100,4,1,0,90,0,1
54006,-100,4,1,0,90,0,0
55506,-100,4,1,0,90,0,1
61506,-100,4,1,0,90,0,0
84006,-100,4,1,0,90,0,1
88506,-100,4,1,0,90,0,0
90006,-100,4,1,0,90,0,1
95256,-100,4,1,0,90,0,0
96006,-100,4,1,0,90,0,1
100506,-100,4,1,0,90,0,0
102006,-100,4,1,0,90,0,1
108006,-100,4,1,0,90,0,0

[HitObjects]
220,146,3006,5,4,0:0:0:0:
124,52,3381,1,8,0:0:0:0:
213,169,3568,1,4,0:0:0:0:
161,189,4131,1,8,0:0:0:0:
213,169,4506,1,4,0:0:0:0:
177,216,4693,1,0,0:0:0:0:
213,169,5068,1,4,0:0:0:0:
156,177,5631,1,8,0:0:0:0:
213,169,6006,1,4,0:0:0:0:
174,210,6381,1,8,0:0:0:0:
212,163,6568,1,4,0:0:0:0:
155,176,7131,1,8,0:0:0:0:
155,176,7506,1,0,0:0:0:0:
177,237,7693,1,8,0:0:0:0:
177,237,7881,1,0,0:0:0:0:
171,226,7974,1,0,0:0:0:0:
169,221,8068,1,0,0:0:0:0:
166,224,8631,1,8,0:0:0:0:
196,144,9006,1,4,0:0:0:0:
217,252,9381,1,8,0:0:0:0:
196,144,9568,1,4,0:0:0:0:
178,228,10131,1,8,0:0:0:0:
196,144,10506,1,4,0:0:0:0:
217,251,10693,1,0,0:0:0:0:
196,144,11068,1,4,0:0:0:0:
177,226,11631,1,8,0:0:0:0:
196,144,12006,1,4,0:0:0:0:
196,144,12193,1,4,0:0:0:0:
196,144,12568,1,4,0:0:0:0:
177,226,13131,1,8,0:0:0:0:
175,219,13318,1,0,0:0:0:0:
175,210,13412,1,0,0:0:0:0:
175,218,13506,1,0,0:0:0:0:
175,210,13881,1,8,0:0:0:0:
174,210,14068,1,0,0:0:0:0:
174,210,14256,1,0,0:0:0:0:
117,159,15006,1,4,0:0:0:0:
117,159,15568,1,0,0:0:0:0:
249,200,15943,1,0,0:0:0:0:
179,166,16131,1,8,0:0:0:0:
179,166,16318,1,8,0:0:0:0:
179,166,16506,1,0,0:0:0:0:
212,217,16881,1,8,0:0:0:0:
212,217,17068,1,0,0:0:0:0:
207,255,17443,1,0,0:0:0:0:
234,248,17631,1,8,0:0:0:0:
234,247,18006,1,0,0:0:0:0:
234,247,18193,1,0,0:0:0:0:
234,248,18381,1,8,0:0:0:0:
234,248,18568,1,0,0:0:0:0:
187,243,18943,1,0,0:0:0:0:
234,247,19131,1,8,0:0:0:0:
213,225,19506,1,0,0:0:0:0:
213,225,19881,1,8,0:0:0:0:
208,222,20068,1,8,0:0:0:0:
241,178,20256,1,8,0:0:0:0:
241,178,20349,1,8,0:0:0:0:
208,170,20443,1,8,0:0:0:0:
208,170,20631,1,0,0:0:0:0:
225,150,21006,1,4,0:0:0:0:
222,137,21568,1,0,0:0:0:0:
180,181,21943,1,0,0:0:0:0:
222,137,22131,1,8,0:0:0:0:
222,137,22318,1,8,0:0:0:0:
222,137,22506,1,0,0:0:0:0:
212,133,22693,1,0,0:0:0:0:
176,176,23068,1,8,0:0:0:0:
202,146,23443,1,8,0:0:0:0:
207,153,23631,1,8,0:0:0:0:
202,146,24006,1,4,0:0:0:0:
202,146,24381,1,8,0:0:0:0:
197,141,24568,1,4,0:0:0:0:
195,137,24943,1,0,0:0:0:0:
195,137,25131,1,8,0:0:0:0:
239,220,25506,1,0,0:0:0:0:
239,220,25881,1,8,0:0:0:0:
239,220,26256,1,0,0:0:0:0:
239,220,26443,1,0,0:0:0:0:
239,220,26631,1,8,0:0:0:0:
239,220,27006,1,0,0:0:0:0:
239,220,27381,1,8,0:0:0:0:
239,220,27568,1,8,0:0:0:0:
239,220,27756,1,0,0:0:0:0:
239,220,27943,1,0,0:0:0:0:
186,211,28131,1,8,0:0:0:0:
186,211,28506,1,0,0:0:0:0:
186,211,28881,1,8,0:0:0:0:
186,211,29256,1,0,0:0:0:0:
186,211,29443,1,0,0:0:0:0:
186,211,29631,1,8,0:0:0:0:
118,194,30006,1,4,0:0:0:0:
303,208,30381,1,8,0:0:0:0:
272,156,30568,1,4,0:0:0:0:
272,141,30943,1,8,0:0:0:0:
272,141,31131,1,8,0:0:0:0:
272,140,31506,1,4,0:0:0:0:
249,124,31881,1,8,0:0:0:0:
236,58,32256,1,0,0:0:0:0:
236,58,32443,1,0,0:0:0:0:
236,58,32631,1,8,0:0:0:0:
236,58,33006,1,0,0:0:0:0:
236,58,33381,1,8,0:0:0:0:
236,58,33568,1,8,0:0:0:0:
236,58,33756,1,0,0:0:0:0:
236,58,33943,1,0,0:0:0:0:
236,58,34131,1,8,0:0:0:0:
236,58,34506,1,0,0:0:0:0:
236,58,34881,1,8,0:0:0:0:
236,58,35256,1,0,0:0:0:0:
236,58,35443,1,0,0:0:0:0:
236,58,35631,1,8,0:0:0:0:
236,58,36006,1,4,0:0:0:0:
236,58,36381,1,8,0:0:0:0:
236,58,36568,1,4,0:0:0:0:
242,157,36943,1,8,0:0:0:0:
238,149,37506,1,4,0:0:0:0:
217,148,37881,1,8,0:0:0:0:
217,148,38068,1,0,0:0:0:0:
217,147,38256,1,0,0:0:0:0:
215,146,38443,1,8,0:0:0:0:
213,139,38631,1,0,0:0:0:0:
212,136,39006,1,0,0:0:0:0:
212,136,39193,1,0,0:0:0:0:
214,153,39381,1,8,0:0:0:0:
215,146,39474,1,8,0:0:0:0:
213,153,39568,1,8,0:0:0:0:
214,149,39756,1,0,0:0:0:0:
214,148,39943,1,0,0:0:0:0:
161,172,40131,1,8,0:0:0:0:
171,121,40506,1,4,0:0:0:0:
171,113,40881,1,8,0:0:0:0:
171,112,41068,1,8,0:0:0:0:
171,112,41256,1,0,0:0:0:0:
171,112,41443,1,0,0:0:0:0:
171,113,41631,1,8,0:0:0:0:
171,112,42006,1,0,0:0:0:0:
171,112,42193,1,0,0:0:0:0:
149,155,42381,1,8,0:0:0:0:
240,232,42568,1,0,0:0:0:0:
240,232,42662,1,0,0:0:0:0:
235,222,42756,1,0,0:0:0:0:
235,222,42943,1,0,0:0:0:0:
235,222,43131,1,8,0:0:0:0:
228,211,43506,1,4,0:0:0:0:
225,205,43693,1,0,0:0:0:0:
225,205,43881,1,8,0:0:0:0:
150,219,44068,1,0,0:0:0:0:
150,219,44443,1,0,0:0:0:0:
150,219,44631,1,8,0:0:0:0:
150,219,44818,1,8,0:0:0:0:
150,219,45006,1,0,0:0:0:0:
144,197,45193,1,0,0:0:0:0:
144,197,45381,1,8,0:0:0:0:
144,197,45568,1,0,0:0:0:0:
143,196,45943,1,0,0:0:0:0:
132,184,46131,1,8,0:0:0:0:
132,184,46506,1,0,0:0:0:0:
132,184,46693,1,0,0:0:0:0:
133,178,46881,1,8,0:0:0:0:
133,178,47068,1,0,0:0:0:0:
152,284,47443,1,0,0:0:0:0:
152,284,47631,1,8,0:0:0:0:
277,262,48006,1,12,0:0:0:0:
277,262,48193,1,12,0:0:0:0:
277,262,48381,1,12,0:0:0:0:
277,262,48756,1,8,0:0:0:0:
245,217,49506,1,4,0:0:0:0:
226,195,49881,1,0,0:0:0:0:
223,252,50068,1,8,0:0:0:0:
223,252,50256,1,8,0:0:0:0:
220,275,50443,1,0,0:0:0:0:
220,275,50631,1,8,0:0:0:0:
220,275,51006,1,8,0:0:0:0:
220,275,51193,1,8,0:0:0:0:
236,284,51381,1,0,0:0:0:0:
234,280,51474,1,0,0:0:0:0:
235,284,51568,1,0,0:0:0:0:
235,284,51756,1,8,0:0:0:0:
85,184,51943,1,8,0:0:0:0:
85,184,52131,1,0,0:0:0:0:
228,220,52506,1,12,0:0:0:0:
228,220,52881,1,0,0:0:0:0:
228,220,53068,1,0,0:0:0:0:
228,220,53256,1,8,0:0:0:0:
228,220,53443,1,8,0:0:0:0:
228,220,53631,1,0,0:0:0:0:
228,220,54006,1,12,0:0:0:0:
146,170,54381,1,0,0:0:0:0:
228,220,54568,1,12,0:0:0:0:
224,173,55131,1,0,0:0:0:0:
362,301,55506,1,12,0:0:0:0:
315,300,55693,1,8,0:0:0:0:
315,300,55881,1,0,0:0:0:0:
226,282,56068,1,8,0:0:0:0:
147,321,56443,1,8,0:0:0:0:
147,321,56631,1,0,0:0:0:0:
147,321,56818,1,0,0:0:0:0:
142,306,57006,1,8,0:0:0:0:
142,306,57193,1,8,0:0:0:0:
142,306,57381,1,0,0:0:0:0:
142,306,57568,1,8,0:0:0:0:
252,249,57943,1,8,0:0:0:0:
252,249,58131,1,0,0:0:0:0:
252,249,58506,1,8,0:0:0:0:
252,249,58693,1,8,0:0:0:0:
252,249,58881,1,0,0:0:0:0:
252,249,59068,1,8,0:0:0:0:
177,289,59443,1,8,0:0:0:0:
149,243,59631,1,0,0:0:0:0:
181,252,60006,1,12,0:0:0:0:
181,252,60193,1,12,0:0:0:0:
181,252,60381,1,12,0:0:0:0:
325,234,60756,1,14,0:0:0:0:
152,229,61131,1,8,0:0:0:0:
152,229,61506,1,0,0:0:0:0:
183,225,62256,1,0,0:0:0:0:
183,225,62443,1,0,0:0:0:0:
183,225,62631,1,8,0:0:0:0:
183,225,63006,1,0,0:0:0:0:
183,225,63568,1,0,0:0:0:0:
183,225,63943,1,0,0:0:0:0:
183,225,64131,1,0,0:0:0:0:
208,237,64506,1,0,0:0:0:0:
183,210,64881,1,8,0:0:0:0:
182,210,65068,1,0,0:0:0:0:
183,210,65443,1,0,0:0:0:0:
183,210,65631,1,0,0:0:0:0:
182,210,66006,1,4,0:0:0:0:
177,197,66568,1,8,0:0:0:0:
177,197,67131,1,0,0:0:0:0:
183,205,67506,1,4,0:0:0:0:
193,205,67881,1,8,0:0:0:0:
193,205,68068,1,8,0:0:0:0:
193,205,68256,1,0,0:0:0:0:
193,205,68443,1,0,0:0:0:0:
133,194,68631,1,8,0:0:0:0:
133,194,69006,1,0,0:0:0:0:
133,194,69381,1,8,0:0:0:0:
133,194,69568,1,0,0:0:0:0:
133,194,69943,1,0,0:0:0:0:
133,194,70131,1,0,0:0:0:0:
133,194,70506,1,0,0:0:0:0:
234,199,70693,1,8,0:0:0:0:
234,199,70787,1,8,0:0:0:0:
234,199,70881,1,8,0:0:0:0:
234,199,71068,1,0,0:0:0:0:
234,199,71256,1,4,0:0:0:0:
32,184,71631,1,4,0:0:0:0:
239,220,72006,1,0,0:0:0:0:
239,220,72381,1,8,0:0:0:0:
239,220,72756,1,0,0:0:0:0:
239,220,72943,1,0,0:0:0:0:
239,220,73131,1,8,0:0:0:0:
239,220,73506,1,0,0:0:0:0:
239,220,73881,1,8,0:0:0:0:
239,220,74068,1,8,0:0:0:0:
239,220,74256,1,0,0:0:0:0:
239,220,74443,1,0,0:0:0:0:
186,211,74631,1,8,0:0:0:0:
186,211,75006,1,0,0:0:0:0:
186,211,75381,1,8,0:0:0:0:
186,211,75756,1,0,0:0:0:0:
186,211,75943,1,0,0:0:0:0:
186,211,76131,1,8,0:0:0:0:
118,194,76506,1,4,0:0:0:0:
303,208,76881,1,8,0:0:0:0:
272,156,77068,1,4,0:0:0:0:
272,141,77443,1,8,0:0:0:0:
272,141,77631,1,8,0:0:0:0:
272,140,78006,1,4,0:0:0:0:
249,124,78381,1,8,0:0:0:0:
236,58,78756,1,0,0:0:0:0:
236,58,78943,1,0,0:0:0:0:
236,58,79131,1,8,0:0:0:0:
236,58,79506,1,0,0:0:0:0:
236,58,79881,1,8,0:0:0:0:
236,58,80068,1,8,0:0:0:0:
236,58,80256,1,0,0:0:0:0:
236,58,80443,1,0,0:0:0:0:
236,58,80631,1,8,0:0:0:0:
236,58,81006,1,0,0:0:0:0:
236,58,81381,1,8,0:0:0:0:
236,58,81756,1,0,0:0:0:0:
236,58,81943,1,0,0:0:0:0:
236,58,82131,1,8,0:0:0:0:
236,58,82506,1,4,0:0:0:0:
236,58,82881,1,8,0:0:0:0:
236,58,83068,1,4,0:0:0:0:
242,157,83443,1,8,0:0:0:0:
238,149,84006,1,4,0:0:0:0:
217,148,84381,1,8,0:0:0:0:
217,148,84568,1,0,0:0:0:0:
217,147,84756,1,0,0:0:0:0:
215,146,84943,1,8,0:0:0:0:
213,139,85131,1,8,0:0:0:0:
233,118,85318,1,0,0:0:0:0:
212,136,85506,1,0,0:0:0:0:
214,153,85881,1,8,0:0:0:0:
215,146,85974,1,8,0:0:0:0:
213,153,86068,1,8,0:0:0:0:
214,149,86256,1,0,0:0:0:0:
214,148,86443,1,0,0:0:0:0:
161,172,86631,1,8,0:0:0:0:
211,192,86818,1,0,0:0:0:0:
171,121,87006,1,4,0:0:0:0:
171,113,87381,1,8,0:0:0:0:
171,112,87568,1,8,0:0:0:0:
171,112,87756,1,0,0:0:0:0:
171,112,87943,1,0,0:0:0:0:
171,113,88131,1,8,0:0:0:0:
270,197,88318,1,0,0:0:0:0:
270,197,88506,1,0,0:0:0:0:
266,176,88881,1,8,0:0:0:0:
266,176,89068,1,8,0:0:0:0:
266,176,89256,1,0,0:0:0:0:
266,176,89631,1,0,0:0:0:0:
228,211,90006,1,4,0:0:0:0:
225,205,90193,1,0,0:0:0:0:
225,205,90381,1,8,0:0:0:0:
150,219,90568,1,0,0:0:0:0:
150,219,90943,1,0,0:0:0:0:
150,219,91131,1,8,0:0:0:0:
150,219,91318,1,8,0:0:0:0:
150,219,91506,1,0,0:0:0:0:
144,197,91693,1,0,0:0:0:0:
144,197,91881,1,8,0:0:0:0:
144,197,92068,1,0,0:0:0:0:
143,196,92443,1,0,0:0:0:0:
132,184,92631,1,8,0:0:0:0:
193,226,92818,1,0,0:0:0:0:
132,184,93006,1,0,0:0:0:0:
132,184,93193,1,8,0:0:0:0:
133,178,93381,1,8,0:0:0:0:
133,178,93568,1,0,0:0:0:0:
152,284,93943,1,0,0:0:0:0:
152,284,94131,1,8,0:0:0:0:
277,262,94506,1,12,0:0:0:0:
277,262,94693,1,12,0:0:0:0:
277,262,94881,1,12,0:0:0:0:
277,262,95256,1,12,0:0:0:0:
304,204,95443,1,0,0:0:0:0:
304,204,95631,1,0,0:0:0:0:
303,192,95724,1,0,0:0:0:0:
290,210,95818,1,0,0:0:0:0:
245,217,96006,1,4,0:0:0:0:
226,195,96381,1,0,0:0:0:0:
223,252,96568,1,8,0:0:0:0:
223,252,96756,1,8,0:0:0:0:
220,275,96943,1,0,0:0:0:0:
220,275,97131,1,0,0:0:0:0:
317,205,97318,1,8,0:0:0:0:
220,275,97506,1,8,0:0:0:0:
236,284,97881,1,0,0:0:0:0:
234,280,97974,1,0,0:0:0:0:
235,284,98068,1,0,0:0:0:0:
235,284,98256,1,8,0:0:0:0:
85,184,98443,1,8,0:0:0:0:
85,184,98631,1,0,0:0:0:0:
325,269,98818,1,0,0:0:0:0:
228,220,99006,1,12,0:0:0:0:
228,220,99381,1,0,0:0:0:0:
228,220,99568,1,0,0:0:0:0:
228,220,99756,1,8,0:0:0:0:
228,220,99943,1,8,0:0:0:0:
228,220,100131,1,0,0:0:0:0:
254,275,100318,1,8,0:0:0:0:
228,220,100506,1,12,0:0:0:0:
146,170,100881,1,0,0:0:0:0:
228,220,101068,1,12,0:0:0:0:
305,176,101631,1,0,0:0:0:0:
362,301,102006,1,12,0:0:0:0:
315,300,102193,1,8,0:0:0:0:
315,300,102381,1,0,0:0:0:0:
226,282,102568,1,8,0:0:0:0:
147,321,102943,1,8,0:0:0:0:
147,321,103131,1,0,0:0:0:0:
147,321,103318,1,0,0:0:0:0:
142,306,103506,1,8,0:0:0:0:
142,306,103693,1,8,0:0:0:0:
142,306,103881,1,0,0:0:0:0:
142,306,104068,1,8,0:0:0:0:
252,249,104443,1,8,0:0:0:0:
252,249,104631,1,0,0:0:0:0:
311,314,104818,1,8,0:0:0:0:
252,249,105006,1,8,0:0:0:0:
261,281,105193,1,0,0:0:0:0:
252,249,105381,1,0,0:0:0:0:
252,249,105568,1,8,0:0:0:0:
177,289,105943,1,8,0:0:0:0:
149,243,106131,1,0,0:0:0:0:
181,252,106506,1,12,0:0:0:0:
181,252,106693,1,12,0:0:0:0:
181,252,106881,1,12,0:0:0:0:
325,234,107256,1,12,0:0:0:0:
256,64,107631,1,8,0:0:0:0:
152,229,108006,1,0,0:0:0:0:
280,248,108756,1,8,0:0:0:0:
280,248,109131,1,8,0:0:0:0:
280,248,109318,1,8,0:0:0:0:
280,248,109506,1,0,0:0:0:0:
280,248,109881,1,8,0:0:0:0:
280,248,110068,1,0,0:0:0:0:
280,248,110256,1,0,0:0:0:0:
299,230,111006,1,0,0:0:0:0:
299,230,111756,1,0,0:0:0:0:
299,230,112131,1,8,0:0:0:0:
208,193,112318,1,0,0:0:0:0:
299,230,112506,1,0,0:0:0:0:
208,193,112881,1,8,0:0:0:0:
208,193,113068,1,8,0:0:0:0:
208,193,113256,1,0,0:0:0:0:
208,193,113631,1,0,0:0:0:0:
208,193,114006,1,0,0:0:0:0:
208,193,114381,1,8,0:0:0:0:
211,245,114568,1,0,0:0:0:0:
208,193,114756,1,0,0:0:0:0:
208,193,115131,1,0,0:0:0:0:
208,193,115318,1,8,0:0:0:0:
208,193,115506,1,0,0:0:0:0:
208,193,115881,1,8,0:0:0:0:
209,186,116068,1,8,0:0:0:0:
209,186,116256,1,0,0:0:0:0:
211,245,116631,1,8,0:0:0:0:
211,245,117006,1,0,0:0:0:0:
211,245,117756,1,8,0:0:0:0:
211,245,118131,1,8,0:0:0:0:
256,151,118506,1,4,0:0:0:0:
273,148,118881,1,8,0:0:0:0:
273,148,118974,1,8,0:0:0:0:
274,149,119068,1,8,0:0:0:0:
264,146,119256,1,4,0:0:0:0:
