osu file format v14

[General]
AudioFilename: audio.mp3
AudioLeadIn: 0
PreviewTime: 37318
Countdown: 0
SampleSet: Normal
StackLeniency: 0.7
Mode: 1
LetterboxInBreaks: 0
WidescreenStoryboard: 0

[Editor]
Bookmarks: 15006,25506,72006,119256
DistanceSpacing: 1.9
BeatDivisor: 4
GridSize: 16
TimelineZoom: 1.9

[Metadata]
Title:A Bella! (feat. Lucy)
TitleUnicode:A Bella! (feat. Lucy)
Artist:M2U
ArtistUnicode:M2U
Creator:ZiRoX
Version:Chromoxx' Inner Oni
Source:하이파이브
Tags:PNIX Games HIGH5 Drugstep drug step square musiq original soundtrack JBHyperion Deif Chromoxx
BeatmapID:1184542
BeatmapSetID:541101

[Difficulty]
HPDrainRate:6
CircleSize:4.2
OverallDifficulty:7
ApproachRate:9.1
SliderMultiplier:1.4
SliderTickRate:1

[Events]
//Background and Video events
0,0,"bg.png",0,-100
//Break Periods
//Storyboard Layer 0 (Background)
//Storyboard Layer 1 (Fail)
//Storyboard Layer 2 (Pass)
//Storyboard Layer 3 (Foreground)
//Storyboard Sound Samples

[TimingPoints]
3006,375,4,1,0,90,1,0
36568,-66.6666666666667,4,1,0,90,0,0
37506,-100,4,1,0,90,0,1
48756,-100,4,1,0,90,0,0
49506,-100,4,1,0,90,0,1
54006,-100,4,1,0,90,0,0
55506,-100,4,1,0,90,0,1
60943,-66.6666666666667,4,1,0,90,0,1
61506,-100,4,1,0,90,0,0
66006,-111.111111111111,4,1,0,90,0,0
66568,-100,4,1,0,90,0,0
71256,-66.6666666666667,4,1,0,90,0,0
72006,-100,4,1,0,90,0,0
83068,-66.6666666666667,4,1,0,90,0,0
84006,-100,4,1,0,90,0,1
88506,-100,4,1,0,90,0,0
90006,-100,4,1,0,90,0,1
95256,-100,4,1,0,90,0,0
96006,-83.3333333333333,4,1,0,90,0,1
100506,-83.3333333333333,4,1,0,90,0,0
102006,-83.3333333333333,4,1,0,90,0,1
107443,-66.6666666666667,4,1,0,90,0,1
107818,-83.3333333333333,4,1,0,90,0,1
107912,-86.9565217391304,4,1,0,90,0,1
108006,-90.9090909090909,4,1,0,90,0,0
108193,-100,4,1,0,90,0,0
118506,-66.6666666666667,4,1,0,90,0,0
119256,-50,4,1,0,90,0,0

[HitObjects]
148,139,3006,5,4,0:0:0:0:
210,328,3193,1,0,0:0:0:0:
210,328,3381,1,8,0:0:0:0:
210,328,3568,1,4,0:0:0:0:
223,239,3943,1,0,0:0:0:0:
223,239,4131,1,8,0:0:0:0:
147,314,4506,1,4,0:0:0:0:
148,305,4693,1,8,0:0:0:0:
148,305,4881,1,8,0:0:0:0:
147,314,5068,1,4,0:0:0:0:
180,292,5443,1,0,0:0:0:0:
180,292,5631,1,8,0:0:0:0:
193,322,6006,1,4,0:0:0:0:
192,316,6193,1,0,0:0:0:0:
149,187,6381,1,8,0:0:0:0:
149,187,6568,1,4,0:0:0:0:
269,260,6943,1,8,0:0:0:0:
272,292,7131,1,8,0:0:0:0:
345,258,7318,1,0,0:0:0:0:
272,292,7412,1,0,0:0:0:0:
345,258,7506,1,8,0:0:0:0:
335,263,7693,1,0,0:0:0:0:
335,263,7787,1,8,0:0:0:0:
335,263,7881,1,8,0:0:0:0:
335,263,7974,1,0,0:0:0:0:
335,263,8068,1,8,0:0:0:0:
345,332,8256,1,0,0:0:0:0:
347,327,8443,1,8,0:0:0:0:
213,244,8537,1,0,0:0:0:0:
213,244,8631,1,8,0:0:0:0:
361,292,8818,1,0,0:0:0:0:
358,284,9006,1,4,0:0:0:0:
267,345,9193,1,0,0:0:0:0:
266,326,9381,1,8,0:0:0:0:
84,179,9568,1,4,0:0:0:0:
219,344,9943,1,0,0:0:0:0:
219,344,10131,1,8,0:0:0:0:
315,289,10506,1,4,0:0:0:0:
197,346,10693,1,8,0:0:0:0:
196,345,10881,1,8,0:0:0:0:
315,289,11068,1,4,0:0:0:0:
125,183,11443,1,0,0:0:0:0:
83,146,11631,1,8,0:0:0:0:
315,289,12006,1,4,0:0:0:0:
254,345,12193,1,4,0:0:0:0:
236,304,12381,1,8,0:0:0:0:
254,345,12568,1,4,0:0:0:0:
193,284,12943,1,0,0:0:0:0:
193,284,13131,1,8,0:0:0:0:
161,282,13318,1,0,0:0:0:0:
136,281,13412,1,0,0:0:0:0:
309,252,13506,1,0,0:0:0:0:
309,252,13693,1,8,0:0:0:0:
178,297,13881,1,0,0:0:0:0:
339,312,14068,1,0,0:0:0:0:
339,312,14256,1,4,0:0:0:0:
102,251,14631,1,8,0:0:0:0:
137,258,15006,1,4,0:0:0:0:
183,228,15381,1,8,0:0:0:0:
183,228,15568,1,0,0:0:0:0:
309,215,15943,1,0,0:0:0:0:
304,210,16131,1,8,0:0:0:0:
309,215,16318,1,0,0:0:0:0:
112,159,16412,1,0,0:0:0:0:
112,152,16506,1,0,0:0:0:0:
113,152,16693,1,0,0:0:0:0:
112,152,16881,1,8,0:0:0:0:
112,152,17068,1,0,0:0:0:0:
276,279,17443,1,0,0:0:0:0:
276,279,17631,1,8,0:0:0:0:
219,281,17818,1,8,0:0:0:0:
219,281,17912,1,8,0:0:0:0:
276,279,18006,1,0,0:0:0:0:
142,321,18193,1,8,0:0:0:0:
230,251,18381,1,8,0:0:0:0:
267,336,18568,1,0,0:0:0:0:
218,259,18662,1,0,0:0:0:0:
218,260,18756,1,0,0:0:0:0:
216,254,18943,1,8,0:0:0:0:
186,297,19131,1,0,0:0:0:0:
186,312,19224,1,0,0:0:0:0:
185,312,19318,1,8,0:0:0:0:
152,289,19506,1,4,0:0:0:0:
164,274,19693,1,8,0:0:0:0:
164,274,19787,1,8,0:0:0:0:
164,274,19881,1,8,0:0:0:0:
345,276,20068,1,8,0:0:0:0:
345,276,20131,1,8,0:0:0:0:
130,194,20193,1,8,0:0:0:0:
130,194,20256,1,0,0:0:0:0:
235,123,20349,1,8,0:0:0:0:
235,123,20443,1,8,0:0:0:0:
211,268,20631,1,0,0:0:0:0:
172,206,21006,1,4,0:0:0:0:
235,286,21193,1,0,0:0:0:0:
81,189,21381,1,8,0:0:0:0:
81,189,21568,1,0,0:0:0:0:
309,291,21943,1,8,0:0:0:0:
239,240,22131,1,0,0:0:0:0:
217,232,22224,1,0,0:0:0:0:
216,230,22318,1,8,0:0:0:0:
217,232,22506,1,0,0:0:0:0:
165,223,22693,1,8,0:0:0:0:
165,223,22787,1,8,0:0:0:0:
165,223,22881,1,8,0:0:0:0:
165,223,23068,1,0,0:0:0:0:
165,223,23256,1,8,0:0:0:0:
229,271,23349,1,8,0:0:0:0:
229,271,23443,1,0,0:0:0:0:
229,271,23631,1,8,0:0:0:0:
227,259,23818,1,8,0:0:0:0:
226,259,24006,1,0,0:0:0:0:
218,275,24193,1,0,0:0:0:0:
218,274,24287,1,0,0:0:0:0:
218,274,24381,1,8,0:0:0:0:
218,276,24568,1,0,0:0:0:0:
219,273,24662,1,0,0:0:0:0:
219,271,24756,1,0,0:0:0:0:
219,273,24849,1,0,0:0:0:0:
208,260,24943,1,8,0:0:0:0:
208,259,25131,1,0,0:0:0:0:
208,258,25318,1,8,0:0:0:0:
207,254,25412,1,8,0:0:0:0:
207,254,25506,1,0,0:0:0:0:
230,295,25787,1,0,0:0:0:0:
220,292,25881,1,8,0:0:0:0:
159,196,26068,1,0,0:0:0:0:
159,196,26256,1,8,0:0:0:0:
159,196,26349,1,8,0:0:0:0:
159,196,26443,1,0,0:0:0:0:
159,196,26631,1,8,0:0:0:0:
255,291,26912,1,8,0:0:0:0:
255,291,27006,1,0,0:0:0:0:
215,299,27193,1,8,0:0:0:0:
247,304,27381,1,0,0:0:0:0:
246,303,27474,1,0,0:0:0:0:
246,300,27568,1,8,0:0:0:0:
245,296,27756,1,0,0:0:0:0:
360,267,27943,1,8,0:0:0:0:
360,267,28037,1,8,0:0:0:0:
363,272,28131,1,8,0:0:0:0:
360,267,28506,1,0,0:0:0:0:
360,247,28693,1,8,0:0:0:0:
349,306,28787,1,0,0:0:0:0:
360,247,28881,1,8,0:0:0:0:
359,246,29068,1,0,0:0:0:0:
276,289,29256,1,8,0:0:0:0:
146,300,29349,1,0,0:0:0:0:
146,300,29443,1,0,0:0:0:0:
221,312,29631,1,8,0:0:0:0:
194,326,30006,1,4,0:0:0:0:
194,326,30193,1,8,0:0:0:0:
189,318,30287,1,8,0:0:0:0:
194,326,30381,1,8,0:0:0:0:
194,326,30568,1,4,0:0:0:0:
186,301,30943,1,12,0:0:0:0:
186,301,31131,1,12,0:0:0:0:
177,267,31506,1,4,0:0:0:0:
260,262,31787,1,8,0:0:0:0:
260,262,31881,1,0,0:0:0:0:
260,262,32068,1,8,0:0:0:0:
260,262,32256,1,0,0:0:0:0:
260,262,32349,1,0,0:0:0:0:
260,262,32443,1,8,0:0:0:0:
260,262,32631,1,0,0:0:0:0:
260,262,32818,1,8,0:0:0:0:
260,262,32912,1,8,0:0:0:0:
260,262,33006,1,0,0:0:0:0:
350,330,33193,1,0,0:0:0:0:
350,330,33287,1,0,0:0:0:0:
350,330,33381,1,8,0:0:0:0:
350,330,33568,1,0,0:0:0:0:
344,328,33756,1,8,0:0:0:0:
344,328,33849,1,8,0:0:0:0:
195,296,33943,1,0,0:0:0:0:
195,296,34131,1,8,0:0:0:0:
195,296,34318,1,8,0:0:0:0:
220,299,34506,1,0,0:0:0:0:
228,301,34693,1,8,0:0:0:0:
228,301,34787,1,0,0:0:0:0:
226,298,34881,1,8,0:0:0:0:
227,295,35068,1,0,0:0:0:0:
226,294,35162,1,0,0:0:0:0:
226,291,35256,1,0,0:0:0:0:
220,294,35349,1,8,0:0:0:0:
219,292,35443,1,0,0:0:0:0:
219,292,35631,1,8,0:0:0:0:
239,284,35818,1,0,0:0:0:0:
238,278,35912,1,0,0:0:0:0:
236,287,36006,1,8,0:0:0:0:
234,287,36193,1,8,0:0:0:0:
234,287,36381,1,8,0:0:0:0:
231,280,36568,1,4,0:0:0:0:
294,233,36849,1,0,0:0:0:0:
294,233,36943,1,8,0:0:0:0:
104,110,37506,1,4,0:0:0:0:
304,247,37693,1,8,0:0:0:0:
170,230,37787,1,8,0:0:0:0:
305,244,37881,1,8,0:0:0:0:
304,247,38068,1,0,0:0:0:0:
256,225,38162,1,0,0:0:0:0:
151,216,38256,1,0,0:0:0:0:
256,225,38349,1,0,0:0:0:0:
256,225,38443,1,8,0:0:0:0:
222,170,38631,1,0,0:0:0:0:
222,170,38818,1,8,0:0:0:0:
222,163,38912,1,8,0:0:0:0:
222,161,39006,1,0,0:0:0:0:
321,282,39193,1,0,0:0:0:0:
316,290,39287,1,8,0:0:0:0:
144,272,39381,1,0,0:0:0:0:
321,282,39474,1,0,0:0:0:0:
316,271,39568,1,8,0:0:0:0:
317,266,39756,1,0,0:0:0:0:
317,266,39849,1,8,0:0:0:0:
128,288,39943,1,8,0:0:0:0:
268,262,40037,1,0,0:0:0:0:
268,262,40131,1,8,0:0:0:0:
217,295,40318,1,0,0:0:0:0:
217,295,40506,1,4,0:0:0:0:
224,288,40693,1,8,0:0:0:0:
224,287,40787,1,8,0:0:0:0:
224,286,40881,1,8,0:0:0:0:
225,285,41068,1,0,0:0:0:0:
225,284,41256,1,8,0:0:0:0:
233,287,41349,1,8,0:0:0:0:
233,286,41443,1,0,0:0:0:0:
233,286,41631,1,8,0:0:0:0:
243,335,41818,1,0,0:0:0:0:
245,325,41912,1,0,0:0:0:0:
243,335,42006,1,0,0:0:0:0:
243,320,42193,1,8,0:0:0:0:
244,317,42381,1,8,0:0:0:0:
284,195,42568,1,8,0:0:0:0:
206,154,42631,1,8,0:0:0:0:
206,154,42693,1,8,0:0:0:0:
206,154,42756,1,0,0:0:0:0:
231,194,42849,1,0,0:0:0:0:
231,194,42943,1,8,0:0:0:0:
303,251,43131,1,0,0:0:0:0:
389,266,43506,1,0,0:0:0:0:
389,266,43599,1,0,0:0:0:0:
318,309,43693,1,0,0:0:0:0:
261,310,43787,1,0,0:0:0:0:
324,249,43881,1,8,0:0:0:0:
321,276,44068,1,0,0:0:0:0:
321,276,44162,1,0,0:0:0:0:
262,303,44256,1,0,0:0:0:0:
188,314,44349,1,8,0:0:0:0:
188,314,44443,1,8,0:0:0:0:
171,307,44631,1,0,0:0:0:0:
189,302,44724,1,0,0:0:0:0:
189,298,44818,1,8,0:0:0:0:
386,303,45006,1,0,0:0:0:0:
386,303,45193,1,8,0:0:0:0:
386,303,45287,1,8,0:0:0:0:
386,303,45381,1,8,0:0:0:0:
386,303,45568,1,0,0:0:0:0:
386,303,45756,1,8,0:0:0:0:
386,303,45849,1,8,0:0:0:0:
386,303,45943,1,0,0:0:0:0:
386,303,46131,1,8,0:0:0:0:
282,210,46318,1,8,0:0:0:0:
336,263,46506,1,0,0:0:0:0:
378,285,46599,1,0,0:0:0:0:
378,285,46693,1,0,0:0:0:0:
378,285,46787,1,0,0:0:0:0:
374,282,46881,1,8,0:0:0:0:
372,287,47068,1,0,0:0:0:0:
364,292,47162,1,8,0:0:0:0:
364,291,47256,1,8,0:0:0:0:
363,288,47349,1,0,0:0:0:0:
362,283,47443,1,8,0:0:0:0:
362,282,47631,1,0,0:0:0:0:
362,282,47818,1,8,0:0:0:0:
361,280,47912,1,8,0:0:0:0:
362,282,48006,1,8,0:0:0:0:
358,280,48193,1,8,0:0:0:0:
362,283,48381,1,8,0:0:0:0:
362,282,48568,1,0,0:0:0:0:
88,183,48756,1,12,0:0:0:0:
120,190,48943,1,0,0:0:0:0:
120,190,49131,1,0,0:0:0:0:
120,190,49318,1,0,0:0:0:0:
202,214,49506,1,4,0:0:0:0:
256,128,49693,1,8,0:0:0:0:
192,272,49787,1,8,0:0:0:0:
272,160,49881,1,8,0:0:0:0:
336,208,50068,1,0,0:0:0:0:
336,208,50162,1,0,0:0:0:0:
336,208,50256,1,0,0:0:0:0:
336,208,50349,1,8,0:0:0:0:
336,208,50443,1,0,0:0:0:0:
256,240,50631,1,8,0:0:0:0:
272,240,50724,1,8,0:0:0:0:
256,288,50818,1,0,0:0:0:0:
288,128,51006,1,8,0:0:0:0:
288,128,51099,1,8,0:0:0:0:
288,128,51193,1,0,0:0:0:0:
288,128,51287,1,8,0:0:0:0:
288,128,51381,1,0,0:0:0:0:
288,128,51474,1,0,0:0:0:0:
288,128,51568,1,8,0:0:0:0:
288,128,51756,1,0,0:0:0:0:
288,128,51849,1,8,0:0:0:0:
288,128,51943,1,8,0:0:0:0:
288,128,52037,1,0,0:0:0:0:
288,128,52131,1,8,0:0:0:0:
224,288,52318,1,0,0:0:0:0:
224,192,52506,1,4,0:0:0:0:
320,256,52693,1,8,0:0:0:0:
320,256,52787,1,8,0:0:0:0:
320,256,52881,1,8,0:0:0:0:
320,256,53068,1,0,0:0:0:0:
320,256,53162,1,8,0:0:0:0:
320,240,53256,1,8,0:0:0:0:
320,240,53349,1,8,0:0:0:0:
320,240,53443,1,0,0:0:0:0:
368,320,53631,1,8,0:0:0:0:
368,320,53818,1,8,0:0:0:0:
352,304,54006,1,4,0:0:0:0:
304,320,54193,1,0,0:0:0:0:
304,320,54287,1,0,0:0:0:0:
176,304,54381,1,8,0:0:0:0:
352,224,54568,1,8,0:0:0:0:
384,112,54631,1,8,0:0:0:0:
384,112,54693,1,8,0:0:0:0:
384,112,54756,1,0,0:0:0:0:
384,256,54943,1,8,0:0:0:0:
368,256,55131,1,8,0:0:0:0:
288,272,55506,1,0,0:0:0:0:
304,304,55599,1,0,0:0:0:0:
304,304,55693,1,0,0:0:0:0:
304,304,55787,1,0,0:0:0:0:
256,320,55881,1,8,0:0:0:0:
336,208,56068,1,0,0:0:0:0:
336,208,56162,1,0,0:0:0:0:
336,208,56256,1,0,0:0:0:0:
336,208,56349,1,8,0:0:0:0:
336,208,56443,1,8,0:0:0:0:
336,240,56631,1,0,0:0:0:0:
304,256,56724,1,0,0:0:0:0:
304,256,56818,1,8,0:0:0:0:
304,256,57006,1,0,0:0:0:0:
224,304,57193,1,8,0:0:0:0:
224,304,57287,1,8,0:0:0:0:
224,288,57381,1,8,0:0:0:0:
208,304,57568,1,0,0:0:0:0:
224,304,57662,1,0,0:0:0:0:
192,288,57756,1,8,0:0:0:0:
192,288,57849,1,8,0:0:0:0:
192,288,57943,1,0,0:0:0:0:
208,288,58131,1,8,0:0:0:0:
192,272,58224,1,0,0:0:0:0:
192,288,58318,1,8,0:0:0:0:
160,288,58506,1,0,0:0:0:0:
160,288,58599,1,0,0:0:0:0:
160,288,58693,1,0,0:0:0:0:
176,288,58787,1,0,0:0:0:0:
176,288,58881,1,8,0:0:0:0:
256,320,59068,1,0,0:0:0:0:
240,304,59162,1,8,0:0:0:0:
256,304,59256,1,8,0:0:0:0:
256,304,59349,1,0,0:0:0:0:
256,304,59443,1,8,0:0:0:0:
256,288,59631,1,0,0:0:0:0:
256,288,59724,1,0,0:0:0:0:
256,288,59818,1,0,0:0:0:0:
176,336,60006,1,12,0:0:0:0:
176,336,60193,1,12,0:0:0:0:
176,320,60381,1,12,0:0:0:0:
176,208,60568,1,0,0:0:0:0:
192,336,60756,1,12,0:0:0:0:
144,160,60943,1,0,0:0:0:0:
144,160,61131,1,8,0:0:0:0:
272,272,61506,1,4,0:0:0:0:
192,144,61693,1,8,0:0:0:0:
256,160,61881,1,8,0:0:0:0:
224,128,62068,1,0,0:0:0:0:
224,128,62162,1,8,0:0:0:0:
224,128,62256,1,0,0:0:0:0:
224,128,62443,1,0,0:0:0:0:
224,128,62631,1,8,0:0:0:0:
288,160,62818,1,0,0:0:0:0:
288,160,63006,1,8,0:0:0:0:
304,208,63193,1,0,0:0:0:0:
320,240,63287,1,8,0:0:0:0:
304,272,63381,1,0,0:0:0:0:
304,272,63474,1,0,0:0:0:0:
288,288,63568,1,8,0:0:0:0:
288,304,63943,1,8,0:0:0:0:
288,304,64131,1,8,0:0:0:0:
336,112,64381,1,0,0:0:0:0:
336,112,64443,1,0,0:0:0:0:
336,112,64506,1,0,0:0:0:0:
384,176,64693,1,8,0:0:0:0:
384,176,64881,1,8,0:0:0:0:
304,224,65068,1,0,0:0:0:0:
272,240,65443,1,0,0:0:0:0:
272,240,65631,1,8,0:0:0:0:
224,256,65818,1,0,0:0:0:0:
37,226,66006,2,0,L|90:221,4,31.4999990386963
288,224,66568,1,12,0:0:0:0:
320,256,66943,1,0,0:0:0:0:
208,192,67131,1,8,0:0:0:0:
256,192,67506,1,4,0:0:0:0:
176,160,67693,1,8,0:0:0:0:
224,160,67787,1,8,0:0:0:0:
224,160,67881,1,8,0:0:0:0:
224,160,68068,1,0,0:0:0:0:
160,128,68162,1,8,0:0:0:0:
160,128,68256,1,0,0:0:0:0:
288,224,68443,1,0,0:0:0:0:
288,224,68537,1,0,0:0:0:0:
288,224,68631,1,8,0:0:0:0:
288,224,68724,1,8,0:0:0:0:
224,320,68818,1,0,0:0:0:0:
288,224,68912,1,8,0:0:0:0:
288,224,69006,1,0,0:0:0:0:
144,304,69193,1,0,0:0:0:0:
192,288,69287,1,8,0:0:0:0:
224,272,69381,1,0,0:0:0:0:
224,288,69474,1,0,0:0:0:0:
144,304,69568,1,8,0:0:0:0:
384,304,69756,1,0,0:0:0:0:
288,336,69943,1,8,0:0:0:0:
288,336,70037,1,8,0:0:0:0:
304,304,70131,1,8,0:0:0:0:
208,192,70506,1,4,0:0:0:0:
320,176,70693,1,8,0:0:0:0:
400,128,70756,1,8,0:0:0:0:
400,128,70818,1,8,0:0:0:0:
240,272,70881,1,0,0:0:0:0:
272,208,70974,1,8,0:0:0:0:
272,208,71068,1,0,0:0:0:0:
272,208,71162,1,0,0:0:0:0:
416,288,71256,1,12,0:0:0:0:
368,256,71631,1,12,0:0:0:0:
304,208,72006,1,4,0:0:0:0:
224,160,72287,1,0,0:0:0:0:
224,160,72381,1,8,0:0:0:0:
224,160,72568,1,0,0:0:0:0:
208,144,72756,1,8,0:0:0:0:
208,144,72849,1,8,0:0:0:0:
208,144,72943,1,0,0:0:0:0:
208,144,73131,1,8,0:0:0:0:
256,256,73318,1,8,0:0:0:0:
256,256,73506,1,0,0:0:0:0:
256,256,73693,1,0,0:0:0:0:
224,320,73787,1,0,0:0:0:0:
176,336,73881,1,8,0:0:0:0:
176,304,74068,1,0,0:0:0:0:
224,288,74162,1,0,0:0:0:0:
192,304,74256,1,0,0:0:0:0:
176,304,74349,1,8,0:0:0:0:
176,304,74443,1,0,0:0:0:0:
176,304,74631,1,8,0:0:0:0:
208,272,75006,1,0,0:0:0:0:
208,176,75193,1,0,0:0:0:0:
208,176,75287,1,0,0:0:0:0:
208,176,75381,1,8,0:0:0:0:
240,272,75568,1,0,0:0:0:0:
208,256,75756,1,8,0:0:0:0:
208,256,75849,1,8,0:0:0:0:
208,256,75943,1,0,0:0:0:0:
208,256,76131,1,8,0:0:0:0:
208,256,76506,1,4,0:0:0:0:
208,256,76693,1,8,0:0:0:0:
208,256,76787,1,8,0:0:0:0:
208,256,76881,1,8,0:0:0:0:
208,256,77068,1,4,0:0:0:0:
208,240,77443,1,12,0:0:0:0:
208,240,77631,1,12,0:0:0:0:
208,240,78006,1,4,0:0:0:0:
320,224,78287,1,0,0:0:0:0:
320,208,78381,1,8,0:0:0:0:
320,208,78568,1,0,0:0:0:0:
96,144,78756,1,8,0:0:0:0:
96,144,78849,1,8,0:0:0:0:
96,144,78943,1,0,0:0:0:0:
96,144,79131,1,8,0:0:0:0:
256,320,79318,1,0,0:0:0:0:
160,288,79412,1,8,0:0:0:0:
256,320,79506,1,0,0:0:0:0:
240,304,79693,1,0,0:0:0:0:
240,304,79787,1,0,0:0:0:0:
240,304,79881,1,8,0:0:0:0:
240,304,80068,1,0,0:0:0:0:
240,304,80162,1,0,0:0:0:0:
240,304,80256,1,8,0:0:0:0:
240,304,80349,1,8,0:0:0:0:
240,272,80443,1,0,0:0:0:0:
240,272,80631,1,8,0:0:0:0:
160,272,80818,1,0,0:0:0:0:
160,272,80912,1,0,0:0:0:0:
256,272,81006,1,0,0:0:0:0:
288,272,81193,1,8,0:0:0:0:
208,336,81287,1,8,0:0:0:0:
288,272,81381,1,8,0:0:0:0:
272,224,81568,1,0,0:0:0:0:
304,304,81662,1,0,0:0:0:0:
304,304,81756,1,0,0:0:0:0:
304,288,81849,1,8,0:0:0:0:
304,288,81943,1,0,0:0:0:0:
368,144,82131,1,8,0:0:0:0:
368,128,82193,1,0,0:0:0:0:
368,128,82256,1,0,0:0:0:0:
368,128,82318,1,8,0:0:0:0:
368,112,82506,1,12,0:0:0:0:
336,240,82693,1,0,0:0:0:0:
336,240,82787,1,0,0:0:0:0:
336,240,82881,1,0,0:0:0:0:
336,240,83068,1,12,0:0:0:0:
336,240,83349,1,0,0:0:0:0:
336,240,83443,1,8,0:0:0:0:
432,208,84006,1,4,0:0:0:0:
160,160,84193,1,8,0:0:0:0:
160,144,84287,1,8,0:0:0:0:
160,144,84381,1,8,0:0:0:0:
256,224,84474,1,8,0:0:0:0:
160,144,84568,1,0,0:0:0:0:
304,256,84756,1,8,0:0:0:0:
304,256,84849,1,0,0:0:0:0:
224,272,84943,1,8,0:0:0:0:
224,272,85037,1,8,0:0:0:0:
208,272,85131,1,0,0:0:0:0:
208,272,85224,1,8,0:0:0:0:
208,272,85318,1,0,0:0:0:0:
240,288,85506,1,8,0:0:0:0:
272,256,85599,1,8,0:0:0:0:
288,192,85693,1,0,0:0:0:0:
288,192,85787,1,8,0:0:0:0:
288,192,85881,1,0,0:0:0:0:
288,192,85974,1,0,0:0:0:0:
288,192,86068,1,8,0:0:0:0:
288,192,86162,1,8,0:0:0:0:
288,192,86256,1,0,0:0:0:0:
288,192,86349,1,8,0:0:0:0:
288,192,86443,1,8,0:0:0:0:
288,192,86537,1,0,0:0:0:0:
288,192,86631,1,8,0:0:0:0:
208,48,86818,1,0,0:0:0:0:
208,48,87006,1,4,0:0:0:0:
352,240,87193,1,8,0:0:0:0:
352,240,87287,1,8,0:0:0:0:
352,240,87381,1,8,0:0:0:0:
368,288,87568,1,0,0:0:0:0:
208,176,87662,1,8,0:0:0:0:
208,176,87756,1,8,0:0:0:0:
208,176,87849,1,8,0:0:0:0:
208,176,87943,1,0,0:0:0:0:
208,176,88037,1,8,0:0:0:0:
208,176,88131,1,0,0:0:0:0:
208,176,88224,1,0,0:0:0:0:
208,176,88318,1,8,0:0:0:0:
288,224,88506,1,4,0:0:0:0:
256,304,88693,1,0,0:0:0:0:
208,320,88881,1,8,0:0:0:0:
208,304,89068,1,8,0:0:0:0:
224,320,89162,1,8,0:0:0:0:
240,320,89256,1,0,0:0:0:0:
240,320,89631,1,0,0:0:0:0:
272,288,90006,1,0,0:0:0:0:
272,288,90099,1,0,0:0:0:0:
272,288,90193,1,0,0:0:0:0:
192,288,90287,1,0,0:0:0:0:
192,272,90381,1,8,0:0:0:0:
224,240,90568,1,0,0:0:0:0:
224,240,90662,1,0,0:0:0:0:
224,240,90756,1,0,0:0:0:0:
224,240,90849,1,8,0:0:0:0:
224,240,90943,1,8,0:0:0:0:
112,304,91037,1,0,0:0:0:0:
224,240,91131,1,8,0:0:0:0:
96,304,91224,1,8,0:0:0:0:
96,288,91318,1,0,0:0:0:0:
176,256,91506,1,8,0:0:0:0:
272,208,91599,1,8,0:0:0:0:
272,208,91693,1,0,0:0:0:0:
272,208,91787,1,8,0:0:0:0:
272,208,91881,1,0,0:0:0:0:
352,240,92068,1,8,0:0:0:0:
352,240,92162,1,0,0:0:0:0:
352,240,92256,1,0,0:0:0:0:
272,240,92349,1,8,0:0:0:0:
208,368,92443,1,8,0:0:0:0:
272,240,92537,1,0,0:0:0:0:
272,240,92631,1,8,0:0:0:0:
256,256,92724,1,8,0:0:0:0:
160,240,92818,1,0,0:0:0:0:
176,240,93006,1,8,0:0:0:0:
208,240,93099,1,0,0:0:0:0:
208,240,93193,1,8,0:0:0:0:
208,256,93287,1,8,0:0:0:0:
208,240,93381,1,0,0:0:0:0:
224,256,93568,1,8,0:0:0:0:
224,256,93662,1,8,0:0:0:0:
224,256,93756,1,0,0:0:0:0:
224,256,93849,1,0,0:0:0:0:
208,240,93943,1,8,0:0:0:0:
208,240,94037,1,0,0:0:0:0:
224,240,94131,1,8,0:0:0:0:
256,240,94224,1,8,0:0:0:0:
256,240,94318,1,0,0:0:0:0:
256,240,94506,1,12,0:0:0:0:
256,240,94693,1,12,0:0:0:0:
256,240,94881,1,12,0:0:0:0:
240,240,95068,1,0,0:0:0:0:
240,240,95256,1,12,0:0:0:0:
272,224,95443,1,0,0:0:0:0:
272,224,95537,1,0,0:0:0:0:
272,208,95631,1,0,0:0:0:0:
272,208,95724,1,0,0:0:0:0:
272,208,95818,1,0,0:0:0:0:
272,208,96006,1,8,0:0:0:0:
128,112,96099,1,8,0:0:0:0:
128,112,96193,1,0,0:0:0:0:
128,112,96287,1,8,0:0:0:0:
128,112,96381,1,0,0:0:0:0:
352,304,96568,1,8,0:0:0:0:
352,288,96662,1,8,0:0:0:0:
352,272,96756,1,0,0:0:0:0:
352,256,96849,1,0,0:0:0:0:
352,256,96943,1,8,0:0:0:0:
352,256,97037,1,0,0:0:0:0:
352,256,97131,1,8,0:0:0:0:
352,240,97224,1,8,0:0:0:0:
352,240,97318,1,0,0:0:0:0:
352,256,97506,1,8,0:0:0:0:
256,160,97599,1,8,0:0:0:0:
256,160,97693,1,0,0:0:0:0:
240,144,97787,1,8,0:0:0:0:
240,144,97881,1,0,0:0:0:0:
240,144,97974,1,0,0:0:0:0:
240,144,98068,1,8,0:0:0:0:
256,144,98162,1,8,0:0:0:0:
240,128,98256,1,0,0:0:0:0:
240,144,98349,1,8,0:0:0:0:
240,128,98443,1,8,0:0:0:0:
240,128,98537,1,0,0:0:0:0:
240,128,98631,1,8,0:0:0:0:
288,240,98818,1,0,0:0:0:0:
288,256,99006,1,0,0:0:0:0:
288,256,99099,1,0,0:0:0:0:
224,144,99193,1,0,0:0:0:0:
224,144,99287,1,0,0:0:0:0:
224,144,99381,1,8,0:0:0:0:
224,304,99568,1,0,0:0:0:0:
288,288,99662,1,8,0:0:0:0:
288,288,99756,1,8,0:0:0:0:
288,288,99849,1,8,0:0:0:0:
288,288,99943,1,0,0:0:0:0:
288,272,100037,1,0,0:0:0:0:
192,320,100131,1,8,0:0:0:0:
256,272,100224,1,0,0:0:0:0:
256,272,100318,1,8,0:0:0:0:
288,272,100506,1,0,0:0:0:0:
304,272,100693,1,8,0:0:0:0:
64,144,100787,1,8,0:0:0:0:
288,272,100881,1,8,0:0:0:0:
256,160,101068,1,8,0:0:0:0:
256,160,101131,1,8,0:0:0:0:
256,160,101193,1,8,0:0:0:0:
256,160,101256,1,8,0:0:0:0:
192,176,101443,1,8,0:0:0:0:
192,192,101631,1,0,0:0:0:0:
256,224,102006,1,0,0:0:0:0:
288,224,102099,1,0,0:0:0:0:
288,224,102193,1,0,0:0:0:0:
288,224,102287,1,0,0:0:0:0:
288,224,102381,1,8,0:0:0:0:
80,144,102568,1,0,0:0:0:0:
272,176,102662,1,0,0:0:0:0:
272,176,102756,1,0,0:0:0:0:
272,160,102849,1,8,0:0:0:0:
272,160,102943,1,8,0:0:0:0:
272,160,103037,1,0,0:0:0:0:
272,160,103131,1,8,0:0:0:0:
272,160,103224,1,8,0:0:0:0:
272,160,103318,1,0,0:0:0:0:
272,160,103412,1,8,0:0:0:0:
272,160,103506,1,0,0:0:0:0:
288,272,103693,1,8,0:0:0:0:
304,288,103787,1,0,0:0:0:0:
256,256,103881,1,8,0:0:0:0:
288,272,103974,1,8,0:0:0:0:
288,256,104068,1,0,0:0:0:0:
288,256,104162,1,8,0:0:0:0:
288,256,104256,1,0,0:0:0:0:
288,256,104349,1,0,0:0:0:0:
304,256,104443,1,8,0:0:0:0:
320,256,104537,1,8,0:0:0:0:
320,256,104631,1,8,0:0:0:0:
320,240,104724,1,0,0:0:0:0:
304,240,104818,1,8,0:0:0:0:
256,256,105006,1,0,0:0:0:0:
336,224,105099,1,0,0:0:0:0:
336,208,105193,1,8,0:0:0:0:
336,208,105287,1,0,0:0:0:0:
336,208,105381,1,8,0:0:0:0:
336,208,105474,1,8,0:0:0:0:
336,240,105568,1,0,0:0:0:0:
336,240,105662,1,0,0:0:0:0:
336,240,105756,1,0,0:0:0:0:
336,240,105849,1,8,0:0:0:0:
336,224,105943,1,8,0:0:0:0:
176,208,106037,1,0,0:0:0:0:
176,224,106131,1,8,0:0:0:0:
176,224,106224,1,8,0:0:0:0:
176,224,106318,1,0,0:0:0:0:
192,208,106506,1,12,0:0:0:0:
192,208,106693,1,12,0:0:0:0:
192,208,106881,1,12,0:0:0:0:
288,192,107068,1,0,0:0:0:0:
304,192,107256,1,12,0:0:0:0:
336,176,107443,1,0,0:0:0:0:
336,176,107631,1,8,0:0:0:0:
335,139,107818,1,0,0:0:0:0:
335,139,107912,1,0,0:0:0:0:
244,132,108006,1,0,0:0:0:0:
291,223,108381,1,8,0:0:0:0:
333,201,108568,1,0,0:0:0:0:
347,193,108662,1,0,0:0:0:0:
221,194,108756,1,0,0:0:0:0:
207,245,108943,1,8,0:0:0:0:
216,172,109131,1,8,0:0:0:0:
188,283,109318,1,0,0:0:0:0:
247,190,109506,1,0,0:0:0:0:
289,172,109693,1,8,0:0:0:0:
173,127,109787,1,8,0:0:0:0:
289,172,109881,1,8,0:0:0:0:
172,291,110068,1,8,0:0:0:0:
332,269,110256,1,0,0:0:0:0:
283,198,110631,1,8,0:0:0:0:
218,262,110818,1,0,0:0:0:0:
220,255,110912,1,0,0:0:0:0:
218,262,111006,1,0,0:0:0:0:
217,246,111381,1,8,0:0:0:0:
260,246,111568,1,0,0:0:0:0:
271,253,111662,1,0,0:0:0:0:
270,253,111756,1,8,0:0:0:0:
272,257,111943,1,0,0:0:0:0:
272,257,112131,1,8,0:0:0:0:
272,257,112318,1,8,0:0:0:0:
293,254,112506,1,0,0:0:0:0:
224,255,112787,1,0,0:0:0:0:
224,255,112881,1,8,0:0:0:0:
230,241,113068,1,0,0:0:0:0:
230,240,113256,1,0,0:0:0:0:
177,198,113631,1,8,0:0:0:0:
261,192,114006,1,0,0:0:0:0:
271,196,114287,1,0,0:0:0:0:
210,328,114381,1,0,0:0:0:0:
262,278,114568,1,8,0:0:0:0:
214,349,114662,1,8,0:0:0:0:
262,251,114756,1,0,0:0:0:0:
254,258,114943,1,0,0:0:0:0:
201,177,115037,1,0,0:0:0:0:
201,177,115131,1,8,0:0:0:0:
212,289,115318,1,0,0:0:0:0:
212,289,115412,1,8,0:0:0:0:
210,300,115506,1,0,0:0:0:0:
126,157,115881,1,8,0:0:0:0:
126,157,116068,1,8,0:0:0:0:
214,234,116256,1,0,0:0:0:0:
214,234,116631,1,12,0:0:0:0:
334,297,116818,1,0,0:0:0:0:
334,297,116912,1,0,0:0:0:0:
334,297,117006,1,0,0:0:0:0:
310,262,117287,1,0,0:0:0:0:
310,262,117381,1,8,0:0:0:0:
301,265,117568,1,0,0:0:0:0:
300,265,117756,1,0,0:0:0:0:
293,256,117943,1,8,0:0:0:0:
196,317,118037,1,0,0:0:0:0:
277,267,118131,1,0,0:0:0:0:
276,262,118318,1,8,0:0:0:0:
190,320,118412,1,8,0:0:0:0:
219,240,118506,1,4,0:0:0:0:
309,178,118693,1,0,0:0:0:0:
309,178,118787,1,0,0:0:0:0:
309,178,118881,1,8,0:0:0:0:
309,178,118974,1,8,0:0:0:0:
309,178,119068,1,0,0:0:0:0:
309,178,119162,1,0,0:0:0:0:
309,178,119256,1,12,0:0:0:0:
