osu file format v14

[General]
AudioFilename: audio.mp3
AudioLeadIn: 0
PreviewTime: 37412
Countdown: 0
SampleSet: Soft
StackLeniency: 0.7
Mode: 0
LetterboxInBreaks: 0
WidescreenStoryboard: 1

[Editor]
DistanceSpacing: 1
BeatDivisor: 4
GridSize: 32
TimelineZoom: 2.999999

[Metadata]
Title:A Bella! (feat. Lucy)
TitleUnicode:A Bella! (feat. Lucy)
Artist:M2U
ArtistUnicode:M2U
Creator:Pentori
Version:Normal
Source:하이파이브
Tags:lowcombofc lcfc HIGH5 DIVERSITY UICY-15598 Drug Step SQUARE MUSIQ OST PNIX Games
BeatmapID:1911797
BeatmapSetID:755647

[Difficulty]
HPDrainRate:3
CircleSize:3.2
OverallDifficulty:3
ApproachRate:4.5
SliderMultiplier:0.999999999999999
SliderTickRate:1

[Events]
//Background and Video events
0,0,"bg.jpg",0,0
//Break Periods
2,61685,65228
//Storyboard Layer 0 (Background)
//Storyboard Layer 1 (Fail)
//Storyboard Layer 2 (Pass)
//Storyboard Layer 3 (Foreground)
//Storyboard Sound Samples

[TimingPoints]
2986,375,4,2,0,60,1,0
14986,-100,4,2,0,40,0,0
24548,-100,4,2,0,60,0,0
25486,-100,4,2,0,50,0,0
36923,-100,4,2,0,80,0,0
37486,-71.4285714285714,4,2,0,70,0,1
38986,-100,4,2,0,70,0,1
40486,-71.4285714285714,4,2,0,70,0,1
41986,-100,4,2,0,70,0,1
43486,-71.4285714285714,4,2,0,70,0,1
44986,-100,4,2,0,70,0,1
48736,-100,4,2,0,70,0,0
49486,-71.4285714285714,4,2,0,70,0,1
50611,-100,4,2,0,70,0,1
52486,-71.4285714285714,4,2,0,70,0,1
53986,-100,4,2,0,70,0,1
55486,-71.4285714285714,4,2,0,70,0,1
56986,-100,4,2,0,70,0,1
60736,-100,4,2,0,70,0,0
60923,-100,4,2,0,60,0,0
66548,-100,4,2,0,50,0,0
67111,-100,4,2,0,60,0,0
71986,-100,4,2,0,50,0,0
83423,-100,4,2,0,80,0,0
83986,-71.4285714285714,4,2,0,70,0,1
85486,-100,4,2,0,70,0,1
86986,-71.4285714285714,4,2,0,70,0,1
88486,-100,4,2,0,40,0,0
89611,-100,4,2,0,70,0,0
89986,-71.4285714285714,4,2,0,70,0,1
91486,-100,4,2,0,70,0,1
95236,-100,4,2,0,70,0,0
95423,-100,4,2,0,60,0,0
95986,-71.4285714285714,4,2,0,70,0,1
97486,-100,4,2,0,70,0,1
98986,-71.4285714285714,4,2,0,70,0,1
100486,-100,4,2,0,70,0,1
101986,-71.4285714285714,4,2,0,70,0,1
103486,-100,4,2,0,70,0,1
107236,-100,4,2,0,70,0,0
107423,-100,4,2,0,60,0,0
107986,-100,4,2,0,40,0,0
118486,-100,4,2,0,70,0,0

[Colours]
Combo1 : 197,138,255
Combo2 : 255,164,255
Combo3 : 155,205,255

[HitObjects]
317,44,2986,6,0,P|275:80|181:65,1,150,4|0,1:2|1:0,0:0:0:0:
92,103,3923,2,0,P|88:69|84:41,2,50,0|0|2,0:0|1:0|0:0,0:0:0:0:
127,138,4486,2,0,P|116:212|108:286,1,150,0|0,1:0|1:0,0:0:0:0:
184,351,5423,2,0,P|208:347|233:344,1,50,0|0,0:0|1:0,0:0:0:0:
310,280,5986,6,0,P|352:301|408:290,1,99.9999999999999,0|2,1:0|0:0,0:0:0:0:
445,319,6548,2,0,P|453:244|463:170,1,150,0|0,1:0|1:0,0:0:0:0:
408,86,7486,5,0,1:0:0:0:
310,106,7861,1,0,1:0:0:0:
260,18,8236,1,0,1:0:0:0:
162,38,8611,1,0,1:0:0:0:
150,137,8986,6,0,P|75:126|1:119,2,150,0|0|0,1:0|1:0|1:0,0:0:0:0:
222,205,10486,2,0,P|264:184|320:195,1,99.9999999999999,0|2,1:0|0:0,0:0:0:0:
361,175,11048,2,0,P|402:234|386:305,1,150,0|0,1:0|1:0,0:0:0:0:
289,334,11986,6,0,P|292:358|295:383,2,50,0|0|2,1:0|1:0|0:0,0:0:0:0:
250,302,12548,2,0,P|175:291|101:284,1,150,0|0,1:0|1:0,0:0:0:0:
24,219,13486,1,0,1:0:0:0:
61,126,13861,2,0,P|58:101|54:76,2,50,2|2|2,1:2|0:0|1:2,0:0:0:0:
160,132,14611,1,4,1:2:0:0:
184,228,14986,6,0,P|243:269|314:253,1,150,0|0,1:0|1:0,0:0:0:0:
449,320,16111,1,0,1:0:0:0:
462,220,16486,2,0,P|469:145|479:71,2,150,0|0|0,1:0|1:0|1:0,0:0:0:0:
449,320,17986,6,0,P|374:327|300:337,1,150,0|0,1:0|1:0,0:0:0:0:
151,360,19111,1,0,1:0:0:0:
207,277,19486,2,0,P|228:235|217:179,1,99.9999999999999,0|0,1:0|1:0,0:0:0:0:
140,123,20236,2,0,P|119:165|130:221,1,99.9999999999999,0|0,1:0|1:0,0:0:0:0:
207,277,20986,6,0,P|281:284|355:294,1,150,0|0,1:0|1:0,0:0:0:0:
453,180,22111,1,0,1:0:0:0:
406,91,22486,2,0,P|334:74|275:116,2,150,0|0|0,1:0|1:0|1:0,0:0:0:0:
355,177,23986,6,0,P|345:223|340:278,1,99.9999999999999,0|2,1:0|0:0,0:0:0:0:
350,324,24548,2,0,P|290:282|219:298,1,150,0|4,1:0|1:2,0:0:0:0:
150,224,25486,6,0,P|108:245|52:234,1,99.9999999999999,0|0,1:0|1:0,0:0:0:0:
44,137,26236,2,0,P|86:116|142:127,1,99.9999999999999,0|0,1:0|1:0,0:0:0:0:
234,99,26986,2,0,P|244:147|248:197,1,99.9999999999999,0|0,1:0|1:0,0:0:0:0:
342,161,27736,2,0,P|331:112|327:62,1,99.9999999999999,0|0,1:0|1:0,0:0:0:0:
415,15,28486,6,0,P|491:98|457:186,1,200,0|0,1:0|1:0,0:0:0:0:
505,266,29611,1,0,1:0:0:0:
421,321,29986,2,0,P|372:310|322:306,1,99.9999999999999,0|2,1:0|0:0,0:0:0:0:
290,267,30548,2,0,P|230:309|159:293,1,150,0|4,1:0|1:2,0:0:0:0:
61,314,31486,6,0,P|56:264|46:215,1,99.9999999999999,0|0,1:0|1:0,0:0:0:0:
132,151,32236,2,0,P|136:101|146:52,1,99.9999999999999,0|0,1:0|1:0,0:0:0:0:
234,2,32986,2,0,P|282:-6|326:14,1,99.9999999999999,0|0,1:0|1:0,0:0:0:0:
384,96,33736,2,0,P|432:104|476:83,1,99.9999999999999,0|0,1:0|1:0,0:0:0:0:
511,177,34486,5,0,1:0:0:0:
434,241,34861,2,0,P|385:230|335:226,1,99.9999999999999,2|0,1:2|1:0,0:0:0:0:
250,173,35611,1,0,1:0:0:0:
174,238,35986,2,0,P|132:178|147:107,1,150,0|0,1:0|1:0,0:0:0:0:
265,74,36923,2,2,P|254:122|250:172,1,99.9999999999999,6|0,1:2|0:0,0:1:0:0:
280,210,37486,6,0,B|388:181|376:277|489:250,2,209.999993591309,4|4|4,0:3|1:3|0:3,0:0:0:0:
193,259,38986,2,0,P|182:307|178:357,1,99.9999999999999,4|2,0:3|1:2,0:0:0:0:
135,331,39548,2,0,P|75:289|4:305,1,150,4|4,0:3|1:3,0:0:0:0:
39,198,40486,6,0,B|61:47|61:47|-2:109,2,209.999993591309,4|4|4,0:3|1:3|0:3,0:0:0:0:
134,168,41986,2,0,P|182:160|226:181,1,99.9999999999999,4|2,0:3|1:2,0:0:0:0:
264,148,42548,2,0,P|312:156|356:135,1,99.9999999999999,0|2,0:1|1:2,0:0:0:0:
396,165,43111,1,4,1:3:0:0:
461,238,43486,6,0,P|382:221|356:337,2,209.999993591309,4|4|4,0:3|1:3|0:3,0:0:0:0:
396,165,44986,2,0,P|399:115|411:66,1,99.9999999999999,4|2,0:3|1:2,0:0:0:0:
376,30,45548,2,0,P|316:72|245:56,1,150,4|4,1:3|0:3,0:0:0:0:
149,86,46486,6,0,P|145:52|141:24,2,50,4|4|2,0:3|0:3|1:2,0:0:0:0:
182,123,47048,2,0,P|171:197|164:271,1,150,4|4,1:3|0:3,0:0:0:0:
106,353,47986,5,4,0:3:0:0:
21,298,48361,2,0,P|16:273|14:248,2,50,4|2|0,0:3|1:2|0:0,0:0:0:0:
309,153,49486,6,0,B|446:133|446:133|482:173|464:213,2,209.999993591309,4|4|4,0:3|1:3|0:3,0:0:0:0:
229,91,50986,2,0,P|207:135|215:183,1,99.9999999999999,4|2,0:3|1:2,0:0:0:0:
181,220,51548,2,0,P|107:209|33:202,1,150,4|4,0:3|1:3,0:0:0:0:
72,291,52486,6,0,P|151:274|177:390,2,209.999993591309,4|4|4,0:3|1:3|0:3,0:0:0:0:
58,191,53986,2,0,P|24:195|-4:199,2,50,4|0|2,0:3|0:0|1:2,0:0:0:0:
97,160,54548,2,0,P|118:115|110:67,1,99.9999999999999,2|2,1:2|1:2,0:0:0:0:
132,22,55111,1,4,1:3:0:0:
221,65,55486,6,0,B|372:43|372:43|310:106,2,209.999993591309,4|4|4,0:3|1:3|0:3,0:0:0:0:
166,148,56986,2,0,P|121:126|73:134,1,99.9999999999999,4|2,0:3|1:2,0:0:0:0:
31,107,57548,2,0,P|-11:167|5:238,1,150,4|4,1:3|0:3,0:0:0:0:
81,302,58486,6,0,P|77:336|73:364,2,50,4|4|2,0:3|0:3|1:2,0:0:0:0:
124,276,59048,2,0,P|198:265|272:258,1,150,4|4,1:3|0:3,0:0:0:0:
309,164,59986,5,4,0:3:0:0:
410,170,60361,1,2,1:2:0:0:
435,268,60736,1,4,0:3:0:0:
349,322,61111,2,0,P|300:310|250:307,1,99.9999999999999,2|0,1:2|0:0,0:0:0:0:
117,267,66548,6,0,P|113:301|109:329,2,50,4|0|2,0:3|0:0|0:0,0:0:0:0:
90,224,67111,1,0,1:0:0:0:
162,154,67486,6,0,P|221:195|292:179,2,150,0|0|0,1:0|1:0|1:0,0:0:0:0:
64,178,68986,2,0,P|60:128|48:79,1,99.9999999999999,0|2,1:0|0:0,0:0:0:0:
18,40,69548,2,0,P|92:51|166:58,1,150,0|0,1:0|1:0,0:0:0:0:
249,1,70486,6,0,P|270:45|262:93,1,99.9999999999999,0|2,1:0|0:0,0:0:0:0:
334,163,71236,1,4,1:2:0:0:
427,126,71611,1,4,1:2:0:0:
498,195,71986,6,0,P|486:243|482:293,1,99.9999999999999,0|0,1:0|1:0,0:0:0:0:
390,331,72736,2,0,P|386:281|374:232,1,99.9999999999999,0|0,1:0|1:0,0:0:0:0:
312,154,73486,2,0,P|267:132|219:140,1,99.9999999999999,0|0,1:0|1:0,0:0:0:0:
161,221,74236,2,0,P|116:242|68:234,1,99.9999999999999,0|0,1:0|1:0,0:0:0:0:
7,154,74986,6,0,P|-14:94|113:92,1,200,0|0,1:0|1:0,0:0:0:0:
104,154,76111,1,0,1:0:0:0:
203,142,76486,2,0,P|199:176|195:204,2,50,0|2|2,1:0|0:0|0:0,0:0:0:0:
188,93,77048,2,0,P|248:135|319:119,1,150,0|4,1:0|1:2,0:0:0:0:
415,145,77986,6,0,P|418:95|430:46,2,99.9999999999999,0|0|0,1:0|1:0|1:0,0:0:0:0:
471,227,79111,1,0,1:0:0:0:
420,313,79486,2,0,P|370:316|321:328,1,99.9999999999999,0|0,1:0|1:0,0:0:0:0:
235,378,80236,2,0,P|186:366|136:362,1,99.9999999999999,0|0,1:0|1:0,0:0:0:0:
39,338,80986,5,0,1:0:0:0:
109,267,81361,2,0,P|130:222|122:174,1,99.9999999999999,2|0,1:2|1:0,0:0:0:0:
207,121,82111,1,0,1:0:0:0:
301,154,82486,2,0,P|304:129|307:104,2,50,0|0|2,1:0|0:0|0:0,0:0:0:0:
272,194,83048,1,0,1:0:0:0:
352,255,83423,2,2,P|396:233|444:241,1,99.9999999999999,6|0,1:2|0:0,0:1:0:0:
481,273,83986,6,0,B|463:154|463:154|465:132|465:132|453:55,2,209.999993591309,4|4|4,0:3|1:3|0:3,0:0:0:0:
424,355,85486,2,0,P|379:376|331:368,1,99.9999999999999,4|2,0:3|1:2,0:0:0:0:
283,382,86048,2,0,P|275:307|264:233,1,150,4|4,0:3|1:3,0:0:0:0:
297,140,86986,6,0,B|189:111|201:207|88:180,2,209.999993591309,4|4|4,0:3|1:3|0:3,0:0:0:0:
372,74,88486,1,2,0:0:0:0:
467,103,88861,2,0,P|462:127|460:152,1,50,2|2,0:0|0:0,0:0:0:0:
422,185,89236,2,0,P|433:233|437:283,1,99.9999999999999,2|0,0:0|1:2,0:0:0:0:
372,357,89986,6,0,B|318:351|290:299|290:299|239:336|156:314,2,209.999993591309,4|4|4,0:3|1:3|0:3,0:0:0:0:
457,308,91486,2,0,P|464:259|443:215,1,99.9999999999999,4|2,0:3|1:2,0:0:0:0:
456,167,92048,2,0,P|381:178|307:185,1,150,4|4,1:3|0:3,0:0:0:0:
206,187,92986,6,0,P|200:211|199:236,2,50,4|4|2,0:3|0:3|1:2,0:0:0:0:
168,153,93548,2,0,P|126:93|142:22,1,150,4|4,1:3|0:3,0:0:0:0:
228,72,94486,5,4,0:3:0:0:
298,1,94861,1,2,1:2:0:0:
387,46,95236,1,4,0:3:0:0:
371,144,95611,2,0,P|365:168|364:193,1,50,2|2,0:0|0:0,0:0:0:0:
343,237,95986,6,0,P|422:220|448:336,2,209.999993591309,4|4|4,0:3|1:3|0:3,0:0:0:0:
287,318,97486,2,0,P|238:306|188:302,1,99.9999999999999,4|2,0:3|1:2,0:0:0:0:
165,258,98048,2,0,P|105:300|34:284,1,150,4|4,0:3|1:3,0:0:0:0:
87,201,98986,6,0,B|58:93|154:105|127:-8,2,209.999993591309,4|4|4,0:3|1:3|0:3,0:0:0:0:
167,260,100486,2,0,P|161:284|160:309,2,50,4|0|2,0:3|0:0|1:2,0:0:0:0:
206,229,101048,2,0,P|250:250|298:242,1,99.9999999999999,0|2,0:0|1:2,0:0:0:0:
338,273,101611,1,4,2:3:0:0:
423,225,101986,6,0,B|401:74|401:74|464:136,2,209.999993591309,4|4|4,0:3|1:3|0:3,0:0:0:0:
484,303,103486,2,0,P|439:324|391:316,1,99.9999999999999,4|2,0:3|1:2,0:0:0:0:
348,343,104048,2,0,P|288:301|217:317,1,150,4|4,1:3|0:3,0:0:0:0:
153,239,104986,6,0,P|128:242|103:245,2,50,4|4|2,0:3|0:3|1:2,0:0:0:0:
185,201,105548,2,0,P|188:151|200:102,1,99.9999999999999,4|2,1:3|1:2,0:0:0:0:
236,67,106111,1,4,0:3:0:0:
310,133,106486,5,4,0:3:0:0:
401,92,106861,1,2,1:2:0:0:
468,166,107236,1,4,0:3:0:0:
418,252,107611,2,0,P|396:296|404:344,1,99.9999999999999,2|2,1:2|0:0,0:0:0:0:
497,310,108361,6,0,B|397:277|414:373|286:345,2,200,2|2|2,0:3|0:3|0:3,0:0:0:0:
465,214,110236,2,0,P|468:164|480:115,1,99.9999999999999,2|2,0:0|0:3,0:0:0:0:
386,78,110986,6,0,P|303:154|215:120,1,200,2|2,0:0|0:0,0:0:0:0:
159,59,112111,1,2,0:3:0:0:
59,71,112486,2,0,P|70:119|74:169,1,99.9999999999999,2|2,0:0|0:3,0:0:0:0:
150,234,113236,2,0,P|138:282|134:332,1,99.9999999999999,2|4,0:0|1:2,0:0:0:0:
223,380,113986,5,2,0:0:0:0:
291,306,114361,2,0,P|370:289|396:405,2,200,2|2|2,0:3|0:3|0:3,0:0:0:0:
215,240,116236,2,0,P|206:191|228:147,1,99.9999999999999,2|2,0:0|0:3,0:0:0:0:
295,72,116986,5,2,0:0:0:0:
385,115,117361,2,0,P|433:103|483:99,2,99.9999999999999,0|0|2,1:0|1:0|1:2,0:0:0:0:
341,233,118486,5,4,0:3:0:0:
265,167,118861,2,0,P|240:161|215:159,1,50,4|2,1:3|0:0,0:0:0:0:
165,152,119236,1,6,1:2:0:0:
