osu file format v14

[General]
AudioFilename: audio.mp3
AudioLeadIn: 0
PreviewTime: 37412
Countdown: 0
SampleSet: Soft
StackLeniency: 0.7
Mode: 0
LetterboxInBreaks: 0
WidescreenStoryboard: 1

[Editor]
Bookmarks: 3006,15006,25506,37506,49506,61506,72006,84006,96006,108006,119256
DistanceSpacing: 1
BeatDivisor: 4
GridSize: 32
TimelineZoom: 2.999999

[Metadata]
Title:A Bella! (feat. Lucy)
TitleUnicode:A Bella! (feat. Lucy)
Artist:M2U
ArtistUnicode:M2U
Creator:Pentori
Version:LCFC's Insane
Source:하이파이브
Tags:lowcombofc lcfc HIGH5 DIVERSITY UICY-15598 Drug Step SQUARE MUSIQ OST PNIX Games
BeatmapID:1911796
BeatmapSetID:755647

[Difficulty]
HPDrainRate:6
CircleSize:4.5
OverallDifficulty:7.5
ApproachRate:9
SliderMultiplier:1.8
SliderTickRate:1

[Events]
//Background and Video events
0,0,"bg.jpg",0,0
//Break Periods
2,61686,63886
//Storyboard Layer 0 (Background)
//Storyboard Layer 1 (Fail)
//Storyboard Layer 2 (Pass)
//Storyboard Layer 3 (Foreground)
//Storyboard Sound Samples

[TimingPoints]
2986,375,4,2,0,60,1,0
4111,-133.333333333333,4,2,0,60,0,0
4486,-100,4,2,0,60,0,0
5611,-133.333333333333,4,2,0,60,0,0
5986,-100,4,2,0,60,0,0
7111,-133.333333333333,4,2,0,60,0,0
7673,-100,4,2,0,60,0,0
10111,-133.333333333333,4,2,0,60,0,0
10486,-100,4,2,0,60,0,0
11611,-133.333333333333,4,2,0,60,0,0
11986,-100,4,2,0,60,0,0
13111,-133.333333333333,4,2,0,60,0,0
14986,-133.333333333333,4,2,0,40,0,0
24548,-100,4,2,0,60,0,0
25486,-100,4,2,0,50,0,0
26048,-80,4,2,0,50,0,0
26611,-100,4,2,0,50,0,0
26986,-133.333333333333,4,2,0,50,0,0
31486,-100,4,2,0,50,0,0
32048,-80,4,2,0,50,0,0
32611,-100,4,2,0,50,0,0
32986,-133.333333333333,4,2,0,50,0,0
36923,-133.333333333333,4,2,0,80,0,0
37486,-83.3333333333333,4,2,0,70,0,1
47986,-66.6666666666667,4,2,0,70,0,1
48736,-100,4,2,0,70,0,0
48923,-100,4,2,0,40,0,0
49486,-83.3333333333333,4,2,0,70,0,1
59986,-66.6666666666667,4,2,0,70,0,1
60736,-100,4,2,0,70,0,0
60923,-100,4,2,0,60,0,0
61111,-66.6666666666667,4,2,0,60,0,0
66361,-66.6666666666667,4,2,0,5,0,0
66548,-100,4,2,0,50,0,0
67111,-100,4,2,0,60,0,0
71986,-100,4,2,0,50,0,0
72548,-80,4,2,0,50,0,0
73111,-100,4,2,0,50,0,0
73486,-133.333333333333,4,2,0,50,0,0
77986,-100,4,2,0,50,0,0
78548,-80,4,2,0,50,0,0
79111,-100,4,2,0,50,0,0
79486,-133.333333333333,4,2,0,50,0,0
83423,-133.333333333333,4,2,0,80,0,0
83986,-83.3333333333333,4,2,0,70,0,1
88486,-100,4,2,0,40,0,0
89611,-100,4,2,0,70,0,0
89986,-100,4,2,0,70,0,1
94486,-66.6666666666667,4,2,0,70,0,1
95236,-100,4,2,0,70,0,0
95423,-100,4,2,0,60,0,0
95986,-83.3333333333333,4,2,0,70,0,1
106486,-66.6666666666667,4,2,0,70,0,1
107236,-100,4,2,0,70,0,0
107423,-100,4,2,0,60,0,0
107611,-66.6666666666667,4,2,0,60,0,0
107986,-133.333333333333,4,2,0,40,0,0
118486,-66.6666666666667,4,2,0,70,0,0

[Colours]
Combo1 : 128,128,128
Combo2 : 255,164,255
Combo3 : 155,205,255
Combo4 : 197,138,255
Combo5 : 255,4,4
Combo6 : 192,192,192
Combo7 : 255,128,0

[HitObjects]
66,50,2986,5,4,1:2:0:0:
207,133,3173,1,0,0:0:0:0:
63,214,3361,1,2,0:0:0:0:
137,41,3548,2,0,B|143:108|143:108|123:148|123:148|132:215,1,180,0|0,1:0|0:0,0:0:0:0:
132,215,4111,6,0,L|125:282,1,67.5000025749208,0|2,1:0|0:0,0:0:0:0:
322,352,4486,5,0,1:0:0:0:
328,189,4673,1,2,0:0:0:0:
466,275,4861,1,0,0:0:0:0:
371,272,5048,2,0,P|405:191|397:102,1,180,0|0,1:0|0:0,0:0:0:0:
396,101,5611,70,0,L|328:94,1,67.5000025749208,0|2,1:0|0:0,0:0:0:0:
182,45,5986,5,0,1:0:0:0:
256,192,6173,1,0,0:0:0:0:
182,339,6361,1,2,0:0:0:0:
123,278,6548,2,0,L|301:255,1,180,0|2,1:0|0:0,0:0:0:0:
301,254,7111,6,0,L|293:321,1,67.5000025749208,0|0,1:0|0:0,0:0:0:0:
293,321,7392,1,0,0:0:0:0:
293,321,7486,1,0,1:0:0:0:
438,266,7673,69,2,0:0:0:0:
480,250,7767,1,0,0:0:0:0:
499,208,7860,1,0,1:0:0:0:
485,164,7954,1,0,0:0:0:0:
447,140,8048,2,0,P|367:104|279:116,1,180,0|0,0:0|0:0,0:0:0:0:
245,145,8517,1,0,0:0:0:0:
212,176,8611,1,0,1:0:0:0:
125,153,8798,1,4,0:0:0:0:
148,66,8986,5,0,1:0:0:0:
7,150,9173,1,0,0:0:0:0:
151,231,9361,1,2,0:0:0:0:
64,76,9548,2,0,B|33:139|33:139|54:246,1,180,0|0,1:0|0:0,0:0:0:0:
54,246,10111,6,0,L|129:236,1,67.5000025749208,0|2,1:0|0:0,0:0:0:0:
198,316,10486,69,0,1:0:0:0:
381,253,10673,1,0,0:0:0:0:
318,70,10861,1,2,0:0:0:0:
134,132,11048,2,0,P|215:170|303:159,1,180,0|0,1:0|0:0,0:0:0:0:
302,159,11611,6,0,L|290:244,1,67.5000025749208,0|2,1:0|0:0,0:0:0:0:
174,348,11986,5,0,1:0:0:0:
224,192,12173,1,0,1:0:0:0:
274,36,12361,1,2,0:0:0:0:
172,141,12548,2,0,L|193:319,1,180,0|0,1:0|1:0,0:0:0:0:
193,319,13111,70,0,L|200:251,1,67.5000025749208,0|0,1:0|0:0,0:0:0:0:
200,251,13392,1,0,0:0:0:0:
200,251,13486,5,0,1:0:0:0:
327,130,13673,1,2,0:0:0:0:
392,261,13861,1,2,1:2:0:0:
439,163,14048,1,2,0:0:0:0:
478,230,14236,6,0,L|470:297,1,67.5000025749208,2|0,1:2|0:0,0:0:0:0:
470,297,14517,1,0,0:0:0:0:
470,297,14611,2,0,P|421:285|375:305,1,101.250003862381,4|0,1:2|0:0,0:0:0:0:
365,320,14986,70,0,P|319:272|315:206,1,135.000005149842,0|2,1:0|0:0,0:0:0:0:
281,74,15548,2,0,P|262:137|207:173,1,135.000005149842,0|0,1:0|0:0,0:0:0:0:
132,152,16111,1,0,1:0:0:0:
132,152,16298,1,2,0:0:0:0:
43,266,16486,6,0,L|51:342,1,67.5000025749208,0|0,1:0|0:0,0:0:0:0:
141,307,16861,1,2,0:0:0:0:
48,177,17048,2,0,L|56:253,1,67.5000025749208,0|0,1:0|0:0,0:0:0:0:
171,377,17423,2,0,L|192:224,1,135.000005149842,0|2,0:0|0:0,0:0:0:0:
234,173,17986,6,0,P|267:159|307:164,1,67.5000025749208,0|0,1:0|0:0,0:0:0:0:
353,240,18361,1,2,0:0:0:0:
309,172,18548,2,0,P|368:140|433:153,1,135.000005149842,0|0,1:0|0:0,0:0:0:0:
478,222,19111,1,0,1:0:0:0:
478,222,19298,1,2,0:0:0:0:
338,317,19486,69,0,1:0:0:0:
175,275,19673,1,0,0:0:0:0:
170,241,19767,1,0,0:0:0:0:
165,207,19861,1,0,1:0:0:0:
196,138,20048,6,0,L|199:110,2,16.8750006437302,2|0|0,0:0|0:0|0:0,0:0:0:0:
238,199,20236,1,0,1:0:0:0:
243,233,20330,1,0,0:0:0:0:
248,267,20424,1,0,0:0:0:0:
99,284,20611,2,0,L|89:217,1,67.5000025749208,0|2,1:0|0:0,0:0:0:0:
132,76,20986,6,0,L|265:94,1,135.000005149842,0|2,1:0|0:0,0:0:0:0:
371,180,21548,2,0,L|237:198,1,135.000005149842,0|0,1:0|0:0,0:0:0:0:
168,235,22111,1,0,1:0:0:0:
168,235,22298,1,2,0:0:0:0:
235,274,22486,69,0,1:0:0:0:
265,94,22673,1,0,0:0:0:0:
85,64,22861,1,2,0:0:0:0:
55,244,23048,2,0,P|48:300|72:377,1,135.000005149842,0|0,1:0|0:0,0:0:0:0:
136,329,23611,1,0,1:0:0:0:
136,329,23798,1,2,0:0:0:0:
44,153,23986,5,0,1:0:0:0:
141,145,24173,2,0,L|132:211,1,67.5000025749208,0|2,1:0|0:0,0:0:0:0:
240,362,24548,6,0,P|263:327|254:234,1,135,0|0,1:0|0:0,0:0:0:0:
240,228,24923,1,0,1:0:0:0:
272,22,25111,2,0,P|249:57|258:150,1,135,4|0,1:2|0:0,0:0:0:0:
272,155,25486,70,0,P|353:119|442:125,1,180,0|0,1:0|1:0,0:0:0:0:
366,23,26048,6,0,P|404:128|402:240,1,225,0|0,0:0|0:0,0:0:0:0:
330,303,26611,6,0,P|312:262|312:211,1,90,0|2,1:0|0:0,0:0:0:0:
255,146,26986,70,0,L|120:130,1,135.000005149842,0|0,1:0|1:0,0:0:0:0:
30,263,27548,2,0,L|164:278,1,135.000005149842,0|0,0:0|0:0,0:0:0:0:
232,230,28111,1,0,1:0:0:0:
232,230,28298,1,2,0:0:0:0:
330,303,28486,5,0,1:0:0:0:
244,384,28673,2,0,L|236:316,1,67.5000025749208,0|2,0:0|1:2,0:0:0:0:
309,217,29048,2,0,P|343:159|337:93,1,135.000005149842,0|2,0:0|0:0,0:0:0:0:
270,40,29611,2,0,L|203:50,1,67.5000025749208,0|0,1:0|0:0,0:0:0:0:
54,17,29986,5,0,1:0:0:0:
160,119,30173,1,2,0:0:0:0:
58,225,30361,1,2,0:0:0:0:
163,326,30548,2,0,P|230:330|290:301,1,135.000005149842,0|2,1:0|0:0,0:0:0:0:
336,226,31111,1,4,1:2:0:0:
268,114,31298,1,0,0:0:0:0:
268,114,31392,1,0,0:0:0:0:
268,114,31486,70,0,P|339:63|428:67,1,180,0|0,1:0|1:0,0:0:0:0:
495,13,32048,6,0,P|449:112|475:220,1,225,0|0,0:0|0:0,0:0:0:0:
511,311,32611,6,0,P|469:297|424:298,1,90,0|2,1:0|0:0,0:0:0:0:
261,363,32986,70,0,L|244:214,1,135.000005149842,0|0,1:0|1:0,0:0:0:0:
337,59,33548,2,0,L|352:193,1,135.000005149842,0|0,0:0|0:0,0:0:0:0:
336,274,34111,1,0,1:0:0:0:
336,274,34298,1,2,0:0:0:0:
155,243,34486,5,0,1:0:0:0:
245,228,34673,2,0,L|235:301,1,67.5000025749208,0|2,0:0|1:2,0:0:0:0:
66,318,35048,2,0,P|40:257|50:191,1,135.000005149842,0|2,0:0|0:0,0:0:0:0:
111,139,35611,2,0,L|177:148,1,67.5000025749208,0|0,1:0|0:0,0:0:0:0:
213,73,35986,5,0,1:0:0:0:
375,149,36173,1,0,0:0:0:0:
299,311,36361,1,2,0:0:0:0:
137,235,36548,1,0,1:0:0:0:
256,192,36829,69,0,1:0:0:0:
256,192,36923,2,2,B|343:182|312:249|413:232,1,168.750006437302,6|0,1:2|0:0,0:1:0:0:
429,235,37486,54,0,P|477:174|462:97,1,161.999995056153,4|0,0:3|0:0,0:0:0:0:
400,57,37861,2,0,P|386:33|382:7,1,53.9999983520508,2|0,1:2|0:0,0:0:0:0:
322,169,38048,2,0,P|263:221|185:215,1,161.999995056153,4|0,1:3|0:0,0:0:0:0:
168,202,38423,1,2,1:2:0:0:
206,80,38611,2,0,L|202:133,1,53.9999983520508,4|0,0:3|0:0,0:0:0:0:
91,216,38798,2,0,L|87:269,1,53.9999983520508,2|0,0:0|0:0,0:0:0:0:
134,330,38986,85,4,0:3:0:0:
244,315,39173,1,0,0:0:0:0:
354,300,39361,1,0,1:0:0:0:
348,326,39454,1,0,0:1:0:0:
341,351,39548,2,0,P|362:368|389:369,1,53.9999983520508,4|0,0:3|0:0,0:0:0:0:
464,285,39736,21,0,0:0:0:0:
458,259,39829,2,0,P|437:242|410:241,1,53.9999983520508,0|2,0:0|1:2,0:0:0:0:
322,169,40017,1,0,0:0:0:0:
328,143,40111,2,0,L|448:126,1,107.999996704102,4|2,1:3|0:0,0:0:0:0:
261,42,40486,86,0,P|213:102|244:173,1,161.999995056153,4|0,0:3|0:0,0:0:0:0:
229,248,40861,2,0,P|203:262|175:260,1,53.9999983520508,2|0,1:2|0:0,0:0:0:0:
17,111,41048,2,0,L|177:133,1,161.999995056153,4|0,1:3|0:0,0:0:0:0:
190,122,41423,1,2,1:2:0:0:
134,31,41611,2,0,L|81:42,1,53.9999983520508,4|0,0:3|0:0,0:0:0:0:
31,217,41798,2,0,L|83:205,1,53.9999983520508,0|0,0:0|0:0,0:0:0:0:
216,48,41986,85,4,0:3:0:0:
244,173,42173,1,0,0:0:0:0:
369,145,42361,1,2,1:2:0:0:
341,20,42548,2,0,L|343:-6,2,26.9999991760254,0|0|0,0:1|0:1|0:1,0:0:0:0:
350,32,42736,22,0,L|410:42,1,53.9999983520508,4|0,0:3|0:0,0:0:0:0:
497,167,42923,2,0,L|443:176,1,53.9999983520508,2|0,1:2|0:0,0:0:0:0:
321,211,43111,2,0,P|293:285|330:355,1,161.999995056153,4|0,1:3|0:0,0:0:0:0:
345,360,43486,85,4,0:3:0:0:
369,145,43673,1,2,0:0:0:0:
171,232,43861,1,2,1:2:0:0:
228,307,44048,2,0,P|254:232|242:152,1,161.999995056153,4|0,1:3|0:0,0:0:0:0:
228,140,44423,1,2,1:2:0:0:
92,194,44611,2,0,L|81:259,1,53.9999983520508,4|0,0:3|0:0,0:0:0:0:
115,330,44798,2,0,L|105:276,1,53.9999983520508,2|0,0:0|0:0,0:0:0:0:
77,117,44986,22,0,P|125:55|203:57,1,161.999995056153,4|0,0:3|0:0,0:0:0:0:
276,77,45361,2,0,P|289:53|290:26,1,53.9999983520508,2|0,1:2|0:0,0:0:0:0:
201,207,45548,2,0,P|248:268|326:266,1,161.999995056153,4|0,1:3|0:0,0:0:0:0:
341,257,45923,1,2,1:2:0:0:
412,166,46111,2,0,L|358:173,1,53.9999983520508,4|0,0:3|0:0,0:0:0:0:
308,356,46298,2,0,L|361:348,1,53.9999983520508,2|2,0:0|0:0,0:0:0:0:
456,239,46486,69,4,0:3:0:0:
456,239,46673,1,4,0:3:0:0:
290,127,46861,2,0,P|277:103|276:76,1,53.9999983520508,2|0,1:2|0:0,0:0:0:0:
462,26,47048,2,0,P|480:101|429:159,1,161.999995056153,4|0,1:3|0:0,0:0:0:0:
412,166,47423,1,2,1:2:0:0:
191,140,47611,2,0,L|204:32,1,107.999996704102,4|2,0:3|0:0,0:0:0:0:
204,32,47892,1,0,0:0:0:0:
204,32,47986,86,0,P|177:52|144:54,1,67.5000025749208,4|0,0:3|0:0,0:0:0:0:
44,104,48173,2,0,P|77:106|103:126,1,67.5000025749208,0|0,0:0|0:0,0:0:0:0:
145,267,48361,2,0,B|144:235|144:235|142:231|142:231|140:200,1,67.5000025749208,4|0,0:3|0:0,0:0:0:0:
184,133,48548,2,0,P|243:108|291:151,1,135.000005149842,2|0,1:2|0:0,0:0:0:0:
255,285,48923,21,2,0:0:0:0:
247,268,49111,1,2,0:0:0:0:
265,269,49298,1,2,0:0:0:0:
51,361,49486,86,0,L|70:201,1,161.999995056153,4|0,0:3|0:0,0:0:0:0:
152,160,49861,2,0,L|158:213,1,53.9999983520508,2|0,1:2|0:0,0:0:0:0:
300,348,50048,2,0,P|351:290|333:214,1,161.999995056153,4|0,1:3|0:0,0:0:0:0:
317,204,50423,1,2,1:2:0:0:
206,97,50611,2,0,P|194:72|193:45,1,53.9999983520508,4|0,0:3|0:0,0:0:0:0:
318,45,50798,2,0,P|317:72|305:97,1,53.9999983520508,2|0,0:0|0:0,0:0:0:0:
158,213,50986,85,4,0:3:0:0:
265,269,51173,1,0,0:0:0:0:
372,213,51361,1,2,1:2:0:0:
378,239,51454,1,0,0:0:0:0:
384,265,51548,2,0,L|376:322,1,53.9999983520508,4|0,0:3|0:0,0:0:0:0:
479,269,51736,21,0,0:0:0:0:
473,243,51829,2,0,L|465:189,1,53.9999983520508,0|2,0:0|1:2,0:0:0:0:
318,45,52017,1,0,0:0:0:0:
296,61,52111,2,0,P|281:104|302:170,1,107.999996704102,4|2,1:3|0:0,0:0:0:0:
375,317,52486,86,0,P|318:265|242:281,1,161.999995056153,4|0,0:3|0:0,0:0:0:0:
200,347,52861,2,0,P|182:367|157:376,1,53.9999983520508,2|0,1:2|0:0,0:0:0:0:
50,254,53048,2,0,P|107:201|183:217,1,161.999995056153,4|0,1:3|0:0,0:0:0:0:
189,231,53423,1,2,1:2:0:0:
231,98,53611,2,0,L|224:151,1,53.9999983520508,4|0,0:3|0:0,0:0:0:0:
352,240,53798,2,0,L|345:293,1,53.9999983520508,0|0,0:0|0:0,0:0:0:0:
291,358,53986,85,4,0:3:0:0:
426,306,54173,21,0,0:0:0:0:
296,162,54361,69,2,1:2:0:0:
492,83,54548,22,0,P|499:71|497:52,6,26.9999991760254,2|0|0|0|0|0|0,1:2|0:0|0:0|0:0|0:0|0:0|0:0,0:0:0:0:
425,123,54923,70,0,L|371:118,1,53.9999983520508,2|0,1:2|0:0,0:0:0:0:
144,60,55111,2,0,L|304:40,1,161.999995056153,4|0,1:3|0:0,0:0:0:0:
319,48,55486,5,4,0:3:0:0:
352,240,55673,1,2,0:0:0:0:
169,172,55861,1,2,1:2:0:0:
210,365,56048,2,0,P|260:304|256:225,1,161.999995056153,4|0,1:3|0:0,0:0:0:0:
244,213,56423,1,2,1:2:0:0:
101,223,56611,2,0,L|113:291,1,53.9999983520508,4|0,0:3|0:0,0:0:0:0:
242,134,56798,2,0,L|254:66,1,53.9999983520508,2|0,0:0|0:0,0:0:0:0:
66,154,56986,22,0,L|94:313,1,161.999995056153,4|0,0:3|0:0,0:0:0:0:
158,356,57361,2,0,P|182:366|209:364,1,53.9999983520508,2|0,1:2|0:0,0:0:0:0:
393,189,57548,2,0,P|315:174|255:224,1,161.999995056153,4|0,1:3|0:0,0:0:0:0:
252,242,57923,1,2,1:2:0:0:
415,321,58111,2,0,L|427:253,1,53.9999983520508,4|0,0:3|0:0,0:0:0:0:
478,207,58298,2,0,L|487:153,1,53.9999983520508,2|2,0:0|0:0,0:0:0:0:
433,9,58486,69,4,0:3:0:0:
433,9,58673,1,4,0:3:0:0:
327,100,58861,2,0,P|303:113|277:114,1,53.9999983520508,2|0,1:2|0:0,0:0:0:0:
393,189,59048,2,0,P|443:129|430:51,1,161.999995056153,4|0,1:3|0:0,0:0:0:0:
415,40,59423,1,2,1:2:0:0:
185,80,59611,2,0,L|168:186,1,107.999996704102,4|2,0:3|0:0,0:0:0:0:
168,186,59892,1,0,0:0:0:0:
168,186,59986,86,0,P|144:209|111:212,1,67.5000025749208,4|0,0:3|0:0,0:0:0:0:
42,33,60173,2,0,P|73:43|93:70,1,67.5000025749208,0|0,0:0|0:0,0:0:0:0:
67,289,60361,2,0,B|35:290|35:290|31:292|31:292|0:294,1,67.5000025749208,2|0,1:2|0:0,0:0:0:0:
168,186,60548,2,0,L|302:198,1,135.000005149842,2|4,0:0|0:3,0:0:0:0:
488,247,60923,21,0,0:0:0:0:
488,247,61017,1,0,0:0:0:0:
460,222,61111,2,0,B|393:230|393:230|350:286|350:286|286:296,1,202.500007724762,2|0,1:2|0:0,0:0:0:0:
268,288,61486,5,0,0:0:0:0:
256,192,64486,12,0,66361,0:0:0:0:
141,342,66548,6,0,L|128:233,1,90,4|0,0:3|0:0,0:0:0:0:
121,162,66923,1,2,0:0:0:0:
330,180,67111,2,0,P|272:213|207:198,1,135,0|0,1:0|0:0,0:0:0:0:
199,182,67486,5,0,1:0:0:0:
336,89,67673,1,0,0:0:0:0:
413,140,67861,1,2,0:0:0:0:
411,286,68048,1,0,1:0:0:0:
378,317,68142,1,0,0:0:0:0:
333,310,68236,1,0,0:0:0:0:
277,239,68423,1,0,0:0:0:0:
236,321,68611,1,0,1:0:0:0:
192,329,68705,1,0,0:0:0:0:
158,300,68799,1,2,0:0:0:0:
156,255,68893,1,0,0:0:0:0:
188,224,68986,5,0,1:0:0:0:
277,239,69173,1,0,0:0:0:0:
309,208,69266,1,0,0:0:0:0:
307,163,69360,1,2,0:0:0:0:
273,134,69454,1,0,0:0:0:0:
229,142,69548,2,0,L|41:108,1,180,0|0,1:0|0:0,0:0:0:0:
144,3,70111,2,0,L|155:92,1,90,0|2,1:0|0:0,0:0:0:0:
98,214,70486,69,0,1:0:0:0:
184,273,70673,1,0,0:0:0:0:
246,279,70767,1,0,0:0:0:0:
292,250,70861,1,2,0:0:0:0:
309,208,70954,1,0,0:0:0:0:
306,171,71048,1,0,0:0:0:0:
288,149,71142,1,0,0:0:0:0:
270,142,71236,6,0,P|229:161|185:159,1,90,4|0,1:2|0:0,0:0:0:0:
321,17,71611,2,0,P|361:-2|405:0,1,90,4|0,1:2|0:0,0:0:0:0:
436,185,71986,6,0,P|347:183|269:141,1,180,0|0,1:0|1:0,0:0:0:0:
500,123,72548,70,0,P|452:221|350:261,1,225
269,141,73111,6,0,L|263:51,1,90,0|2,1:0|0:0,0:0:0:0:
83,166,73486,6,0,P|72:232|83:298,1,135.000005149842,0|0,1:0|1:0,0:0:0:0:
173,367,74048,2,0,P|183:300|172:234,1,135.000005149842,0|0,0:0|0:0,0:0:0:0:
176,148,74611,1,0,1:0:0:0:
176,148,74798,1,2,0:0:0:0:
338,187,74986,69,0,1:0:0:0:
247,114,75173,2,0,L|253:181,1,67.5000025749208,0|2,0:0|1:2,0:0:0:0:
375,355,75548,2,0,P|412:299|407:233,1,135.000005149842,0|2,0:0|0:0,0:0:0:0:
338,187,76111,2,0,L|270:193,1,67.5000025749208,0|0,1:0|0:0,0:0:0:0:
138,139,76486,5,0,1:0:0:0:
309,74,76673,1,2,0:0:0:0:
374,245,76860,1,2,0:0:0:0:
203,310,77048,2,0,P|177:249|199:186,1,135.000005149842,0|2,1:0|0:0,0:0:0:0:
274,166,77611,1,4,1:2:0:0:
280,371,77798,1,0,0:0:0:0:
280,371,77892,1,0,0:0:0:0:
280,371,77986,6,0,L|96:333,1,180,0|0,1:0|1:0,0:0:0:0:
69,255,78548,70,0,L|296:213,1,225
183,68,79111,6,0,L|164:156,1,90,0|2,1:0|0:0,0:0:0:0:
352,268,79486,6,0,P|384:228|376:143,1,135.000005149842,0|0,1:0|1:0,0:0:0:0:
314,0,80048,2,0,P|282:40|290:125,1,135.000005149842
397,63,80611,1,0,1:0:0:0:
397,63,80798,1,2,0:0:0:0:
470,221,80986,69,0,1:0:0:0:
378,147,81173,2,0,L|453:136,1,67.5000025749208,0|2,0:0|1:2,0:0:0:0:
419,302,81548,2,0,P|352:311|292:284,1,135.000005149842,0|2,0:0|0:0,0:0:0:0:
225,234,82111,2,0,L|214:159,1,67.5000025749208,0|0,1:0|0:0,0:0:0:0:
237,70,82486,5,0,1:0:0:0:
199,301,82673,1,0,0:0:0:0:
366,136,82861,1,2,0:0:0:0:
134,171,83048,1,0,1:0:0:0:
342,279,83329,5,0,1:0:0:0:
342,279,83423,2,2,B|429:269|398:336|499:319,1,168.750006437302,6|0,1:2|0:0,0:1:0:0:
508,308,83986,22,0,P|473:236|485:157,1,161.999995056153,4|0,0:3|0:0,0:0:0:0:
441,96,84361,2,0,P|453:72|455:45,1,53.9999983520508,2|0,1:2|0:0,0:0:0:0:
244,176,84548,2,0,P|300:141|396:157,1,161.999995056153,4|0,1:3|0:0,0:0:0:0:
402,169,84923,1,2,1:2:0:0:
258,261,85111,2,0,L|205:248,1,53.9999983520508,4|0,0:3|0:0,0:0:0:0:
135,133,85298,2,0,L|187:120,1,53.9999983520508,2|0,0:0|0:0,0:0:0:0:
327,0,85486,85,4,0:3:0:0:
309,99,85673,1,0,0:0:0:0:
292,199,85861,1,2,1:2:0:0:
315,212,85954,1,0,0:1:0:0:
338,225,86048,2,0,P|366:223|395:204,1,53.9999983520508,4|0,0:3|0:0,0:0:0:0:
274,299,86236,21,0,0:0:0:0:
251,286,86329,2,0,P|223:288|194:307,1,53.9999983520508,0|2,0:0|1:2,0:0:0:0:
89,374,86517,1,0,0:0:0:0:
66,361,86611,2,0,L|54:253,1,107.999996704102,4|2,1:3|0:0,0:0:0:0:
162,82,86986,86,0,P|178:158|133:222,1,161.999995056153,4|0,0:3|0:0,0:0:0:0:
43,238,87361,2,0,L|37:184,1,53.9999983520508,2|0,1:2|0:0,0:0:0:0:
21,53,87548,2,0,P|97:36|161:81,1,161.999995056153,4|0,1:3|0:0,0:0:0:0:
168,96,87923,1,2,1:2:0:0:
223,228,88111,2,0,L|217:174,1,53.9999983520508,4|0,0:3|0:0,0:0:0:0:
261,96,88298,2,0,L|255:149,1,53.9999983520508,0|0,0:0|0:0,0:0:0:0:
237,309,88486,21,2,0:0:0:0:
237,309,88673,1,2,0:0:0:0:
310,292,88861,69,2,0:0:0:0:
310,292,89048,1,2,0:0:0:0:
383,275,89236,21,2,0:0:0:0:
456,258,89611,54,0,B|481:220|481:220|457:133,1,135,0|0,1:2|0:0,0:0:0:0:
438,128,89986,5,4,0:3:0:0:
261,191,90173,1,2,0:0:0:0:
294,6,90361,1,2,1:2:0:0:
332,96,90548,2,0,P|269:121|202:119,1,135,4|0,1:3|0:0,0:0:0:0:
190,106,90923,1,2,1:2:0:0:
117,6,91111,2,0,P|124:27|128:49,1,45,4|0,0:3|0:0,0:0:0:0:
167,237,91298,2,0,P|174:215|178:193,1,45,2|0,0:0|0:0,0:0:0:0:
44,41,91486,22,0,P|21:71|33:172,1,135,4|0,0:3|0:0,0:0:0:0:
87,215,91861,2,0,L|92:259,1,45,2|0,1:2|0:0,0:0:0:0:
236,263,92048,2,0,P|259:233|247:132,1,135,4|0,1:3|0:0,0:0:0:0:
241,131,92423,1,2,1:2:0:0:
170,43,92611,2,0,L|175:87,1,45,4|0,0:3|0:0,0:0:0:0:
348,93,92798,2,0,L|342:137,1,45,2|2,0:0|0:0,0:0:0:0:
306,229,92986,69,4,0:3:0:0:
306,229,93173,1,4,0:3:0:0:
101,141,93361,1,2,1:2:0:0:
268,6,93548,2,0,L|252:140,1,135,4|0,1:3|0:0,0:0:0:0:
244,154,93923,1,2,1:2:0:0:
75,283,94111,2,0,P|49:247|53:203,1,90,4|2,0:3|0:0,0:0:0:0:
53,203,94392,1,0,0:0:0:0:
53,203,94486,86,0,P|83:216|117:219,1,67.5000025749208,4|0,0:3|0:0,0:0:0:0:
185,297,94673,2,0,P|215:283|249:280,1,67.5000025749208,0|0,0:0|0:0,0:0:0:0:
330,195,94861,2,0,B|362:194|362:194|366:192|366:192|397:190,1,67.5000025749208,2|0,1:2|0:0,0:0:0:0:
378,332,95048,2,0,L|511:352,1,135.000005149842,2|4,0:0|0:3,0:0:0:0:
474,137,95423,21,2,1:2:0:0:
474,137,95611,2,0,L|476:181,1,45,2|0,0:0|0:0,0:0:0:0:
500,260,95798,2,0,L|497:215,1,45,2|0,0:0|0:0,0:0:0:0:
408,52,95986,86,0,P|357:111|378:185,1,161.999995056153,4|0,0:3|0:0,0:0:0:0:
420,254,96361,2,0,P|420:281|409:306,1,53.9999983520508,2|0,1:2|0:0,0:0:0:0:
186,343,96548,2,0,P|219:305|327:312,1,161.999995056153,4|0,1:3|0:0,0:0:0:0:
333,323,96923,1,2,1:2:0:0:
203,224,97111,2,0,L|194:166,1,53.9999983520508,4|0,0:3|0:0,0:0:0:0:
325,101,97298,2,0,L|316:154,1,53.9999983520508,2|0,0:0|0:0,0:0:0:0:
256,326,97486,85,4,0:3:0:0:
409,306,97673,1,0,0:0:0:0:
316,154,97861,1,2,1:2:0:0:
312,180,97954,1,0,0:1:0:0:
309,206,98048,2,0,L|362:214,1,53.9999983520508,4|0,0:3|0:0,0:0:0:0:
469,134,98236,21,0,0:0:0:0:
472,108,98329,2,0,L|418:99,1,53.9999983520508,0|2,0:0|1:2,0:0:0:0:
239,75,98517,1,0,0:0:0:0:
211,72,98611,2,0,P|185:118|194:170,1,107.999996704102,4|2,1:3|0:0,0:0:0:0:
323,309,98986,86,0,L|163:282,1,161.999995056153,4|0,0:3|0:0,0:0:0:0:
95,374,99361,2,0,L|148:364,1,53.9999983520508,2|0,1:2|0:0,0:0:0:0:
309,206,99548,2,0,L|149:179,1,161.999995056153,4|0,1:3|0:0,0:0:0:0:
134,186,99923,1,2,1:2:0:0:
70,299,100111,2,0,P|80:272|75:230,1,53.9999983520508,4|0,0:3|0:0,0:0:0:0:
13,175,100298,2,0,P|3:148|8:106,1,53.9999983520508,0|0,0:0|0:0,0:0:0:0:
132,4,100486,85,4,0:3:0:0:
73,92,100673,21,0,0:0:0:0:
223,171,100861,69,2,1:2:0:0:
70,299,101048,22,0,P|63:285|65:268,6,26.9999991760254
143,273,101423,70,0,L|217:284,1,53.9999983520508,2|0,1:2|0:0,0:0:0:0:
332,366,101611,2,0,P|410:362|464:304,1,161.999995056153,4|0,2:3|0:0,0:0:0:0:
468,286,101986,5,4,0:3:0:0:
274,225,102173,1,2,0:0:0:0:
423,87,102361,1,2,1:2:0:0:
504,158,102548,2,0,L|343:180,1,161.999995056153,4|0,1:3|0:0,0:0:0:0:
330,171,102923,1,2,1:2:0:0:
341,35,103111,2,0,L|333:88,1,53.9999983520508,4|0,0:3|0:0,0:0:0:0:
436,256,103298,2,0,L|428:202,1,53.9999983520508,2|0,0:0|0:0,0:0:0:0:
332,87,103486,22,0,P|264:46|184:44,1,161.999995056153,4|0,0:3|0:0,0:0:0:0:
132,103,103861,2,0,P|112:121|86:128,1,53.9999983520508,2|0,1:2|0:0,0:0:0:0:
183,280,104048,2,0,P|224:211|226:131,1,161.999995056153,4|0,1:3|0:0,0:0:0:0:
212,122,104423,1,2,1:2:0:0:
14,41,104611,2,0,L|10:94,1,53.9999983520508,4|0,0:3|0:0,0:0:0:0:
92,210,104798,2,0,L|88:263,1,53.9999983520508,2|0,0:0|0:0,0:0:0:0:
41,331,104986,69,4,0:3:0:0:
41,331,105173,1,4,0:3:0:0:
183,280,105361,1,2,1:2:0:0:
304,374,105548,2,0,P|268:303|266:223,1,161.999995056153,4|0,1:3|0:0,0:0:0:0:
277,209,105923,1,2,1:2:0:0:
466,154,106111,2,0,L|449:260,1,107.999996704102,4|2,0:3|0:0,0:0:0:0:
449,260,106392,1,0,0:0:0:0:
449,260,106486,86,0,P|421:278|388:275,1,67.5000025749208,4|0,0:3|0:0,0:0:0:0:
255,318,106673,2,0,P|225:302|211:272,1,67.5000025749208,0|0,0:0|0:0,0:0:0:0:
100,206,106861,2,0,B|99:174|99:174|97:170|97:170|95:139,1,67.5000025749208,2|0,1:2|0:0,0:0:0:0:
211,34,107048,2,0,L|198:168,1,135.000005149842,2|4,0:0|0:3,0:0:0:0:
34,316,107423,21,0,0:0:0:0:
34,316,107517,1,0,0:0:0:0:
61,291,107611,2,0,B|122:275|122:275|185:310,1,135.000005149842,2|2,1:2|0:0,0:0:0:0:
222,382,107892,1,2,0:0:0:0:
222,382,107986,22,0,L|370:371,1,135.000005149842,2|2,0:0|0:3,0:0:0:0:
460,321,108548,1,0,0:0:0:0:
427,312,108642,1,0,0:0:0:0:
394,303,108736,5,2,0:0:0:0:
377,207,108923,1,0,0:0:0:0:
360,111,109111,1,2,0:3:0:0:
360,111,109298,1,0,0:0:0:0:
225,15,109486,5,2,0:0:0:0:
211,91,109673,1,0,0:0:0:0:
197,168,109861,1,2,0:3:0:0:
197,168,110048,1,2,0:3:0:0:
65,262,110236,2,0,P|30:205|35:139,1,135.000005149842,2|2,0:0|0:3,0:0:0:0:
77,56,110798,1,2,0:0:0:0:
109,65,110892,1,2,0:0:0:0:
141,74,110986,70,0,L|288:61,1,135.000005149842,2|2,0:0|0:3,0:0:0:0:
351,17,111548,1,0,0:0:0:0:
460,122,111736,2,0,L|448:197,1,67.5000025749208,2|0,0:0|0:0,0:0:0:0:
291,221,112111,2,0,L|301:154,1,67.5000025749208,2|0,0:3|0:0,0:0:0:0:
301,154,112392,1,0,0:0:0:0:
301,154,112486,6,0,P|259:136|181:183,1,135.000005149842,2|2,0:0|0:3,0:0:0:0:
159,251,113048,2,0,L|167:293,1,33.7500012874604,0|0,0:0|0:0,0:0:0:0:
180,356,113236,1,2,0:0:0:0:
336,225,113423,2,0,L|344:267,1,33.7500012874604,0|0,0:0|0:0,0:0:0:0:
357,330,113611,2,0,L|253:311,1,101.250003862381,4|0,1:2|0:0,0:0:0:0:
243,299,113986,6,0,P|234:233|266:175,1,135.000005149842,2|2,0:0|0:3,0:0:0:0:
344,137,114548,1,0,0:0:0:0:
367,112,114642,1,0,0:0:0:0:
372,78,114736,1,2,0:0:0:0:
293,72,114923,1,0,0:0:0:0:
298,45,115017,1,0,0:0:0:0:
288,19,115111,1,2,0:3:0:0:
210,49,115298,1,2,0:0:0:0:
202,28,115392,1,2,0:0:0:0:
185,14,115486,70,0,L|105:26,1,67.5000025749208,2|0,0:0|0:0,0:0:0:0:
39,184,115861,1,2,0:3:0:0:
39,184,116048,1,2,0:3:0:0:
16,94,116236,2,0,L|155:117,1,135.000005149842,2|2,0:0|0:3,0:0:0:0:
215,214,116798,1,0,0:0:0:0:
248,209,116892,1,0,0:0:0:0:
281,204,116986,5,2,0:0:0:0:
367,23,117361,1,0,1:0:0:0:
293,72,117548,2,0,L|299:115,1,33.7500012874604,2|0,0:0|0:0,0:0:0:0:
365,155,117736,1,0,1:0:0:0:
437,264,117923,1,2,0:0:0:0:
432,283,118017,1,2,0:0:0:0:
427,302,118111,1,2,1:2:0:0:
349,249,118298,1,2,0:0:0:0:
345,264,118392,1,2,0:0:0:0:
341,279,118486,22,0,B|225:300|225:300|210:297|210:297|75:322,2,270.000010299683,4|4|6,0:3|1:3|1:2,0:0:0:0:
