osu file format v14

[General]
AudioFilename: audio.mp3
AudioLeadIn: 0
PreviewTime: 37412
Countdown: 0
SampleSet: Soft
StackLeniency: 0.3
Mode: 0
LetterboxInBreaks: 0
WidescreenStoryboard: 0

[Editor]
DistanceSpacing: 1
BeatDivisor: 4
GridSize: 32
TimelineZoom: 2.999999

[Metadata]
Title:A Bella! (feat. Lucy)
TitleUnicode:A Bella! (feat. Lucy)
Artist:M2U
ArtistUnicode:M2U
Creator:Pentori
Version:Extra
Source:하이파이브
Tags:lowcombofc lcfc HIGH5 DIVERSITY UICY-15598 Drug Step SQUARE MUSIQ OST PNIX Games
BeatmapID:1590446
BeatmapSetID:755647

[Difficulty]
HPDrainRate:6
CircleSize:4.9
OverallDifficulty:8.8
ApproachRate:9.1
SliderMultiplier:2
SliderTickRate:1

[Events]
//Background and Video events
0,0,"bg.jpg",0,0
//Break Periods
2,61686,63902
//Storyboard Layer 0 (Background)
//Storyboard Layer 1 (Fail)
//Storyboard Layer 2 (Pass)
//Storyboard Layer 3 (Foreground)
//Storyboard Sound Samples

[TimingPoints]
2986,375,4,2,0,60,1,0
2986,-111.111111111111,4,2,0,60,0,0
11048,-90.9090909090909,4,2,0,60,0,0
11611,-111.111111111111,4,2,0,60,0,0
14611,-90.9090909090908,4,2,0,60,0,0
14986,-142.857142857143,4,2,0,40,0,0
20048,-71.4285714285715,4,2,0,40,0,0
20329,-142.857142857143,4,2,0,40,0,0
24548,-111.111111111111,4,2,0,60,0,0
25486,-142.857142857143,4,2,0,50,0,0
30548,-111.111111111111,4,2,0,50,0,0
31486,-142.857142857143,4,2,0,50,0,0
36923,-62.5,4,2,0,80,0,0
37486,-83.3333333333333,4,2,0,70,0,1
38986,-71.4285714285714,4,2,0,70,0,1
40486,-83.3333333333333,4,2,0,70,0,1
41986,-71.4285714285714,4,2,0,70,0,1
43486,-83.3333333333333,4,2,0,70,0,1
47986,-71.4285714285714,4,2,0,70,0,1
48736,-200,4,2,0,70,0,0
48923,-200,4,2,0,40,0,0
49486,-83.3333333333333,4,2,0,70,0,1
50986,-71.4285714285714,4,2,0,70,0,1
52486,-83.3333333333333,4,2,0,70,0,1
53986,-71.4285714285714,4,2,0,70,0,1
55486,-83.3333333333333,4,2,0,70,0,1
59986,-71.4285714285714,4,2,0,70,0,1
60736,-83.3333333333333,4,2,0,70,0,0
60923,-83.3333333333333,4,2,0,60,0,0
66361,-83.3333333333333,4,2,0,5,0,0
66548,-142.857142857143,4,2,0,50,0,0
67111,-90.909090909091,4,2,0,60,0,0
67486,-142.857142857143,4,2,0,60,0,0
71236,-90.909090909091,4,2,0,60,0,0
71986,-142.857142857143,4,2,0,50,0,0
77048,-111.111111111111,4,2,0,50,0,0
77986,-142.857142857143,4,2,0,50,0,0
82298,-111.111111111111,4,2,0,50,0,0
83423,-62.5,4,2,0,80,0,0
83986,-83.3333333333333,4,2,0,70,0,1
85486,-71.4285714285714,4,2,0,70,0,1
86986,-83.3333333333333,4,2,0,70,0,1
88486,-142.857142857143,4,2,0,40,0,0
89611,-90.9090909090909,4,2,0,70,0,0
89986,-83.3333333333333,4,2,0,70,0,1
94486,-71.4285714285714,4,2,0,70,0,1
95236,-71.4285714285714,4,2,0,70,0,0
95423,-71.4285714285714,4,2,0,60,0,0
95986,-83.3333333333333,4,2,0,70,0,1
97486,-71.4285714285714,4,2,0,70,0,1
98986,-83.3333333333333,4,2,0,70,0,1
100486,-71.4285714285714,4,2,0,70,0,1
101986,-83.3333333333333,4,2,0,70,0,1
106486,-71.4285714285714,4,2,0,70,0,1
107236,-83.3333333333333,4,2,0,70,0,0
107423,-83.3333333333333,4,2,0,60,0,0
107986,-142.857142857143,4,2,0,40,0,0
113611,-111.111111111111,4,2,0,40,0,0
113986,-142.857142857143,4,2,0,40,0,0
118486,-71.4285714285715,4,2,0,70,0,0

[Colours]
Combo1 : 128,128,128
Combo2 : 255,164,255
Combo3 : 155,205,255
Combo4 : 197,138,255
Combo5 : 255,4,4
Combo6 : 192,192,192
Combo7 : 255,128,0

[HitObjects]
192,96,2986,5,4,1:2:0:0:
130,30,3173,1,0,0:0:0:0:
41,45,3361,2,0,L|49:-7,1,44.999998626709,2|0,0:0|0:0,0:0:0:0:
4,169,3548,6,0,P|69:132|130:155,1,134.999995880127,0|0,1:0|0:0,0:0:0:0:
72,212,3923,1,0,0:0:0:0:
192,96,4111,2,0,P|213:141|205:181,1,89.9999972534181,0|2,1:0|0:0,0:0:0:0:
100,340,4486,5,0,1:0:0:0:
158,271,4673,1,0,0:0:0:0:
244,296,4861,2,0,L|296:288,1,44.999998626709,2|0,0:0|0:0,0:0:0:0:
404,358,5048,70,0,B|332:332|341:394|251:370,1,134.999995880127,0|0,1:0|0:0,0:0:0:0:
288,289,5423,1,0,0:0:0:0:
512,383,5611,2,0,L|497:286,1,89.9999972534181,0|2,1:0|0:0,0:0:0:0:
324,135,5986,5,0,1:0:0:0:
386,201,6173,1,0,0:0:0:0:
475,186,6361,2,0,L|481:141,1,44.999998626709,2|0,0:0|0:0,0:0:0:0:
288,289,6548,6,0,B|345:280|345:280|368:288|368:288|430:278,1,134.999995880127,0|0,1:0|0:0,0:0:0:0:
498,294,6923,1,2,0:0:0:0:
386,201,7111,1,0,1:0:0:0:
329,375,7298,1,0,0:0:0:0:
330,366,7391,1,0,0:0:0:0:
331,357,7486,69,0,1:0:0:0:
288,289,7673,1,2,0:0:0:0:
210,308,7861,2,0,L|204:263,2,44.999998626709,0|0|0,1:0|0:0|0:0,0:0:0:0:
386,201,8236,5,0,1:0:0:0:
308,181,8424,2,0,L|314:136,2,44.999998626709,0|0|0,0:0|0:0|1:0,0:0:0:0:
204,263,8798,2,0,L|249:257,1,44.999998626709,4|0,0:0|0:0,0:0:0:0:
401,121,8986,5,0,1:0:0:0:
314,136,9173,1,0,0:0:0:0:
250,70,9361,2,0,L|205:63,1,44.999998626709,2|0,0:0|0:0,0:0:0:0:
444,52,9548,70,0,P|481:117|458:178,1,134.999995880127,0|0,1:0|0:0,0:0:0:0:
401,121,9923,1,0,0:0:0:0:
499,260,10111,2,0,L|410:246,1,89.9999972534181,0|2,1:0|0:0,0:0:0:0:
234,226,10486,5,0,1:0:0:0:
215,104,10673,1,0,0:0:0:0:
253,348,10861,2,0,L|259:303,1,44.999998626709,2|0,0:0|0:0,0:0:0:0:
401,121,11048,6,0,B|284:136|284:136|296:83,1,165.000005035401,0|0,1:0|0:0,0:0:0:0:
215,104,11423,1,0,0:0:0:0:
460,175,11611,2,0,P|481:130|473:90,1,89.9999972534181,0|2,1:0|0:0,0:0:0:0:
322,212,11986,70,0,L|367:206,1,44.999998626709,0|0,1:0|0:0,0:0:0:0:
489,270,12173,2,0,L|444:264,1,44.999998626709,0|0,1:0|0:0,0:0:0:0:
366,322,12361,1,2,0:0:0:0:
481,42,12548,6,0,L|460:175,1,134.999995880127,0|0,1:0|0:0,0:0:0:0:
444,264,12923,1,0,1:0:0:0:
321,98,13111,1,0,1:0:0:0:
505,169,13298,2,0,L|460:175,1,44.999998626709,0|0,0:0|0:0,0:0:0:0:
369,186,13486,5,0,1:0:0:0:
397,8,13673,1,2,0:0:0:0:
235,150,13861,69,2,1:2:0:0:
249,239,14049,1,2,0:0:0:0:
263,328,14236,1,2,1:2:0:0:
263,328,14611,6,0,B|146:313|146:313|158:366,1,165.000005035401,4|0,1:2|0:0,0:0:0:0:
156,359,14986,6,0,L|178:219,1,139.999995727539,0|2,1:0|0:0,0:0:0:0:
142,152,15548,2,0,P|204:192|267:172,1,139.999995727539,0|0,1:0|0:0,0:0:0:0:
225,46,16111,2,0,P|210:77|214:115,1,69.9999978637696,0|2,1:0|0:0,0:0:0:0:
263,175,16486,69,0,1:0:0:0:
337,157,16673,1,0,0:0:0:0:
390,313,16861,1,2,0:0:0:0:
316,295,17048,2,0,L|337:156,1,139.999995727539,0|0,1:0|0:0,0:0:0:0:
314,82,17611,2,0,L|403:68,1,69.9999978637696,0|2,1:0|0:0,0:0:0:0:
382,80,17892,1,0,0:0:0:0:
381,89,17987,5,0,1:0:0:0:
239,29,18173,2,0,L|225:118,1,69.9999978637696,0|2,0:0|0:0,0:0:0:0:
113,166,18548,2,0,B|185:140|176:202|266:178,1,139.999995727539,0|0,1:0|0:0,0:0:0:0:
337,156,19111,1,0,1:0:0:0:
314,310,19298,1,2,0:0:0:0:
403,284,19486,6,0,L|472:273,1,69.9999978637696,0|0,1:0|0:0,0:0:0:0:
506,290,19767,2,0,L|510:255,1,34.9999989318848,0|0,0:0|1:0,0:0:0:0:
248,182,20048,70,0,L|213:186,4,34.9999989318848,2|0|0|0|0,0:0|0:0|0:0|0:0|1:0,0:0:0:0:
180,169,20329,2,0,L|175:203,1,34.9999989318848,0|0,0:0|0:0,0:0:0:0:
314,310,20611,2,0,L|325:241,1,69.9999978637696,0|2,1:0|0:0,0:0:0:0:
369,159,20986,6,0,P|307:199|244:179,1,139.999995727539,0|2,1:0|0:0,0:0:0:0:
175,203,21548,2,0,B|166:147|166:147|174:125|174:125|164:65,1,139.999995727539,0|0,1:0|0:0,0:0:0:0:
102,19,22111,2,0,P|87:50|91:88,1,69.9999978637696,0|2,1:0|0:0,0:0:0:0:
175,203,22486,5,0,1:0:0:0:
235,130,22673,1,0,0:0:0:0:
81,187,22861,1,2,0:0:0:0:
208,291,23048,2,0,L|347:270,1,139.999995727539,0|0,1:0|0:0,0:0:0:0:
409,315,23611,2,0,L|395:404,1,69.9999978637696,0|2,1:0|0:0,0:0:0:0:
407,383,23892,1,0,0:0:0:0:
416,382,23987,69,0,1:0:0:0:
512,244,24173,2,0,P|480:228|446:231,1,69.9999978637696,0|2,1:0|0:0,0:0:0:0:
354,30,24548,2,0,P|419:67|480:44,1,134.999995880127,0|0,1:0|0:0,0:0:0:0:
507,67,24923,2,0,L|513:22,1,44.999998626709,0|0,1:0|0:0,0:0:0:0:
447,231,25111,2,0,L|358:245,1,89.9999972534181,4|2,1:2|0:0,0:0:0:0:
287,313,25486,5,0,1:0:0:0:
219,277,25673,1,0,0:0:0:0:
147,306,25861,1,0,1:0:0:0:
122,380,26048,2,0,L|53:369,1,69.9999978637696,0|0,0:0|1:0,0:0:0:0:
292,236,26423,1,0,0:0:0:0:
219,277,26611,2,0,L|208:208,1,69.9999978637696,0|2,1:0|0:0,0:0:0:0:
128,92,26986,5,0,1:0:0:0:
196,128,27173,1,0,0:0:0:0:
268,99,27361,1,0,1:0:0:0:
293,25,27548,2,0,L|362:36,1,69.9999978637696,0|0,0:0|1:0,0:0:0:0:
123,169,27923,1,0,0:0:0:0:
196,128,28111,2,0,L|210:217,1,69.9999978637696,0|2,1:0|0:0,0:0:0:0:
198,196,28392,1,2,0:0:0:0:
189,195,28487,1,0,1:0:0:0:
310,305,28673,69,0,0:0:0:0:
240,271,28861,1,2,1:2:0:0:
185,325,29048,2,0,P|153:341|119:338,1,69.9999978637696,0|0,0:0|1:0,0:0:0:0:
301,221,29423,1,2,0:0:0:0:
368,260,29611,2,0,P|384:292|381:326,1,69.9999978637696,0|0,1:0|0:0,0:0:0:0:
240,271,29986,5,0,1:0:0:0:
209,74,30173,1,2,0:0:0:0:
54,200,30361,1,2,0:0:0:0:
277,118,30548,2,0,P|212:155|151:132,1,134.999995880127,0|0,1:0|0:0,0:0:0:0:
124,155,30923,2,0,L|118:110,1,44.999998626709,2|0,0:0|0:0,0:0:0:0:
240,271,31111,1,4,1:2:0:0:
211,56,31298,1,0,0:0:0:0:
210,65,31393,1,0,0:0:0:0:
209,74,31486,5,0,1:0:0:0:
245,143,31673,1,0,0:0:0:0:
320,160,31861,1,0,1:0:0:0:
382,114,32048,2,0,P|398:146|395:180,1,69.9999978637696,0|0,0:0|1:0,0:0:0:0:
209,74,32423,1,0,0:0:0:0:
176,154,32611,2,0,L|245:143,1,69.9999978637696,0|2,1:0|0:0,0:0:0:0:
382,114,32986,69,0,1:0:0:0:
451,150,33173,1,0,0:0:0:0:
468,225,33361,1,0,1:0:0:0:
422,287,33548,2,0,P|454:303|488:300,1,69.9999978637696,0|0,0:0|1:0,0:0:0:0:
382,114,33923,1,0,0:0:0:0:
462,81,34111,2,0,L|451:150,1,69.9999978637696,0|2,1:0|0:0,0:0:0:0:
460,149,34392,1,0,0:0:0:0:
469,148,34487,1,0,1:0:0:0:
320,164,34673,5,0,0:0:0:0:
374,219,34860,1,2,1:2:0:0:
340,289,35048,2,0,L|271:278,1,69.9999978637696,0|0,0:0|1:0,0:0:0:0:
512,208,35423,1,2,0:0:0:0:
484,280,35611,2,0,L|495:349,1,69.9999978637696,0|0,1:0|0:0,0:0:0:0:
350,73,35986,5,0,1:0:0:0:
271,278,36173,1,0,0:0:0:0:
177,36,36361,1,2,0:0:0:0:
414,197,36548,1,0,1:0:0:0:
417,200,36829,5,0,1:0:0:0:
417,200,36923,2,2,L|96:148,1,320,6|0,1:2|0:0,0:1:0:0:
120,138,37392,1,0,0:0:0:0:
200,184,37486,6,0,L|319:165,1,119.999996337891,4|0,0:3|0:0,0:0:0:0:
204,10,37861,2,0,P|219:38|217:68,1,59.9999981689454,2|0,1:2|0:0,0:0:0:0:
55,248,38048,2,0,B|153:216|142:290|237:265,1,179.999994506836,4|0,1:3|0:0,0:0:0:0:
352,216,38423,2,0,L|341:285,1,59.9999981689454,2|0,1:2|0:0,0:0:0:0:
200,184,38611,1,4,0:3:0:0:
421,116,38798,1,2,0:0:0:0:
214,268,38986,86,0,P|180:267|150:250,1,69.9999978637696,4|0,0:3|0:0,0:0:0:0:
436,286,39173,2,0,P|454:316|454:351,1,69.9999978637696
352,216,39361,1,2,1:2:0:0:
324,152,39454,1,0,0:1:0:0:
343,84,39548,2,0,P|360:55|390:37,1,69.9999978637696,4|0,0:3|0:0,0:0:0:0:
200,184,39736,21,0,0:0:0:0:
131,173,39829,2,0,L|62:162,1,69.9999978637696,0|2,0:0|1:2,0:0:0:0:
297,308,40017,1,0,0:0:0:0:
366,297,40111,2,0,L|435:286,2,69.9999978637696,4|0|2,1:3|0:0|0:0,0:0:0:0:
91,55,40486,86,0,P|56:110|69:174,1,119.999996337891,4|2,0:3|0:0,0:0:0:0:
407,98,40861,2,0,L|396:167,1,59.9999981689454,2|0,1:2|0:0,0:0:0:0:
136,124,41048,2,0,B|208:112|208:112|238:122|238:122|317:109,1,179.999994506836,4|0,1:3|0:0,0:0:0:0:
476,49,41423,2,0,P|491:77|489:107,1,59.9999981689454,2|0,1:2|0:0,0:0:0:0:
388,216,41611,2,0,L|407:97,1,119.999996337891,4|0,0:3|0:0,0:0:0:0:
233,307,41986,86,0,P|267:306|297:288,1,69.9999978637696,4|0,0:3|0:0,0:0:0:0:
507,350,42173,2,0,P|474:339|451:312,1,69.9999978637696
399,147,42361,2,0,L|388:216,1,69.9999978637696,2|0,1:2|0:0,0:0:0:0:
364,375,42548,2,0,L|369:340,3,34.9999989318848,0|0|0|0,0:0|0:0|0:0|0:0,0:1:0:0:
375,307,42736,22,0,L|306:318,1,69.9999978637696,4|0,0:3|0:0,0:0:0:0:
151,202,42923,2,0,L|82:213,1,69.9999978637696,2|0,1:2|0:0,0:0:0:0:
388,216,43111,2,0,B|233:240|233:240|247:169,1,209.999993591309,4|0,1:3|0:0,0:0:0:0:
256,111,43486,85,4,0:3:0:0:
151,202,43673,1,2,0:0:0:0:
70,0,43861,2,0,P|55:28|57:58,1,59.9999981689454,2|0,1:2|0:0,0:0:0:0:
296,266,44048,2,0,B|198:234|209:308|114:283,1,179.999994506836,4|0,1:3|0:0,0:0:0:0:
256,111,44423,2,0,L|245:180,1,59.9999981689454,2|0,1:2|0:0,0:0:0:0:
50,229,44611,2,0,L|59:169,1,59.9999981689454,4|0,0:3|0:0,0:0:0:0:
151,202,44798,1,2,0:0:0:0:
3,372,44986,22,0,L|122:353,1,119.999996337891,4|2,0:3|0:0,0:0:0:0:
215,158,45361,2,0,P|229:183|228:213,1,59.9999981689454,2|0,1:2|0:0,0:0:0:0:
4,243,45548,2,0,P|77:181|168:221,1,179.999994506836,4|0,1:3|0:0,0:0:0:0:
245,296,45923,2,0,L|185:286,1,59.9999981689454,2|0,1:2|0:0,0:0:0:0:
91,271,46111,1,4,0:3:0:0:
370,227,46298,69,2,0:0:0:0:
369,236,46393,1,2,0:0:0:0:
368,245,46486,2,0,L|358:185,1,59.9999981689454,4|0,0:3|0:0,0:0:0:0:
509,273,46673,2,0,L|499:213,1,59.9999981689454,4|0,0:3|0:0,0:0:0:0:
255,355,46861,2,0,L|245:295,1,59.9999981689454,2|0,1:2|0:0,0:0:0:0:
498,358,47048,2,0,B|454:353|427:311|427:311|384:343|316:329,1,179.999994506836,4|0,1:3|0:0,0:0:0:0:
175,246,47423,2,0,P|160:274|162:304,1,59.9999981689454,2|0,1:2|0:0,0:0:0:0:
368,245,47611,2,0,L|349:126,1,119.999996337891,4|2,0:3|0:0,0:0:0:0:
161,301,47986,86,0,L|92:290,1,69.9999978637696,4|0,0:3|0:0,0:0:0:0:
368,245,48173,2,0,L|437:256,1,69.9999978637696
192,111,48361,2,0,L|123:100,1,69.9999978637696,4|0,0:3|0:0,0:0:0:0:
399,55,48548,1,2,1:2:0:0:
399,55,48736,1,0,0:0:0:0:
473,355,48923,22,0,L|467:320,1,25,2|0,0:0|0:0,0:0:0:0:
472,364,49111,2,0,L|466:329,1,25,2|0,0:0|0:0,0:0:0:0:
471,373,49298,2,0,L|465:338,1,25,2|0,0:0|0:0,0:0:0:0:
255,116,49486,86,0,P|288:164|283:223,1,119.999996337891,4|0,0:3|0:0,0:0:0:0:
366,305,49767,1,0,0:0:0:0:
347,294,49860,2,0,L|407:284,1,59.9999981689454,2|0,1:2|0:0,0:0:0:0:
67,212,50048,2,0,B|196:192|196:192|186:241,1,179.999994506836,4|0,1:3|0:0,0:0:0:0:
388,102,50423,2,0,P|417:100|443:84,1,59.9999981689454,2|0,1:2|0:0,0:0:0:0:
296,168,50611,2,0,P|282:193|283:223,1,59.9999981689454,4|0,0:3|0:0,0:0:0:0:
285,55,50798,2,0,P|270:30|244:15,1,59.9999981689454,2|0,0:0|0:0,0:0:0:0:
67,212,50986,86,0,L|78:143,1,69.9999978637696,4|0,0:3|0:0,0:0:0:0:
175,309,51173,2,0,L|186:240,1,69.9999978637696
419,245,51361,1,2,1:2:0:0:
352,264,51454,1,0,0:0:0:0:
305,212,51548,2,0,L|316:143,1,69.9999978637696,4|0,0:3|0:0,0:0:0:0:
17,108,51736,21,0,0:0:0:0:
78,142,51830,2,0,P|112:141|142:123,1,69.9999978637696,0|2,0:0|1:2,0:0:0:0:
346,21,52017,1,0,0:0:0:0:
285,55,52111,2,0,P|251:54|221:36,2,69.9999978637696,4|0|2,1:3|0:0|0:0,0:0:0:0:
217,366,52486,86,0,L|236:247,1,119.999996337891,4|2,0:3|0:0,0:0:0:0:
360,105,52861,2,0,P|387:120|416:118,1,59.9999981689454,2|0,1:2|0:0,0:0:0:0:
149,219,53048,2,0,P|222:157|313:197,1,179.999994506836,4|0,1:3|0:0,0:0:0:0:
354,255,53423,2,0,L|344:315,1,59.9999981689454,2|0,1:2|0:0,0:0:0:0:
467,77,53611,2,0,P|419:110|360:105,1,119.999996337891,4|0,0:3|0:0,0:0:0:0:
51,69,53986,86,0,L|40:0,1,69.9999978637696,4|0,0:3|0:0,0:0:0:0:
248,100,54173,2,0,L|280:38,1,69.9999978637696
110,320,54361,2,0,L|121:251,1,69.9999978637696,2|0,1:2|0:0,0:0:0:0:
153,54,54548,22,0,B|144:107|144:107|152:131|152:131|122:174|122:174|130:199|130:199|119:263,1,209.999993591309,2|0,1:2|0:0,0:0:0:0:
204,300,54923,2,0,L|273:289,1,69.9999978637696,2|0,1:2|0:0,0:0:0:0:
58,377,55111,2,0,B|135:365|135:365|177:389|177:389|279:373,1,209.999993591309,4|0,1:3|0:0,0:0:0:0:
352,352,55486,85,4,0:3:0:0:
279,187,55673,1,2,0:0:0:0:
467,297,55861,2,0,L|407:287,1,59.9999981689454,2|0,1:2|0:0,0:0:0:0:
253,100,56048,2,0,P|191:173|231:264,1,179.999994506836,4|0,1:3|0:0,0:0:0:0:
383,86,56423,2,0,L|373:26,1,59.9999981689454,2|0,1:2|0:0,0:0:0:0:
279,187,56611,2,0,L|339:197,1,59.9999981689454,4|0,0:3|0:0,0:0:0:0:
461,220,56798,1,2,0:0:0:0:
231,365,56986,22,0,L|212:246,1,119.999996337891,4|2,0:3|0:0,0:0:0:0:
370,30,57361,2,0,P|385:57|383:86,1,59.9999981689454,2|0,1:2|0:0,0:0:0:0:
167,167,57548,2,0,B|265:135|254:209|349:184,1,179.999994506836,4|0,1:3|0:0,0:0:0:0:
471,161,57923,2,0,L|461:221,1,59.9999981689454,2|0,1:2|0:0,0:0:0:0:
445,315,58111,1,4,0:3:0:0:
385,67,58298,69,2,0:0:0:0:
384,76,58393,1,2,0:0:0:0:
383,85,58486,2,0,L|443:75,1,59.9999981689454,4|0,0:3|0:0,0:0:0:0:
227,157,58673,2,0,L|167:167,1,59.9999981689454,4|0,0:3|0:0,0:0:0:0:
330,245,58861,2,0,L|340:185,1,59.9999981689454,2|0,1:2|0:0,0:0:0:0:
98,279,59048,2,0,B|227:259|227:259|217:308,1,179.999994506836,4|0,1:3|0:0,0:0:0:0:
104,123,59423,2,0,P|89:150|91:179,1,59.9999981689454,2|0,1:2|0:0,0:0:0:0:
330,245,59611,2,0,L|449:226,1,119.999996337891,4|2,0:3|0:0,0:0:0:0:
124,59,59986,86,0,P|105:88|104:123,1,69.9999978637696,4|0,0:3|0:0,0:0:0:0:
198,371,60173,2,0,P|199:336|217:306,1,69.9999978637696
428,156,60361,2,0,L|359:167,1,69.9999978637696,2|0,1:2|0:0,0:0:0:0:
70,202,60548,1,2,0:0:0:0:
70,202,60736,1,4,0:3:0:0:
307,270,60923,5,0,0:0:0:0:
216,306,61111,2,0,L|245:124,1,179.999994506836,2|0,1:2|0:0,0:0:0:0:
257,51,61486,21,0,0:0:0:0:
256,192,64486,12,0,66361,0:0:0:0:
318,137,66548,6,0,L|332:48,2,69.9999978637696,4|0|2,0:3|0:0|0:0,0:0:0:0:
402,227,67111,2,0,P|340:175|255:196,1,165.000005035401,0|0,1:0|0:0,0:0:0:0:
211,273,67486,5,0,1:0:0:0:
149,207,67673,1,0,0:0:0:0:
60,222,67861,2,0,L|68:170,1,34.9999989318848,2|0,0:0|0:0,0:0:0:0:
79,93,68048,1,0,1:0:0:0:
70,94,68141,1,0,0:0:0:0:
61,95,68236,1,0,0:0:0:0:
219,42,68423,1,0,0:0:0:0:
294,107,68611,1,0,1:0:0:0:
292,125,68704,1,0,0:0:0:0:
290,144,68799,1,2,0:0:0:0:
288,160,68892,1,0,0:0:0:0:
286,176,68986,5,0,1:0:0:0:
465,288,69173,1,0,0:0:0:0:
446,263,69266,1,0,0:0:0:0:
418,249,69360,1,2,0:0:0:0:
386,249,69454,1,0,0:0:0:0:
359,264,69548,2,0,L|369:194,1,69.9999978637696,0|0,1:0|0:0,0:0:0:0:
460,159,69923,1,0,0:0:0:0:
327,350,70111,2,0,L|397:340,1,69.9999978637696,0|2,1:0|0:0,0:0:0:0:
269,235,70486,69,0,1:0:0:0:
179,295,70674,2,0,L|187:243,1,34.9999989318848,0|0,0:0|0:0,0:0:0:0:
124,189,70861,1,2,0:0:0:0:
139,162,70955,1,0,0:0:0:0:
139,130,71049,1,0,0:0:0:0:
125,102,71143,1,0,0:0:0:0:
100,83,71236,6,0,B|217:98|217:98|205:45,1,165.000005035401,4|0,1:2|0:0,0:0:0:0:
397,27,71611,2,0,B|280:12|280:12|292:65,1,165.000005035401,4|0,1:2|0:0,0:0:0:0:
306,142,71986,5,0,1:0:0:0:
382,131,72173,1,0,0:0:0:0:
392,207,72361,1,0,1:0:0:0:
315,217,72548,2,0,L|245:207,1,69.9999978637696,0|0,0:0|1:0,0:0:0:0:
382,131,72923,1,0,0:0:0:0:
452,160,73111,2,0,P|468:192|465:226,1,69.9999978637696,0|2,1:0|0:0,0:0:0:0:
159,272,73486,69,0,1:0:0:0:
235,283,73673,1,0,0:0:0:0:
245,207,73861,1,0,1:0:0:0:
168,197,74048,2,0,L|98:207,1,69.9999978637696,0|0,0:0|1:0,0:0:0:0:
235,283,74423,1,0,0:0:0:0:
305,254,74611,2,0,P|321:222|318:188,1,69.9999978637696,0|2,1:0|0:0,0:0:0:0:
319,179,74892,1,0,0:0:0:0:
320,170,74987,1,0,1:0:0:0:
167,57,75173,5,0,0:0:0:0:
225,107,75361,1,2,1:2:0:0:
295,77,75548,2,0,L|365:67,1,69.9999978637696,0|0,0:0|1:0,0:0:0:0:
152,132,75923,1,2,0:0:0:0:
211,183,76111,2,0,L|201:253,1,69.9999978637696,0|0,1:0|0:0,0:0:0:0:
90,368,76486,5,0,1:0:0:0:
121,171,76673,1,2,0:0:0:0:
276,297,76861,1,2,0:0:0:0:
32,251,77048,2,0,B|89:242|89:242|112:250|112:250|174:240,1,134.999995880127,0|0,1:0|0:0,0:0:0:0:
201,252,77423,2,0,L|207:207,1,44.999998626709,2|0,0:0|0:0,0:0:0:0:
90,368,77611,1,4,1:2:0:0:
119,153,77798,1,0,0:0:0:0:
120,162,77893,1,0,0:0:0:0:
121,171,77986,69,0,1:0:0:0:
132,247,78173,1,0,0:0:0:0:
56,257,78361,1,0,1:0:0:0:
46,180,78548,2,0,L|56:110,1,69.9999978637696,0|0,0:0|1:0,0:0:0:0:
132,247,78923,1,0,0:0:0:0:
103,317,79111,2,0,P|71:333|37:330,1,69.9999978637696,0|2,1:0|0:0,0:0:0:0:
197,186,79486,5,0,1:0:0:0:
208,110,79673,1,0,0:0:0:0:
132,100,79861,1,0,1:0:0:0:
122,177,80048,2,0,L|132:247,1,69.9999978637696,0|0,0:0|1:0,0:0:0:0:
208,110,80423,1,0,0:0:0:0:
179,40,80611,2,0,P|147:24|113:27,1,69.9999978637696,0|2,1:0|0:0,0:0:0:0:
114,17,80892,1,0,0:0:0:0:
115,8,80987,1,0,1:0:0:0:
132,246,81173,5,0,0:0:0:0:
190,296,81361,1,2,1:2:0:0:
260,266,81548,2,0,L|330:256,1,69.9999978637696,0|0,0:0|1:0,0:0:0:0:
117,321,81923,1,2,0:0:0:0:
208,110,82111,1,0,1:0:0:0:
260,266,82298,2,0,L|266:221,1,44.999998626709,0|0,0:0|0:0,0:0:0:0:
124,120,82486,69,0,1:0:0:0:
396,220,82673,1,0,0:0:0:0:
117,321,82861,1,2,0:0:0:0:
268,55,83048,1,0,1:0:0:0:
271,58,83329,37,0,1:0:0:0:
271,58,83423,2,2,L|323:379,1,320,6|0,1:2|0:0,0:1:0:0:
333,355,83892,1,0,0:0:0:0:
287,275,83986,6,0,P|232:240|168:253,1,119.999996337891,4|0,0:3|0:0,0:0:0:0:
66,102,84361,2,0,P|91:116|121:115,1,59.9999981689454,2|0,1:2|0:0,0:0:0:0:
335,64,84548,2,0,B|206:44|206:44|216:93,1,179.999994506836,4|0,1:3|0:0,0:0:0:0:
180,246,84923,2,0,L|189:186,1,59.9999981689454,2|0,1:2|0:0,0:0:0:0:
109,40,85111,1,4,0:3:0:0:
294,148,85298,1,2,0:0:0:0:
46,213,85486,86,0,P|47:179|65:149,1,69.9999978637696,4|0,0:3|0:0,0:0:0:0:
216,92,85673,2,0,P|197:121|196:156,1,69.9999978637696
416,325,85861,1,2,1:2:0:0:
343,349,85954,1,0,0:1:0:0:
291,291,86048,2,0,P|292:256|311:227,1,69.9999978637696,4|0,0:3|0:0,0:0:0:0:
509,157,86236,21,0,0:0:0:0:
440,146,86329,2,0,L|371:135,1,69.9999978637696,0|2,0:0|1:2,0:0:0:0:
147,103,86517,1,0,0:0:0:0:
216,92,86610,2,0,L|285:81,2,69.9999978637696,4|0|2,1:3|0:0|0:0,0:0:0:0:
174,329,86986,86,0,B|123:298|123:298|60:312,1,119.999996337891,4|2,0:3|0:0,0:0:0:0:
216,92,87361,2,0,P|230:117|229:147,1,59.9999981689454,2|0,1:2|0:0,0:0:0:0:
81,215,87548,2,0,B|179:183|168:257|263:232,1,179.999994506836,4|0,1:3|0:0,0:0:0:0:
385,209,87923,2,0,L|375:269,1,59.9999981689454,2|0,1:2|0:0,0:0:0:0:
315,158,88111,2,0,P|363:124|422:129,1,119.999996337891,4|0,0:3|0:0,0:0:0:0:
447,295,88486,21,2,0:0:0:0:
375,268,88673,1,2,0:0:0:0:
317,319,88861,2,0,L|321:354,1,34.9999989318848,2|0,0:0|0:0,0:0:0:0:
314,364,89048,2,0,L|310:329,1,34.9999989318848,2|0,0:0|0:0,0:0:0:0:
238,302,89236,2,0,L|169:291,1,69.9999978637696,2|0,0:0|0:0,0:0:0:0:
0,327,89611,54,0,P|60:378|139:364,1,165.000005035401,0|0,1:2|0:0,0:0:0:0:
169,291,89986,5,4,0:3:0:0:
141,113,90173,1,2,0:0:0:0:
155,202,90361,2,0,L|95:192,1,59.9999981689454,2|0,1:2|0:0,0:0:0:0:
317,127,90548,2,0,B|245:115|245:115|215:125|215:125|136:112,1,179.999994506836,4|0,1:3|0:0,0:0:0:0:
261,201,90923,2,0,P|275:226|274:256,1,59.9999981689454,2|0,1:2|0:0,0:0:0:0:
203,39,91111,2,0,P|217:14|244:0,1,59.9999981689454,4|0,0:3|0:0,0:0:0:0:
92,171,91298,2,0,P|63:170|37:154,1,59.9999981689454,2|0,0:0|0:0,0:0:0:0:
317,127,91486,22,0,L|436:108,1,119.999996337891,4|2,0:3|0:0,0:0:0:0:
244,0,91861,2,0,P|259:28|257:58,1,59.9999981689454,2|0,1:2|0:0,0:0:0:0:
179,239,92048,2,0,B|223:234|250:192|250:192|293:224|361:210,1,179.999994506836,4|0,1:3|0:0,0:0:0:0:
178,96,92423,2,0,P|164:122|166:152,1,59.9999981689454,2|0,1:2|0:0,0:0:0:0:
317,127,92611,1,4,0:3:0:0:
259,334,92798,69,2,0:0:0:0:
260,343,92893,1,2,0:0:0:0:
261,352,92986,2,0,L|271:292,1,59.9999981689454,4|0,0:3|0:0,0:0:0:0:
109,272,93173,2,0,L|169:262,1,59.9999981689454,4|0,0:3|0:0,0:0:0:0:
421,356,93361,2,0,L|361:346,1,59.9999981689454,2|0,1:2|0:0,0:0:0:0:
230,196,93548,2,0,B|328:164|317:238|412:213,1,179.999994506836,4|0,1:3|0:0,0:0:0:0:
493,242,93923,2,0,P|508:270|506:300,1,59.9999981689454,2|0,1:2|0:0,0:0:0:0:
377,127,94111,2,0,L|396:8,1,119.999996337891,4|2,0:3|0:0,0:0:0:0:
228,91,94486,86,0,P|262:90|292:72,1,69.9999978637696,4|0,0:3|0:0,0:0:0:0:
45,240,94673,2,0,P|27:211|-3:194,1,69.9999978637696
267,324,94861,2,0,P|250:353|251:388,1,69.9999978637696,2|0,1:2|0:0,0:0:0:0:
186,201,95048,1,2,0:0:0:0:
186,201,95236,1,4,0:3:0:0:
440,322,95423,22,0,L|371:311,1,69.9999978637696,2|0,1:2|0:0,0:0:0:0:
267,324,95611,1,2,0:0:0:0:
245,259,95704,1,0,0:0:0:0:
277,199,95798,1,2,0:0:0:0:
343,183,95892,1,0,0:0:0:0:
400,220,95986,86,0,L|381:101,1,119.999996337891,4|0,0:3|0:0,0:0:0:0:
472,20,96267,1,0,0:0:0:0:
453,31,96360,2,0,L|513:41,1,59.9999981689454,2|0,1:2|0:0,0:0:0:0:
274,118,96548,2,0,B|145:98|145:98|155:147,1,179.999994506836,4|0,1:3|0:0,0:0:0:0:
179,300,96923,2,0,L|188:240,1,59.9999981689454,2|0,1:2|0:0,0:0:0:0:
99,28,97111,2,0,P|64:83|77:147,1,119.999996337891,4|2,0:3|0:0,0:0:0:0:
343,107,97486,86,0,L|274:118,1,69.9999978637696,4|0,0:3|0:0,0:0:0:0:
119,251,97673,2,0,L|188:240,1,69.9999978637696
472,333,97861,1,2,1:2:0:0:
403,344,97954,1,0,0:1:0:0:
334,355,98048,2,0,L|265:366,1,69.9999978637696,4|0,0:3|0:0,0:0:0:0:
397,63,98236,21,0,0:0:0:0:
343,107,98329,2,0,P|324:136|323:171,1,69.9999978637696,0|2,0:0|1:2,0:0:0:0:
134,195,98517,1,0,0:0:0:0:
188,239,98610,2,0,P|207:268|208:303,2,69.9999978637696,4|0|2,1:3|0:0|0:0,0:0:0:0:
392,215,98986,86,0,P|337:250|273:237,1,119.999996337891,4|2,0:3|0:0,0:0:0:0:
167,279,99268,1,0,0:0:0:0:
178,298,99361,2,0,L|188:238,1,59.9999981689454,2|0,1:2|0:0,0:0:0:0:
2,134,99548,2,0,B|74:122|74:122|104:132|104:132|183:119,1,179.999994506836,4|0,1:3|0:0,0:0:0:0:
78,262,99923,2,0,P|64:237|65:207,1,59.9999981689454,2|0,1:2|0:0,0:0:0:0:
239,51,100111,2,0,B|270:102|270:102|256:165,1,119.999996337891,4|0,0:3|0:0,0:0:0:0:
2,134,100486,86,0,P|36:133|66:115,1,69.9999978637696,4|0,0:3|0:0,0:0:0:0:
313,198,100673,2,0,P|280:187|257:160,1,69.9999978637696
133,281,100861,2,0,L|144:212,1,69.9999978637696,2|0,1:2|0:0,0:0:0:0:
167,53,101048,2,0,L|172:18,7,34.9999989318848
160,86,101423,22,0,L|229:75,1,69.9999978637696,2|0,1:2|0:0,0:0:0:0:
408,132,101611,2,0,B|297:92|308:212|183:164,1,209.999993591309,4|0,2:3|0:0,0:0:0:0:
144,212,101986,85,4,0:3:0:0:
230,75,102173,1,2,0:0:0:0:
357,270,102361,2,0,L|367:210,1,59.9999981689454,2|0,1:2|0:0,0:0:0:0:
224,384,102548,2,0,B|266:379|293:337|293:337|336:369|381:358,1,179.999994506836,4|0,1:3|0:0,0:0:0:0:
223,242,102923,2,0,P|209:267|210:297,1,59.9999981689454,2|0,1:2|0:0,0:0:0:0:
423,224,103111,2,0,P|393:225|367:211,1,59.9999981689454,4|0,0:3|0:0,0:0:0:0:
260,107,103298,1,2,0:0:0:0:
468,293,103486,22,0,P|503:238|490:174,1,119.999996337891,4|2,0:3|0:0,0:0:0:0:
260,107,103861,2,0,L|320:97,1,59.9999981689454,2|0,1:2|0:0,0:0:0:0:
423,224,104048,2,0,B|294:204|294:204|304:253,1,179.999994506836,4|0,1:3|0:0,0:0:0:0:
322,345,104423,1,2,1:2:0:0:
319,97,104611,2,0,L|329:37,1,59.9999981689454,4|0,0:3|0:0,0:0:0:0:
74,127,104798,69,2,0:0:0:0:
75,136,104891,1,0,0:0:0:0:
76,145,104986,2,0,P|104:160|134:158,1,59.9999981689454,4|0,0:3|0:0,0:0:0:0:
319,97,105173,2,0,P|292:113|278:140,1,59.9999981689454,4|0,0:3|0:0,0:0:0:0:
239,331,105361,2,0,P|238:299|222:273,1,59.9999981689454,2|0,1:2|0:0,0:0:0:0:
3,370,105548,2,0,P|87:388|150:328,1,179.999994506836,4|0,1:3|0:0,0:0:0:0:
71,237,105923,2,0,L|61:297,1,59.9999981689454,2|0,1:2|0:0,0:0:0:0:
333,303,106111,2,0,P|274:307|224:275,1,119.999996337891,4|2,0:3|0:0,0:0:0:0:
2,248,106486,86,0,L|71:237,1,69.9999978637696,4|0,0:3|0:0,0:0:0:0:
250,80,106673,2,0,P|231:109|230:144,1,69.9999978637696
333,303,106861,2,0,L|402:292,1,69.9999978637696,2|0,1:2|0:0,0:0:0:0:
120,137,107048,1,2,0:0:0:0:
120,137,107236,1,4,0:3:0:0:
321,180,107423,5,0,0:0:0:0:
230,144,107611,2,0,L|250:271,1,119.999996337891,2|2,1:2|0:0,0:0:0:0:
250,271,107892,1,2,0:0:0:0:
251,279,107986,38,0,L|182:268,1,69.9999978637696,2|0,0:0|0:0,0:0:0:0:
311,347,108361,1,2,0:3:0:0:
395,314,108548,1,0,0:0:0:0:
393,295,108643,1,0,0:0:0:0:
391,277,108736,1,2,0:0:0:0:
455,212,108923,1,0,0:0:0:0:
412,131,109111,1,2,0:3:0:0:
321,146,109298,1,0,0:0:0:0:
307,237,109486,5,2,0:0:0:0:
217,222,109673,1,0,0:0:0:0:
127,207,109861,2,0,L|131:242,1,34.9999989318848,2|0,0:3|0:0,0:0:0:0:
124,252,110048,2,0,L|120:217,1,34.9999989318848,2|0,0:3|0:0,0:0:0:0:
60,147,110236,2,0,L|71:78,1,69.9999978637696,2|0,0:0|0:0,0:0:0:0:
10,9,110611,1,2,0:3:0:0:
159,65,110798,1,2,0:0:0:0:
168,64,110893,1,2,0:0:0:0:
177,63,110986,6,0,L|246:52,1,69.9999978637696,2|0,0:0|0:0,0:0:0:0:
323,2,111361,2,0,P|357:0|388:14,1,69.9999978637696,2|0,0:3|0:0,0:0:0:0:
477,33,111736,2,0,P|490:64|485:99,1,69.9999978637696,2|0,0:0|0:0,0:0:0:0:
495,189,112111,2,0,P|468:211|434:217,1,69.9999978637696,2|0,0:3|0:0,0:0:0:0:
425,216,112393,1,0,0:0:0:0:
416,215,112486,86,0,L|347:226,1,69.9999978637696,2|0,0:0|0:0,0:0:0:0:
280,162,112861,1,2,0:3:0:0:
198,205,113048,1,0,0:0:0:0:
213,296,113236,2,0,L|109:279,1,104.999996795654,2|0,0:0|0:0,0:0:0:0:
102,284,113611,6,0,B|93:229|93:229|101:207|101:207|91:149,1,134.999995880127,4|0,1:2|0:0,0:0:0:0:
95,144,113986,70,0,P|64:158|30:157,1,69.9999978637696,2|0,0:0|0:0,0:0:0:0:
163,82,114361,1,2,0:3:0:0:
238,132,114548,1,0,0:0:0:0:
235,159,114641,1,0,0:0:0:0:
232,187,114736,1,2,0:0:0:0:
326,152,114923,1,0,0:0:0:0:
324,169,115016,1,0,0:0:0:0:
322,186,115111,1,2,0:3:0:0:
414,172,115298,1,2,0:0:0:0:
413,181,115393,1,2,0:0:0:0:
412,190,115486,6,0,L|481:179,1,69.9999978637696,2|0,0:0|0:0,0:0:0:0:
372,272,115861,1,2,0:3:0:0:
372,272,116048,1,2,0:3:0:0:
285,244,116236,2,0,P|271:275|272:309,1,69.9999978637696,2|0,0:0|0:0,0:0:0:0:
204,371,116611,1,2,0:3:0:0:
117,343,116798,2,0,L|121:308,2,34.9999989318848,0|0|2,0:0|0:0|0:0,0:0:0:0:
286,83,117361,6,0,L|251:87,1,34.9999989318848,0|0,1:0|0:0,0:0:0:0:
160,97,117548,1,2,0:0:0:0:
325,164,117736,70,0,L|290:168,1,34.9999989318848,0|0,1:0|0:0,0:0:0:0:
199,178,117923,1,2,0:0:0:0:
198,187,118018,1,2,0:0:0:0:
197,196,118111,1,2,1:2:0:0:
418,135,118298,1,2,0:0:0:0:
417,144,118393,1,2,0:0:0:0:
416,153,118486,38,0,L|405:222,1,69.9999978637696,4|0,0:3|0:0,0:0:0:0:
126,142,118673,1,2,0:0:0:0:
115,211,118766,1,2,0:0:0:0:
104,280,118861,2,0,L|173:269,1,69.9999978637696,4|0,1:3|0:0,0:0:0:0:
427,344,119048,2,0,L|358:333,1,69.9999978637696,2|0,0:0|0:0,0:0:0:0:
284,34,119236,21,6,1:2:0:0:
