osu file format v14

[General]
AudioFilename: audio.mp3
AudioLeadIn: 0
PreviewTime: 35730
Countdown: 0
SampleSet: Soft
StackLeniency: 0.7
Mode: 0
LetterboxInBreaks: 0
WidescreenStoryboard: 1

[Editor]
Bookmarks: 1230,13230,17167,23730,34230,35730,47167,47730,59730,64792,65730,70230,80730,82230,86730,88230,93667,106042,117480,117855
DistanceSpacing: 0.8
BeatDivisor: 4
GridSize: 32
TimelineZoom: 2.899999

[Metadata]
Title:A Bella! (feat. Lucy)
TitleUnicode:A Bella! (feat. Lucy)
Artist:M2U
ArtistUnicode:M2U
Creator:Okoratu
Version:Normal
Source:하이파이브
Tags:high5 diversity. uicy-15598 drug step square musiq original soundtrack ost pnix games Electronic Video Game Other Latin Melwoine Okorin Battle Celektus
BeatmapID:2523913
BeatmapSetID:1158767

[Difficulty]
HPDrainRate:4
CircleSize:3.5
OverallDifficulty:4
ApproachRate:6
SliderMultiplier:1
SliderTickRate:1

[Events]
//Background and Video events
0,0,"37991860_p0_master1200.jpg",0,0
//Break Periods
2,59940,63190
//Storyboard Layer 0 (Background)
//Storyboard Layer 1 (Fail)
//Storyboard Layer 2 (Pass)
//Storyboard Layer 3 (Foreground)
//Storyboard Layer 4 (Overlay)
//Storyboard Sound Samples

[TimingPoints]
-260,375,4,2,1,62,1,0
490,-100,4,2,1,62,0,0
865,-100,4,2,1,62,0,0
1240,-100,4,2,1,62,0,0
5927,-100,4,2,1,62,0,0
6302,-100,4,2,1,62,0,0
12865,-100,4,2,1,62,0,0
13240,-100,4,2,1,62,0,0
18302,-100,4,2,1,62,0,0
18490,-100,4,2,1,62,0,0
19615,-100,4,2,1,62,0,0
21302,-100,4,2,1,62,0,0
22240,-100,4,2,1,62,0,0
22615,-83.3333333333333,4,2,1,62,0,0
23177,-83.3333333333333,4,2,1,62,0,0
23365,-83.3333333333333,4,2,1,62,0,0
28240,-83.3333333333333,4,2,1,62,0,0
28802,-83.3333333333333,4,2,1,62,0,0
29365,-83.3333333333333,4,2,1,62,0,0
29740,-83.3333333333333,4,2,1,62,0,0
33677,-83.3333333333333,4,2,1,62,0,0
33865,-83.3333333333333,4,2,1,76,0,0
34240,-83.3333333333333,4,2,1,62,0,0
34802,-83.3333333333333,4,2,1,62,0,0
35177,-83.3333333333333,4,2,1,82,0,0
35740,-76.9230769230769,4,2,1,73,0,1
39302,-76.9230769230769,4,2,1,73,0,1
39583,-76.9230769230769,4,2,1,73,0,1
40240,-76.9230769230769,4,2,1,73,0,1
40802,-76.9230769230769,4,2,1,73,0,1
41177,-76.9230769230769,4,2,1,73,0,1
41365,-76.9230769230769,4,2,1,73,0,1
41740,-76.9230769230769,4,2,1,73,0,1
43802,-76.9230769230769,4,2,1,73,0,1
47177,-100,4,2,1,73,0,0
47740,-76.9230769230769,4,2,1,73,0,1
49240,-76.9230769230769,4,2,1,73,0,1
50740,-76.9230769230769,4,2,1,73,0,1
52240,-76.9230769230769,4,2,1,73,0,1
52427,-76.9230769230769,4,2,1,73,0,1
52615,-76.9230769230769,4,2,1,73,0,1
53177,-76.9230769230769,4,2,1,73,0,1
53365,-76.9230769230769,4,2,1,73,0,1
53740,-76.9230769230769,4,2,1,73,0,1
59365,-76.9230769230769,4,2,1,73,0,1
59740,-100,4,2,1,62,0,0
59927,-100,4,2,1,62,0,0
63677,-100,4,2,1,62,0,0
64240,-100,4,2,1,100,0,0
64802,-100,4,2,1,62,0,0
65365,-100,4,2,1,82,0,0
65740,-100,4,2,1,54,0,0
69490,-83.3333333333333,4,2,1,62,0,0
74740,-83.3333333333333,4,2,1,62,0,0
75865,-83.3333333333333,4,2,1,62,0,0
80365,-83.3333333333333,4,2,1,92,0,0
80740,-83.3333333333333,4,2,1,62,0,0
81302,-83.3333333333333,4,2,1,62,0,0
81677,-83.3333333333333,4,2,1,82,0,0
82240,-76.9230769230769,4,2,1,73,0,1
86740,-100,4,2,1,73,0,0
87490,-76.9230769230769,4,2,1,73,0,0
88240,-76.9230769230769,4,2,1,73,0,1
93490,-76.9230769230769,4,2,1,73,0,1
93677,-76.9230769230769,4,2,1,73,0,1
94240,-76.9230769230769,4,2,1,73,0,1
98740,-76.9230769230769,4,2,1,73,0,1
98927,-76.9230769230769,4,2,1,73,0,1
99115,-76.9230769230769,4,2,1,73,0,1
99302,-76.9230769230769,4,2,1,73,0,1
99677,-76.9230769230769,4,2,1,73,0,1
99865,-76.9230769230769,4,2,1,73,0,1
100240,-76.9230769230769,4,2,1,73,0,1
105865,-76.9230769230769,4,2,1,73,0,1
106052,-100,4,2,1,60,0,0
106240,-100,4,2,1,60,0,0
111865,-100,4,2,1,60,0,0
112240,-100,4,2,1,60,0,0
115240,-100,4,2,1,60,0,0
116740,-100,4,2,1,60,0,0
117115,-100,4,2,1,60,0,0
117490,-100,4,2,1,60,0,0

[Colours]
Combo1 : 201,84,102
Combo2 : 114,192,119
Combo3 : 150,203,217
Combo4 : 245,238,158
Combo5 : 244,158,76

[HitObjects]
104,202,865,5,2,1:2:0:0:
180,83,1240,6,0,P|233:72|341:74,2,150,14|10|10,1:2|1:2|1:2,0:0:0:0:
199,225,2740,2,0,P|250:234|309:235,1,100,14|2,1:2|1:3,0:0:0:0:
380,237,3302,2,0,P|376:190|390:129,1,100,10|2,1:2|1:3,0:0:0:0:
457,92,3865,1,8,1:2:0:0:
346,30,4240,5,8,1:2:0:0:
346,30,4427,2,0,L|230:41,1,100,0|10,1:0|1:2,0:0:0:0:
185,145,5177,1,2,1:3:0:0:
185,145,5365,2,0,L|69:156,1,100,10|8,1:2|1:2,0:0:0:0:
54,297,6115,1,8,1:2:0:0:
169,343,6490,1,8,1:2:0:0:
226,239,6865,1,8,1:2:0:0:
364,339,7240,6,0,P|372:280|395:176,2,150,14|10|8,1:2|1:2|1:2,0:0:0:0:
492,262,8740,6,0,L|487:198,1,50,8|2,1:2|1:2,0:0:0:0:
469,168,9115,1,6,1:0:0:0:
469,168,9302,2,2,P|468:116|389:41,1,150,10|10,1:2|1:2,0:3:0:0:
264,70,10240,5,10,1:2:0:0:
264,70,10427,1,10,1:2:0:0:
268,208,10802,1,8,1:2:0:0:
116,194,11177,1,8,1:2:0:0:
116,194,11365,2,0,L|131:300,1,100,10|12,1:2|1:2,0:0:0:0:
233,364,12115,5,8,1:2:0:0:
285,297,12302,1,8,1:0:0:0:
358,342,12490,1,8,1:2:0:0:
451,248,12865,2,2,P|466:220|469:197,1,50,4|0,1:2|0:0,0:3:0:0:
452,155,13240,6,0,L|288:170,2,150,10|10|8,1:2|1:2|1:2,0:0:0:0:
396,41,14740,2,0,P|354:38|289:43,1,100,10|2,1:2|1:3,0:0:0:0:
235,95,15302,2,0,L|129:90,1,100,2|2,1:2|0:0,0:0:0:0:
54,84,15865,1,10,1:2:0:0:
130,209,16240,5,10,1:2:0:0:
130,209,16427,2,0,P|133:253|125:313,1,100,2|10,1:2|1:2,0:0:0:0:
254,359,17177,1,2,0:0:0:0:
254,359,17365,2,0,P|251:315|259:255,1,100,10|10,1:2|1:2,0:0:0:0:
343,149,18115,5,2,1:3:0:0:
424,146,18302,1,2,1:2:0:0:
505,139,18490,1,10,1:2:0:0:
416,34,18865,2,0,L|357:38,1,50,10|2,1:2|0:3,0:0:0:0:
322,49,19240,6,0,P|267:47|171:59,2,150,10|10|10,1:2|1:2|1:2,0:0:0:0:
321,204,20740,1,10,1:2:0:0:
197,149,21115,1,2,1:3:0:0:
197,149,21302,2,2,P|197:216|191:318,1,150,10|10,1:2|1:2,0:3:0:0:
54,356,22240,5,8,1:2:0:0:
54,356,22427,1,10,1:2:0:0:
22,217,22802,2,2,P|27:177|33:90,1,119.999996337891,14|8,1:2|1:2,0:3:0:0:
55,20,23365,1,6,1:2:0:0:
198,62,23740,6,0,P|243:68|386:51,2,179.999994506836,10|0|8,1:2|1:0|1:2,0:0:0:0:
150,203,25240,2,0,L|225:195,1,59.9999981689454,10|2,1:2|1:2,0:0:0:0:
261,170,25615,1,8,1:2:0:0:
261,170,25802,2,0,P|315:184|395:190,1,119.999996337891,2|0,1:2|1:0,0:0:0:0:
462,173,26365,2,0,P|456:233|446:302,1,119.999996337891,8|8,1:2|1:2,0:0:0:0:
298,349,27115,5,10,1:2:0:0:
298,349,27302,2,0,L|156:339,1,119.999996337891,2|2,1:2|1:3,0:0:0:0:
101,368,27865,1,8,1:2:0:0:
51,251,28240,5,8,1:2:0:0:
69,175,28427,5,2,1:3:0:0:
89,98,28615,5,8,0:1:0:0:
109,22,28802,5,12,1:2:0:0:
251,66,29177,5,2,1:2:0:0:
251,66,29365,1,14,1:2:0:0:
236,198,29740,6,0,P|231:241|230:325,1,119.999996337891,10|8,1:2|1:2,0:0:0:0:
390,334,30490,2,0,P|395:291|396:207,1,119.999996337891,8|10,1:2|1:2,0:0:0:0:
461,110,31240,6,0,P|422:114|396:115,1,59.9999981689454,8|2,1:2|1:2,0:0:0:0:
371,85,31615,1,8,1:2:0:0:
371,85,31802,2,0,P|280:87|184:101,1,179.999994506836,2|8,1:2|1:2,0:0:0:0:
38,110,32740,6,0,P|43:175|39:247,1,119.999996337891,8|10,1:2|1:2,0:0:0:0:
90,299,33302,2,0,L|217:293,1,119.999996337891,2|10,1:2|1:2,0:0:0:0:
282,338,33865,1,10,1:2:0:0:
326,183,34240,5,2,1:1:0:0:
383,130,34427,5,2,1:0:0:0:
458,114,34615,5,2,1:0:0:0:
469,189,34802,5,2,0:0:0:0:
390,314,35177,5,12,1:2:0:0:
250,177,35740,6,0,P|246:139|158:80,1,129.999994049073,6|8,1:1|1:0,0:0:0:0:
101,48,36302,2,2,L|91:196,1,129.999994049073,8|8,1:2|1:0,0:3:0:0:
60,253,36865,1,8,1:2:0:0:
174,345,37240,5,8,1:2:0:0:
174,345,37427,2,0,P|184:296|183:207,2,129.999994049073,2|10|8,1:2|1:2|1:0,0:0:0:0:
247,378,38365,1,10,1:2:0:0:
300,234,38740,6,0,P|311:188|298:86,1,129.999994049073,8|8,1:2|1:0,0:0:0:0:
274,29,39302,2,2,L|410:16,1,129.999994049073,8|8,1:2|1:0,0:3:0:0:
480,50,39865,1,10,1:2:0:0:
456,213,40240,5,10,1:2:0:0:
456,213,40427,1,2,1:0:0:0:
326,162,40802,2,2,P|257:155|113:192,1,194.999991073609,2|14,1:2|1:2,0:0:0:0:
136,327,41740,1,12,1:2:0:0:
309,364,42115,1,8,1:0:0:0:
309,364,42302,2,0,P|312:313|335:217,1,129.999994049073,10|10,1:2|1:0,0:0:0:0:
397,192,42865,1,8,1:2:0:0:
400,42,43240,6,0,P|351:52|204:53,1,194.999991073609,2|14,1:2|1:2,0:0:0:0:
118,189,44177,5,8,1:0:0:0:
118,189,44365,2,0,L|123:340,2,129.999994049073,8|10|8,1:2|1:2|1:0,0:0:0:0:
198,187,45302,2,2,P|255:195|337:194,1,129.999994049073,10|8,1:2|1:0,0:3:0:0:
411,186,45865,1,8,1:2:0:0:
400,26,46240,5,10,1:0:0:0:
327,69,46427,1,2,1:0:0:0:
257,113,46615,1,2,1:0:0:0:
112,26,46990,1,2,1:2:0:0:
41,289,47740,6,0,P|64:268|171:266,1,129.999994049073,6|8,1:0|1:0,0:0:0:0:
212,326,48302,2,2,L|345:330,1,129.999994049073,10|8,1:2|1:0,0:3:0:0:
418,361,48865,1,10,1:2:0:0:
396,211,49240,5,10,1:2:0:0:
396,211,49427,2,0,P|405:146|418:79,2,129.999994049073,2|10|8,1:2|1:2|1:0,0:0:0:0:
406,292,50365,1,10,1:2:0:0:
270,230,50740,6,0,P|226:224|114:241,1,129.999994049073,10|8,1:2|1:0,0:0:0:0:
66,272,51302,2,2,P|49:233|51:142,1,129.999994049073,10|8,1:2|1:0,0:3:0:0:
39,62,51865,1,8,1:2:0:0:
176,88,52240,5,10,1:2:0:0:
257,69,52427,5,10,0:1:0:0:
335,40,52615,5,10,1:0:0:0:
414,13,52802,5,14,1:0:0:0:
467,152,53177,5,8,1:0:0:0:
467,152,53365,1,6,1:0:0:0:
326,180,53740,6,0,P|297:211|298:301,1,129.999994049073,6|8,1:2|1:0,0:0:0:0:
350,358,54302,2,2,P|285:345|155:345,1,194.999991073609,10|8,1:2|1:2,0:3:0:0:
42,273,55240,6,0,L|48:203,1,64.9999970245363,10|2,1:2|1:2,0:0:0:0:
26,131,55615,1,8,1:0:0:0:
26,131,55802,2,2,P|53:82|186:68,1,194.999991073609,8|8,1:2|1:2,0:3:0:0:
253,176,56740,6,0,P|309:181|405:177,1,129.999994049073,10|8,1:2|1:0,0:0:0:0:
465,149,57302,2,2,P|453:227|453:306,1,129.999994049073,10|8,1:2|1:0,0:3:0:0:
457,362,57865,1,10,1:2:0:0:
298,317,58240,1,2,1:0:0:0:
216,341,58427,1,2,1:0:0:0:
136,363,58615,1,10,1:0:0:0:
87,191,58990,1,2,1:0:0:0:
136,21,59365,6,2,P|207:43|263:43,1,129.999994049073,10|0,1:0|0:0,0:3:0:0:
197,226,64240,6,2,P|191:288|158:372,2,150,0|8|6,0:0|1:2|1:2,0:0:0:0:
146,109,65740,6,0,P|188:98|259:114,1,100,8|2,1:2|1:3,0:0:0:0:
306,56,66302,2,0,L|413:66,1,100,10|0,1:2|1:2,0:0:0:0:
486,71,66865,1,10,1:2:0:0:
419,197,67240,6,0,B|379:263|386:357,2,150,10|10|10,1:2|1:2|1:2,0:0:0:0:
306,111,68740,1,14,1:2:0:0:
256,233,69115,1,2,1:3:0:0:
98,161,69490,1,14,1:2:0:0:
31,328,69865,1,14,1:2:0:0:
164,311,70240,6,0,P|214:308|344:319,2,179.999994506836,8|0|8,1:2|1:2|1:2,0:0:0:0:
92,220,71740,2,0,P|89:181|85:148,1,59.9999981689454,10|2,1:2|1:2,0:0:0:0:
90,108,72115,1,8,1:2:0:0:
90,108,72302,2,0,P|141:118|219:119,1,119.999996337891,2|0,1:2|1:2,0:0:0:0:
250,55,72865,2,0,P|281:43|389:36,1,119.999996337891,8|8,1:2|1:2,0:0:0:0:
427,185,73615,5,8,1:2:0:0:
427,185,73802,2,0,P|369:183|303:187,1,119.999996337891,2|2,1:2|1:3,0:0:0:0:
238,153,74365,1,10,1:2:0:0:
51,133,74740,5,2,1:3:0:0:
69,209,74927,5,2,1:3:0:0:
89,286,75115,5,8,0:1:0:0:
109,362,75302,5,14,1:2:0:0:
251,318,75677,5,2,1:2:0:0:
251,318,75865,1,14,1:2:0:0:
225,185,76240,6,0,P|244:157|345:139,1,119.999996337891,10|8,1:2|1:2,0:0:0:0:
436,48,76990,2,0,P|466:106|459:163,1,119.999996337891,8|10,1:2|1:2,0:0:0:0:
445,310,77740,6,0,P|410:293|373:293,1,59.9999981689454,10|2,1:2|1:2,0:0:0:0:
342,310,78115,1,8,1:2:0:0:
342,310,78302,2,2,P|294:319|155:328,1,179.999994506836,2|8,1:2|1:2,0:3:0:0:
30,365,79240,6,0,P|31:322|21:239,1,119.999996337891,12|10,1:2|1:2,0:0:0:0:
89,207,79802,2,0,P|93:149|112:75,1,119.999996337891,2|2,1:2|1:3,0:0:0:0:
165,38,80365,1,6,0:0:0:0:
283,120,80740,5,2,1:0:0:0:
358,153,80927,5,2,1:0:0:0:
403,219,81115,5,2,1:0:0:0:
483,194,81302,5,10,0:1:0:0:
457,48,81677,5,14,1:0:0:0:
316,238,82240,6,0,P|270:239|173:268,1,129.999994049073,14|8,1:2|1:0,0:3:0:0:
206,343,82802,2,2,P|252:342|349:313,1,129.999994049073,10|8,1:2|1:0,0:3:0:0:
413,327,83365,1,0,1:0:0:0:
397,171,83740,5,10,1:2:0:0:
397,171,83927,2,0,P|348:168|258:176,2,129.999994049073,2|10|8,1:2|1:2|1:0,0:0:0:0:
475,199,84865,1,10,1:2:0:0:
453,59,85240,6,0,P|417:42|327:51,1,129.999994049073,10|8,1:2|1:0,0:0:0:0:
262,93,85802,2,2,P|214:110|109:89,1,129.999994049073,10|8,1:2|1:0,0:3:0:0:
62,64,86365,1,2,1:2:0:0:
23,207,86740,5,2,0:0:0:0:
306,340,87490,1,2,0:3:0:0:
267,193,87865,1,8,0:1:0:0:
356,57,88240,6,0,P|410:62|465:124,1,129.999994049073,8|8,1:2|1:0,0:0:0:0:
426,184,88802,2,2,L|414:319,1,129.999994049073,0|8,1:0|1:0,0:3:0:0:
366,381,89365,1,8,1:2:0:0:
258,265,89740,6,0,P|218:260|118:269,1,129.999994049073,10|8,1:2|1:0,0:0:0:0:
60,313,90302,1,14,1:2:0:0:
22,166,90677,1,8,1:0:0:0:
22,166,90865,1,8,1:2:0:0:
145,58,91240,6,0,P|166:103|216:174,1,129.999994049073,10|8,1:2|1:0,0:0:0:0:
290,203,91802,2,2,P|257:257|233:322,1,129.999994049073,10|8,1:2|1:0,0:3:0:0:
295,373,92365,1,10,1:2:0:0:
436,285,92740,5,8,1:2:0:0:
417,207,92927,1,2,1:2:0:0:
396,128,93115,1,10,1:0:0:0:
255,44,93490,1,10,1:2:0:0:
192,330,94240,6,0,P|144:332|60:314,1,129.999994049073,8|8,1:2|1:0,0:0:0:0:
21,248,94802,2,0,L|44:115,1,129.999994049073,10|8,1:2|1:0,0:0:0:0:
58,43,95365,1,10,1:2:0:0:
169,154,95740,1,10,1:2:0:0:
169,154,95927,2,0,P|233:149|309:159,2,129.999994049073,0|10|8,1:2|1:2|1:0,0:0:0:0:
126,229,96865,1,10,1:2:0:0:
247,318,97240,6,0,P|286:321|387:309,1,129.999994049073,10|8,1:2|1:0,0:0:0:0:
451,354,97802,2,2,P|442:316|456:157,1,194.999991073609,10|10,1:2|1:2,0:3:0:0:
466,22,98740,5,10,0:0:0:0:
392,62,98927,5,2,1:1:0:0:
320,101,99115,5,10,1:1:0:0:
249,144,99302,5,6,1:0:0:0:
135,49,99677,5,2,1:2:0:0:
135,49,99865,1,6,1:2:0:0:
48,174,100240,6,0,P|38:220|50:310,1,129.999994049073,14|8,1:2|1:0,0:0:0:0:
98,369,100802,2,2,P|115:319|256:289,1,194.999991073609,8|8,1:2|1:2,0:3:0:0:
354,353,101740,6,0,P|436:350|473:293,1,129.999994049073,2|8,1:2|1:0,0:0:0:0:
414,249,102302,2,2,L|396:119,1,129.999994049073,14|8,1:2|1:0,0:3:0:0:
377,36,102865,1,10,1:2:0:0:
279,145,103240,1,10,1:2:0:0:
164,33,103615,1,8,1:0:0:0:
164,33,103802,2,2,P|110:34|22:56,1,129.999994049073,10|8,1:2|1:0,0:3:0:0:
12,127,104365,1,10,1:2:0:0:
59,271,104740,5,10,1:2:0:0:
136,237,104927,1,2,1:0:0:0:
217,237,105115,1,10,1:0:0:0:
325,346,105490,1,10,1:2:0:0:
361,201,105865,1,10,1:0:0:0:
246,107,106240,6,2,L|135:121,2,100,2|2|2,0:0|1:2|0:0,0:0:0:0:
343,41,107365,1,2,1:2:0:0:
412,142,107740,2,0,P|415:176|384:248,1,100,2|2,0:0|1:2,0:0:0:0:
295,314,108490,2,0,L|176:308,1,100,2|2,0:0|1:2,0:0:0:0:
78,357,109240,6,0,P|78:328|96:258,1,100,2|2,0:0|1:2,0:0:0:0:
186,177,109990,2,0,P|191:141|176:79,1,100,2|2,0:0|1:2,0:0:0:0:
45,80,110740,2,0,P|40:116|55:178,1,100,2|2,1:2|1:2,0:0:0:0:
157,285,111490,1,2,0:3:0:0:
279,230,111865,1,6,1:2:0:0:
371,329,112240,6,0,P|403:337|477:337,2,100,2|2|2,0:0|1:2|0:0,0:0:0:0:
253,350,113365,1,2,1:2:0:0:
293,235,113740,2,0,P|289:193|276:136,1,100,2|2,0:0|1:2,0:0:0:0:
315,25,114490,2,0,L|196:32,1,100,2|2,0:0|1:2,0:0:0:0:
67,90,115240,5,6,0:0:0:0:
134,196,115615,2,0,B|140:233|140:233|133:266|133:266|140:310,1,100,0|0,1:0|1:0,0:0:0:0:
246,363,116365,1,0,1:0:0:0:
373,314,116740,5,14,1:2:0:0:
274,210,117115,1,10,1:2:0:0:
365,54,117490,1,10,1:0:0:0:
