osu file format v14

[General]
AudioFilename: audio.mp3
AudioLeadIn: 0
PreviewTime: 35730
Countdown: 0
SampleSet: Soft
StackLeniency: 0.7
Mode: 0
LetterboxInBreaks: 0
WidescreenStoryboard: 1

[Editor]
Bookmarks: 1230,13230,17167,23730,34230,35730,47167,47730,59730,64792,65730,70230,80730,82230,86730,88230,93667,106042,117480,117855
DistanceSpacing: 0.8
BeatDivisor: 4
GridSize: 32
TimelineZoom: 2.899999

[Metadata]
Title:A Bella! (feat. Lucy)
TitleUnicode:A Bella! (feat. Lucy)
Artist:M2U
ArtistUnicode:M2U
Creator:Okoratu
Version:Intermediate
Source:하이파이브
Tags:high5 diversity. uicy-15598 drug step square musiq original soundtrack ost pnix games Electronic Video Game Other Latin Melwoine Okorin Battle Celektus
BeatmapID:2519868
BeatmapSetID:1158767

[Difficulty]
HPDrainRate:4
CircleSize:3.5
OverallDifficulty:4.5
ApproachRate:7
SliderMultiplier:1.2
SliderTickRate:1

[Events]
//Background and Video events
0,0,"37991860_p0_master1200.jpg",0,0
//Break Periods
2,59940,63180
//Storyboard Layer 0 (Background)
//Storyboard Layer 1 (Fail)
//Storyboard Layer 2 (Pass)
//Storyboard Layer 3 (Foreground)
//Storyboard Layer 4 (Overlay)
//Storyboard Sound Samples

[TimingPoints]
-260,375,4,2,1,62,1,0
490,-100,4,2,1,62,0,0
865,-100,4,2,1,62,0,0
1240,-100,4,2,1,62,0,0
5927,-100,4,2,1,62,0,0
6302,-100,4,2,1,62,0,0
12865,-100,4,2,1,62,0,0
13240,-100,4,2,1,62,0,0
18302,-100,4,2,1,62,0,0
18490,-100,4,2,1,62,0,0
19615,-100,4,2,1,62,0,0
21302,-100,4,2,1,62,0,0
22240,-100,4,2,1,62,0,0
22615,-83.3333333333333,4,2,1,62,0,0
23177,-83.3333333333333,4,2,1,62,0,0
23365,-83.3333333333333,4,2,1,62,0,0
28240,-83.3333333333333,4,2,1,62,0,0
28802,-83.3333333333333,4,2,1,62,0,0
29365,-83.3333333333333,4,2,1,62,0,0
29740,-83.3333333333333,4,2,1,62,0,0
33677,-83.3333333333333,4,2,1,62,0,0
33865,-83.3333333333333,4,2,1,76,0,0
34240,-83.3333333333333,4,2,1,62,0,0
34802,-83.3333333333333,4,2,1,62,0,0
35177,-83.3333333333333,4,2,1,82,0,0
35740,-76.9230769230769,4,2,1,73,0,1
39302,-76.9230769230769,4,2,1,73,0,1
39583,-76.9230769230769,4,2,1,73,0,1
40240,-76.9230769230769,4,2,1,73,0,1
40802,-76.9230769230769,4,2,1,73,0,1
41177,-76.9230769230769,4,2,1,73,0,1
41365,-76.9230769230769,4,2,1,73,0,1
41740,-76.9230769230769,4,2,1,73,0,1
43802,-76.9230769230769,4,2,1,73,0,1
47177,-100,4,2,1,73,0,0
47740,-76.9230769230769,4,2,1,73,0,1
49240,-76.9230769230769,4,2,1,73,0,1
50740,-76.9230769230769,4,2,1,73,0,1
52240,-76.9230769230769,4,2,1,73,0,1
52427,-76.9230769230769,4,2,1,73,0,1
52615,-76.9230769230769,4,2,1,73,0,1
53177,-76.9230769230769,4,2,1,73,0,1
53365,-76.9230769230769,4,2,1,73,0,1
53740,-76.9230769230769,4,2,1,73,0,1
59365,-76.9230769230769,4,2,1,73,0,1
59740,-100,4,2,1,62,0,0
59927,-100,4,2,1,62,0,0
63677,-100,4,2,1,62,0,0
64240,-100,4,2,1,100,0,0
64802,-100,4,2,1,62,0,0
65365,-100,4,2,1,82,0,0
65740,-100,4,2,1,54,0,0
69490,-83.3333333333333,4,2,1,62,0,0
74740,-83.3333333333333,4,2,1,62,0,0
75865,-83.3333333333333,4,2,1,62,0,0
80365,-83.3333333333333,4,2,1,92,0,0
80740,-83.3333333333333,4,2,1,62,0,0
81302,-83.3333333333333,4,2,1,62,0,0
81677,-83.3333333333333,4,2,1,82,0,0
82240,-76.9230769230769,4,2,1,73,0,1
86740,-100,4,2,1,73,0,0
87490,-76.9230769230769,4,2,1,73,0,0
88240,-76.9230769230769,4,2,1,73,0,1
93490,-76.9230769230769,4,2,1,73,0,1
93677,-76.9230769230769,4,2,1,73,0,1
94240,-76.9230769230769,4,2,1,73,0,1
98740,-76.9230769230769,4,2,1,73,0,1
98927,-76.9230769230769,4,2,1,73,0,1
99115,-76.9230769230769,4,2,1,73,0,1
99302,-76.9230769230769,4,2,1,73,0,1
99677,-76.9230769230769,4,2,1,73,0,1
99865,-76.9230769230769,4,2,1,73,0,1
100240,-76.9230769230769,4,2,1,73,0,1
105865,-76.9230769230769,4,2,1,73,0,1
106052,-100,4,2,1,60,0,0
106240,-100,4,2,1,60,0,0
111865,-100,4,2,1,60,0,0
112240,-100,4,2,1,60,0,0
115240,-100,4,2,1,60,0,0
116740,-100,4,2,1,60,0,0
117115,-100,4,2,1,60,0,0
117490,-100,4,2,1,60,0,0

[Colours]
Combo1 : 201,84,102
Combo2 : 114,192,119
Combo3 : 150,203,217
Combo4 : 245,238,158
Combo5 : 244,158,76

[HitObjects]
104,181,865,6,0,L|107:266,1,60,2|2,1:2|1:0,0:0:0:0:
183,252,1240,2,0,B|191:175|191:175|237:131,1,120,14|2,1:2|1:3,0:0:0:0:
227,69,1802,2,0,L|357:69,1,120,10|0,1:2|1:0,0:0:0:0:
421,42,2365,1,10,1:2:0:0:
396,213,2740,5,14,1:2:0:0:
396,213,2927,2,0,L|334:205,1,60,2|2,1:2|1:3,0:0:0:0:
288,270,3302,2,0,L|151:255,1,120,10|2,1:2|1:3,0:0:0:0:
99,295,3865,1,8,1:2:0:0:
12,153,4240,6,0,P|48:135|138:178,1,120,8|2,1:2|1:3,0:0:0:0:
193,186,4802,2,0,P|178:129|173:43,1,120,10|2,1:2|1:3,0:0:0:0:
238,24,5365,1,10,1:2:0:0:
311,136,5740,6,0,L|381:132,1,60,8|2,1:2|1:0,0:0:0:0:
456,126,6115,1,8,1:2:0:0:
456,126,6302,2,0,P|450:172|447:260,1,120,0|2,1:0|1:2,0:0:0:0:
410,315,6865,1,8,1:2:0:0:
211,196,7240,5,14,1:2:0:0:
189,276,7427,1,2,1:2:0:0:
139,341,7615,1,2,1:3:0:0:
70,298,7802,2,0,L|86:99,1,180,10|8,1:2|1:2,0:0:0:0:
268,48,8740,5,8,1:2:0:0:
308,125,8927,1,2,1:2:0:0:
390,110,9115,1,6,1:0:0:0:
368,189,9302,2,2,P|370:236|396:333,1,120,10|2,1:2|1:2,0:3:0:0:
477,308,9865,2,0,P|495:233|495:177,1,120,10|10,1:2|1:2,0:0:0:0:
490,107,10427,1,10,1:2:0:0:
359,194,10802,6,0,P|292:200|231:214,1,120,8|8,1:2|1:2,0:0:0:0:
167,170,11365,1,10,1:2:0:0:
10,18,11740,5,12,1:2:0:0:
3,234,12115,1,8,1:2:0:0:
57,309,12303,1,8,1:0:0:0:
111,213,12490,1,8,1:2:0:0:
256,52,12865,1,4,1:2:0:0:
346,156,13240,6,0,P|335:208|319:347,2,180,10|10|8,1:2|1:2|1:2,0:0:0:0:
400,46,14740,2,0,L|323:35,1,60,10|2,1:2|1:2,0:0:0:0:
264,31,15115,1,2,1:3:0:0:
264,31,15302,2,0,P|214:49|72:69,1,180,2|10,1:2|1:2,0:0:0:0:
44,191,16240,5,10,1:2:0:0:
44,191,16427,2,0,P|96:182|181:182,1,120,2|10,1:2|1:2,0:0:0:0:
283,305,17177,1,2,0:0:0:0:
283,305,17365,2,0,L|353:305,1,60,10|2,1:2|1:3,0:0:0:0:
409,369,17740,6,2,P|401:318|405:246,1,120,10|2,1:2|1:3,0:3:0:0:
403,168,18302,2,0,L|471:165,1,60,2|10,1:2|1:2,0:0:0:0:
289,228,18865,6,0,L|163:232,2,120,10|10|2,1:2|1:2|1:3,0:0:0:0:
303,141,19802,2,0,L|183:145,1,120,10|4,1:2|1:3,0:0:0:0:
124,83,20365,1,10,1:2:0:0:
36,196,20740,6,0,P|29:152|28:125,2,60,10|2|2,1:2|1:2|1:3,0:0:0:0:
102,259,21302,2,2,P|121:210|122:75,1,180,10|10,1:2|1:2,0:3:0:0:
278,19,22240,5,8,1:2:0:0:
278,19,22427,1,10,1:2:0:0:
256,148,22802,2,2,P|244:219|238:299,1,143.999995605469,14|8,1:2|1:2,0:3:0:0:
294,349,23365,1,6,1:2:0:0:
426,237,23740,6,0,P|424:191|505:47,2,215.999993408203,10|0|8,1:2|1:0|1:2,0:0:0:0:
326,114,25240,6,0,P|281:114|176:143,1,143.999995605469,10|8,1:2|1:2,0:0:0:0:
123,202,25802,2,0,P|109:146|86:57,1,143.999995605469,2|0,1:2|1:0,0:0:0:0:
7,79,26365,1,8,1:2:0:0:
41,234,26740,5,8,1:2:0:0:
41,234,26927,2,0,P|49:275|53:308,1,71.9999978027344,2|10,1:2|1:2,0:0:0:0:
133,295,27302,2,0,P|185:308|281:319,1,143.999995605469,2|2,1:2|1:3,0:0:0:0:
349,278,27865,1,8,1:2:0:0:
423,47,28240,5,8,1:2:0:0:
366,114,28427,5,2,1:3:0:0:
291,70,28615,5,8,0:1:0:0:
278,156,28802,6,0,P|216:153|131:166,1,143.999995605469,12|2,1:2|1:2,0:0:0:0:
57,192,29365,1,14,1:2:0:0:
193,32,29740,6,0,P|208:93|196:253,2,215.999993408203,10|2|10,1:2|1:2|1:2,0:0:0:0:
95,236,31240,2,0,B|133:225|203:228|203:271|331:267,2,215.999993408203,8|2|8,1:2|1:2|1:2,0:0:0:0:
276,161,32740,5,8,1:2:0:0:
276,161,32927,2,0,L|359:169,1,71.9999978027344,2|10,1:2|1:2,0:0:0:0:
390,94,33302,2,0,L|216:79,1,143.999995605469,2|10,1:2|1:2,0:0:0:0:
165,69,33865,1,10,1:2:0:0:
36,235,34240,5,2,1:1:0:0:
122,211,34427,1,2,1:0:0:0:
178,274,34615,1,2,1:0:0:0:
258,188,34802,1,2,0:0:0:0:
398,67,35177,6,2,B|372:108|372:108|400:129|400:129|408:176|408:176|407:217,1,143.999995605469,12|0,1:2|0:0,0:3:0:0:
422,275,35740,6,0,P|367:267|246:286,1,155.999992858887,6|8,1:1|1:0,0:0:0:0:
195,320,36302,1,8,1:2:0:0:
214,156,36677,1,8,1:0:0:0:
214,156,36865,2,0,L|121:172,1,77.9999964294435,8|2,1:2|1:3,0:0:0:0:
54,186,37240,5,8,1:2:0:0:
36,274,37427,1,2,1:2:0:0:
192,281,37802,2,0,P|257:274|350:273,1,155.999992858887,10|8,1:2|1:0,0:0:0:0:
432,283,38365,1,10,1:2:0:0:
463,146,38740,6,0,L|366:156,1,77.9999964294435,8|2,1:2|1:2,0:0:0:0:
330,82,39115,1,8,1:0:0:0:
330,82,39302,2,2,P|280:67|164:95,1,155.999992858887,8|8,1:2|1:0,0:3:0:0:
109,128,39865,1,10,1:2:0:0:
36,309,40240,5,10,1:2:0:0:
113,265,40427,1,2,1:0:0:0:
279,343,40802,2,2,P|291:291|311:171,1,155.999992858887,2|8,1:2|1:0,0:0:0:0:
307,106,41365,1,14,1:2:0:0:
494,260,41740,5,12,1:2:0:0:
414,270,41927,1,2,1:0:0:0:
366,338,42115,1,8,1:0:0:0:
316,273,42302,2,0,P|329:224|216:91,1,233.999989288331,10|8,1:2|1:2,0:0:0:0:
76,272,43240,2,0,P|91:340|88:382,2,77.9999964294435,2|2|8,1:2|1:2|1:0,0:0:0:0:
10,214,43802,6,2,P|174:177|257:189,1,233.999989288331,14|8,1:2|1:2,0:3:0:0:
386,334,44740,1,10,1:2:0:0:
402,251,44927,1,10,1:2:0:0:
470,200,45115,1,8,1:0:0:0:
391,170,45302,6,2,P|331:183|209:179,1,155.999992858887,10|8,1:2|1:0,0:3:0:0:
163,156,45865,1,8,1:2:0:0:
36,27,46240,5,10,1:0:0:0:
119,57,46427,1,2,1:0:0:0:
56,129,46615,1,2,1:0:0:0:
117,317,46990,1,2,1:2:0:0:
331,117,47740,6,0,B|395:113|395:113|408:216,1,155.999992858887,6|8,1:0|1:0,0:0:0:0:
434,283,48302,2,2,L|276:269,1,155.999992858887,10|8,1:2|1:0,0:3:0:0:
211,323,48865,1,10,1:2:0:0:
96,149,49240,5,10,1:2:0:0:
96,149,49427,2,0,L|110:59,1,77.9999964294435,2|8,1:2|1:0,0:0:0:0:
196,48,49802,2,0,P|191:111|173:210,1,155.999992858887,10|8,1:2|1:0,0:3:0:0:
146,284,50365,1,10,1:2:0:0:
293,188,50740,6,0,P|343:167|465:166,1,155.999992858887,10|8,1:2|1:0,0:0:0:0:
464,257,51302,2,2,P|414:278|292:279,1,155.999992858887,10|8,1:2|1:0,0:3:0:0:
237,246,51865,1,8,1:2:0:0:
160,53,52240,5,10,1:2:0:0:
66,61,52427,1,10,0:1:0:0:
99,152,52615,1,10,1:0:0:0:
69,256,52802,1,14,1:0:0:0:
250,187,53177,1,8,1:0:0:0:
250,187,53365,1,6,1:0:0:0:
350,333,53740,6,0,P|397:341|444:336,1,77.9999964294435,6|2,1:2|1:2,0:0:0:0:
464,265,54115,1,8,1:0:0:0:
464,265,54302,2,2,L|481:105,1,155.999992858887,10|8,1:2|1:0,0:3:0:0:
484,23,54865,1,8,1:2:0:0:
274,90,55240,6,0,P|272:51|279:13,2,77.9999964294435,10|2|8,1:2|1:2|1:0,0:0:0:0:
310,177,55802,2,2,P|259:187|139:180,1,155.999992858887,8|8,1:2|1:0,0:3:0:0:
66,150,56365,2,0,L|93:330,1,155.999992858887,8|10,1:2|1:2,0:0:0:0:
159,361,56927,1,8,1:2:0:0:
233,308,57115,1,8,1:2:0:0:
236,218,57302,6,2,P|233:163|170:60,1,155.999992858887,10|8,1:2|1:0,0:3:0:0:
110,32,57865,1,10,1:2:0:0:
23,192,58240,5,2,1:0:0:0:
108,219,58427,1,2,1:0:0:0:
86,320,58615,1,10,1:0:0:0:
252,190,58990,1,2,1:0:0:0:
360,31,59365,6,2,P|361:87|330:205,1,155.999992858887,10|0,1:0|0:0,0:3:0:0:
105,254,64240,6,2,P|151:233|225:227,1,120,0|0,0:0|0:0,0:0:0:0:
267,152,64802,6,0,P|332:174|467:186,1,180,8|6,1:2|1:2,0:0:0:0:
416,41,65740,6,0,L|286:47,1,120,8|2,1:2|1:3,0:0:0:0:
220,75,66302,2,0,L|90:81,1,120,10|0,1:2|1:2,0:0:0:0:
30,127,66865,1,10,1:2:0:0:
105,286,67240,6,0,L|170:283,2,60,10|2|2,1:2|1:2|1:3,0:0:0:0:
156,362,67802,2,0,L|286:356,1,120,10|2,1:2|1:2,0:0:0:0:
362,344,68365,1,10,1:2:0:0:
295,197,68740,6,0,P|293:137|392:59,1,180,14|2,1:2|1:3,0:0:0:0:
465,69,69490,1,14,1:2:0:0:
378,272,69865,1,14,1:2:0:0:
214,131,70240,6,0,P|165:131|6:211,2,215.999993408203,8|0|8,1:2|1:2|1:2,0:0:0:0:
154,328,71740,6,0,P|168:282|259:230,1,143.999995605469,10|8,1:2|1:2,0:0:0:0:
311,177,72302,2,0,L|456:188,1,143.999995605469,2|0,1:2|1:2,0:0:0:0:
505,114,72865,1,8,1:2:0:0:
318,45,73240,5,8,1:2:0:0:
318,45,73427,2,0,L|238:58,1,71.9999978027344,2|8,1:2|1:2,0:0:0:0:
167,57,73802,2,0,B|174:108|174:108|164:150|164:150|179:276,1,215.999993408203,2|10,1:2|1:2,0:0:0:0:
313,366,74740,5,2,1:3:0:0:
333,278,74927,5,2,1:3:0:0:
352,193,75115,5,8,0:1:0:0:
436,236,75302,6,0,L|418:63,1,143.999995605469,14|2,1:2|1:2,0:0:0:0:
404,8,75865,1,14,1:2:0:0:
261,183,76240,6,0,P|213:196|28:191,2,215.999993408203,10|2|10,1:2|1:2|1:2,0:0:0:0:
131,89,77740,2,0,P|144:137|139:322,2,215.999993408203,10|2|8,1:2|1:2|1:2,0:0:0:0:
0,256,79240,6,0,L|100:241,1,71.9999978027344,12|2,1:2|1:2,0:0:0:0:
151,310,79615,1,10,1:2:0:0:
151,310,79802,2,0,P|219:330|309:341,1,143.999995605469,2|2,1:2|1:3,0:0:0:0:
377,328,80365,1,6,0:0:0:0:
493,103,80740,5,2,1:0:0:0:
401,147,80927,1,2,1:0:0:0:
403,38,81115,1,2,1:0:0:0:
291,75,81302,1,10,0:1:0:0:
68,36,81677,6,2,B|47:73|47:73|71:127|71:127|147:141,1,143.999995605469,14|0,1:0|0:0,0:3:0:0:
201,150,82240,6,0,P|185:252|179:336,1,155.999992858887,14|8,1:2|1:0,0:3:0:0:
247,354,82802,2,2,L|404:344,1,155.999992858887,10|8,1:2|1:0,0:3:0:0:
480,365,83365,1,0,1:0:0:0:
443,201,83740,5,10,1:2:0:0:
472,111,83927,1,2,1:2:0:0:
291,73,84302,2,0,P|238:79|117:83,1,155.999992858887,10|8,1:2|1:0,0:0:0:0:
49,93,84865,2,0,L|57:180,1,77.9999964294435,10|2,1:2|1:3,0:0:0:0:
103,258,85240,6,0,L|280:244,1,155.999992858887,10|8,1:2|1:0,0:0:0:0:
294,161,85802,2,2,L|117:175,1,155.999992858887,10|8,1:2|1:0,0:3:0:0:
49,182,86365,1,2,1:2:0:0:
95,15,86740,5,2,0:0:0:0:
464,143,87490,2,2,B|425:155|425:155|401:150|401:150|372:152,1,77.9999964294435,2|0,0:3|0:0,0:2:0:0:
342,222,87865,2,2,B|303:234|303:234|279:229|279:229|250:231,1,77.9999964294435,8|0,0:1|0:0,0:3:0:0:
183,267,88240,6,0,P|193:193|153:95,1,155.999992858887,8|8,1:2|1:0,0:0:0:0:
115,55,88802,1,0,1:0:0:0:
279,44,89177,1,8,1:0:0:0:
279,44,89365,2,0,L|373:38,1,77.9999964294435,8|2,1:2|1:3,0:0:0:0:
436,80,89740,6,0,P|421:137|406:253,1,155.999992858887,10|8,1:2|1:0,0:0:0:0:
399,319,90302,2,2,P|392:274|221:233,1,233.999989288331,14|8,1:2|1:2,0:3:0:0:
37,349,91240,6,0,P|33:310|25:260,2,77.9999964294435,10|8|8,1:2|1:2|1:0,0:0:0:0:
115,299,91802,2,2,P|139:254|153:129,1,155.999992858887,10|8,1:2|1:0,0:3:0:0:
172,71,92365,1,10,1:2:0:0:
385,114,92740,5,8,1:2:0:0:
339,193,92927,1,2,1:2:0:0:
431,246,93115,1,10,1:0:0:0:
486,31,93490,1,10,1:2:0:0:
293,264,94240,6,0,B|231:279|231:279|206:172,1,155.999992858887,12|8,1:2|1:0,0:0:0:0:
228,102,94802,2,0,L|66:121,1,155.999992858887,10|8,1:2|1:0,0:0:0:0:
4,73,95365,1,10,1:2:0:0:
37,271,95740,6,0,P|77:268|120:276,1,77.9999964294435,10|0,1:2|1:2,0:0:0:0:
169,348,96115,1,8,1:0:0:0:
169,348,96302,2,0,L|331:338,1,155.999992858887,10|8,1:2|1:0,0:0:0:0:
404,329,96865,1,10,1:2:0:0:
326,190,97240,6,0,P|324:137|364:31,1,155.999992858887,10|8,1:2|1:0,0:0:0:0:
444,62,97802,2,2,P|446:115|406:221,1,155.999992858887,10|8,1:2|1:0,0:3:0:0:
341,278,98365,1,10,1:2:0:0:
234,139,98740,5,10,0:0:0:0:
144,117,98927,5,2,1:1:0:0:
105,27,99115,5,10,1:1:0:0:
37,101,99302,6,2,L|46:260,1,155.999992858887,6|2,1:0|1:2,0:3:0:0:
53,346,99865,1,6,1:2:0:0:
191,276,100240,6,0,L|206:179,1,77.9999964294435,14|0,1:2|1:0,0:0:0:0:
272,133,100615,1,8,1:0:0:0:
272,133,100802,2,2,P|282:194|309:298,1,155.999992858887,8|8,1:2|1:0,0:3:0:0:
360,353,101365,1,8,1:2:0:0:
449,232,101740,6,0,P|459:179|461:131,2,77.9999964294435,2|2|8,1:2|1:2|1:0,0:0:0:0:
368,176,102302,2,2,L|192:188,1,155.999992858887,14|8,1:2|1:0,0:3:0:0:
133,221,102865,1,10,1:2:0:0:
50,54,103240,6,0,L|144:65,1,77.9999964294435,10|8,1:2|1:2,0:0:0:0:
216,33,103615,1,8,1:0:0:0:
216,33,103802,2,2,P|193:81|194:194,1,155.999992858887,10|8,1:2|1:0,0:3:0:0:
225,263,104365,1,10,1:2:0:0:
362,117,104740,5,10,1:2:0:0:
456,160,104927,1,2,1:0:0:0:
425,258,105115,1,10,1:0:0:0:
253,128,105490,2,0,B|202:135|202:135|166:131,1,77.9999964294435,8|2,1:2|0:0,0:0:0:0:
82,144,105865,2,0,B|86:191|86:191|63:235|63:235|73:323,1,155.999992858887,10|2,1:0|0:0,0:0:0:0:
204,371,106615,5,2,1:2:0:0:
189,252,106990,2,0,L|174:119,1,120,2|2,0:0|1:2,0:0:0:0:
276,85,107740,6,0,P|340:100|414:103,1,120,2|2,0:0|1:2,0:0:0:0:
484,106,108302,1,2,1:2:0:0:
484,106,108490,2,0,P|470:147|464:241,2,120,2|2|2,0:0|1:2|0:0,0:0:0:0:
358,30,109615,6,0,B|254:62|223:6|110:46,1,240,2|2,1:2|1:2,0:0:0:0:
40,116,110740,1,2,1:2:0:0:
129,187,111115,1,2,1:2:0:0:
101,306,111490,1,2,0:3:0:0:
255,262,111865,1,6,1:2:0:0:
411,306,112240,6,0,P|411:249|430:169,1,120,2|2,0:0|1:2,0:0:0:0:
474,74,112990,2,0,L|341:90,1,120,2|2,0:0|1:2,0:0:0:0:
243,48,113740,2,0,P|259:108|258:178,2,120,2|2|2,0:0|1:2|0:0,0:0:0:0:
140,27,114865,1,2,1:2:0:0:
46,182,115240,5,6,0:0:0:0:
150,168,115615,2,0,P|196:173|260:219,1,120,0|0,1:0|1:0,0:0:0:0:
308,320,116365,1,0,1:0:0:0:
342,170,116740,2,2,B|356:159|356:159|412:165,1,60,10|0,1:2|0:0,0:3:0:0:
488,124,117115,2,0,L|481:203,1,60,10|0,1:2|0:0,0:1:0:0:
471,285,117490,5,10,1:0:0:0:
